osu file format v14

[General]
AudioFilename: audio.mp3
AudioLeadIn: 0
PreviewTime: 54030
Countdown: 0
SampleSet: Soft
StackLeniency: 0.7
Mode: 0
LetterboxInBreaks: 0
WidescreenStoryboard: 1

[Editor]
Bookmarks: 71823
DistanceSpacing: 1
BeatDivisor: 4
GridSize: 32
TimelineZoom: 3.599999

[Metadata]
Title:a e i u e o ao!!
TitleUnicode:あ・え・い・う・え・お・あお!!
Artist:Gekidan Hitotose
ArtistUnicode:劇団ひととせ
Creator:Kashima
Version:Hard
Source:ひなこのーと
Tags:Opening Hinako Note 桜木ひな子 Sakuragi M・A・O 市道真央 Ichimichi Mao 夏川くいな Natsukawa Kuina 富田美憂 Tomita Miyu 柊 真雪 Hiiragi Mayuki 小倉唯 Ogura Yui 萩野千秋 Hagino Chiaki 東城日沙子 Hisako Tojo 中島ゆあ Nakajima Yua 高野麻里佳 Kouno Marika - Sunflower - Karen Moecho bite you death byd
BeatmapID:1310880
BeatmapSetID:620436

[Difficulty]
HPDrainRate:4.5
CircleSize:3.5
OverallDifficulty:5.6
ApproachRate:7
SliderMultiplier:1.6
SliderTickRate:1

[Events]
//Background and Video events
0,0,"hinako.png",0,0
//Break Periods
//Storyboard Layer 0 (Background)
//Storyboard Layer 1 (Fail)
//Storyboard Layer 2 (Pass)
//Storyboard Layer 3 (Foreground)
//Storyboard Sound Samples

[TimingPoints]
654,413.793103448276,4,2,1,50,1,0
3550,-66.6666666666667,4,2,1,50,0,0
3964,-200,4,2,1,50,0,0
7274,-100,4,2,1,50,0,0
9343,-100,4,2,1,50,0,0
9964,-100,4,2,1,50,0,0
11412,413.793103448276,4,2,1,50,1,0
12653,-66.6666666666667,4,2,2,50,0,0
13067,-100,4,2,1,50,0,0
16791,413.793103448276,4,2,1,50,1,0
20101,-100,4,2,1,50,0,0
23411,-83.3333333333333,4,2,1,50,0,0
25480,413.793103448276,4,2,1,50,1,0
25480,-100,4,2,1,50,0,0
28790,-83.3333333333333,4,2,1,50,0,0
30859,413.793103448276,4,2,1,50,1,0
32100,-66.6666666666667,4,2,1,50,0,0
32514,-100,4,2,1,50,0,0
38307,413.793103448276,4,2,1,50,1,0
38307,-100,4,2,1,50,0,0
41617,413.793103448276,3,2,1,50,1,0
44099,413.793103448276,4,2,1,50,1,0
50720,413.793103448276,4,2,1,50,1,0
53616,-66.6666666666667,4,2,2,50,0,0
54030,-83.3333333333333,4,2,1,70,0,1
62306,-83.3333333333333,4,2,1,70,0,1
75133,-66.6666666666667,4,2,2,70,0,1
75547,-100,4,2,1,50,0,0
79271,413.793103448276,4,2,1,50,1,0
79271,-100,4,2,1,50,0,0
82581,413.793103448276,3,2,1,50,1,0
85063,413.793103448276,4,2,1,50,1,0

[Colours]
Combo1 : 176,176,217
Combo2 : 255,157,206
Combo3 : 128,128,255
Combo4 : 255,174,255

[HitObjects]
74,109,654,5,8,0:0:0:0:
191,132,860,2,0,L|237:117,2,40,0|0|0,0:0|0:0|0:0,0:0:0:0:
307,100,1274,1,0,0:0:0:0:
419,142,1481,2,0,L|443:251,2,80,8|0|0,0:0|0:0|0:0,0:0:0:0:
178,131,2309,6,0,P|131:139|73:125,1,80,8|2,0:0|0:0,0:0:0:0:
210,90,2722,2,0,P|226:45|267:2,1,80,8|2,0:0|0:0,0:0:0:0:
224,138,3136,2,0,P|256:174|271:231,1,80,10|2,0:0|0:0,0:0:0:0:
171,331,3550,2,0,L|186:199,1,120.000004577637,10|0,0:0|0:0,0:0:0:0:
224,138,3964,6,0,P|286:148|315:144,1,80,4|0,0:1|0:0,0:0:0:0:
390,132,4585,1,0,0:0:0:0:
390,132,4688,1,0,0:0:0:0:
390,132,4791,2,0,P|381:177|389:227,1,80,0|0,0:0|0:0,0:0:0:0:
433,273,5412,1,0,0:0:0:0:
386,337,5619,6,0,L|298:355,1,80,4|0,0:1|0:0,0:0:0:0:
147,336,6447,2,0,P|202:340|231:328,1,80,4|8,0:1|0:0,0:0:0:0:
454,262,7274,6,0,P|454:220|450:177,1,80,0|0,0:0|0:0,0:0:0:0:
400,119,7688,2,0,P|337:121|297:116,1,80,8|0,0:0|0:0,0:0:0:0:
243,96,8102,6,0,P|203:85|152:103,1,80,0|0,0:0|0:0,0:0:0:0:
125,163,8516,2,0,P|171:176|216:156,1,80,8|0,0:0|0:0,0:0:0:0:
276,141,8929,5,2,0:0:0:0:
263,219,9136,1,0,0:0:0:0:
275,298,9343,1,10,0:0:0:0:
304,324,9447,2,0,L|434:319,1,120,0|2,0:0|0:0,0:0:0:0:
459,247,9964,5,0,0:0:0:0:
427,221,10068,2,0,L|293:212,1,120,8|8,0:0|0:0,0:0:0:0:
263,146,10585,5,2,0:0:0:0:
297,125,10689,2,0,L|431:116,2,120,8|2|0,0:0|0:0|0:0,0:0:0:0:
257,125,11412,2,0,L|188:118,3,40,8|8|8|8,0:0|0:0|0:0|0:0,0:0:0:0:
177,116,11825,2,0,L|108:109,3,40,8|8|8|2,0:0|0:0|0:0|0:0,0:0:0:0:
393,113,12653,2,0,B|331:138|257:96|257:96|267:124|244:178,1,180.000006866455,8|0,0:0|0:0,0:0:0:0:
292,210,13067,6,0,P|301:261|293:298,1,80,2|0,0:0|0:0,0:0:0:0:
226,327,13480,2,0,L|125:319,1,80,8|0,0:0|0:0,0:0:0:0:
68,299,13894,6,0,L|73:194,1,80,2|0,0:0|0:0,0:0:0:0:
74,178,14205,2,0,L|77:84,1,80,2|0,0:0|0:0,0:0:0:0:
78,57,14516,1,0,0:1:0:0:
152,86,14722,6,0,L|207:77,3,40,2|0|0|0,0:0|0:0|0:0|0:0,0:0:0:0:
229,67,15136,2,0,L|284:58,3,40,8|0|0|0,0:0|0:0|0:0|0:0,0:0:0:0:
301,36,15549,6,0,P|335:42|381:36,1,80,2|0,0:0|0:0,0:0:0:0:
415,17,15860,2,0,L|434:112,1,80,2|0,0:0|0:0,0:0:0:0:
437,135,16170,1,0,0:0:0:0:
459,211,16377,6,0,L|455:263,2,40,2|0|0,0:0|0:0|0:0,0:0:0:0:
382,235,16791,2,0,L|379:279,2,40,8|0|0,0:0|0:0|0:0,0:0:0:0:
302,265,17205,6,0,P|251:269|205:258,1,80,2|0,0:0|0:0,0:0:0:0:
127,221,17619,2,0,P|139:275|127:371,2,120,2|2|2,0:0|0:0|0:0,0:0:0:0:
76,158,18446,6,0,L|40:66,1,80,2|8,0:0|0:0,0:0:0:0:
126,72,18860,2,0,L|161:167,1,80,2|8,0:0|0:0,0:0:0:0:
218,194,19274,2,0,P|279:199|335:192,1,80,2|0,0:0|0:0,0:0:0:0:
376,185,19687,1,8,0:0:0:0:
467,53,20101,5,0,0:0:0:0:
483,130,20308,1,0,0:0:0:0:
467,208,20515,2,0,P|463:273|471:304,1,80
407,342,20928,6,0,L|308:362,2,80,2|0|0,0:0|0:0|0:0,0:0:0:0:
465,287,21549,6,0,P|467:242|452:184,2,80,0|0|0,0:0|0:0|0:0,0:0:0:0:
407,342,22169,2,0,L|356:349,3,40,0|0|0|0,0:0|0:0|0:0|0:0,0:0:0:0:
328,339,22583,2,0,P|293:344|239:337,2,80,2|0|0,0:0|0:0|0:0,0:0:0:0:
372,271,23204,1,0,0:0:0:0:
372,271,23307,1,0,0:0:0:0:
372,271,23411,6,0,L|385:111,1,143.999995605469,4|0,0:1|0:0,0:0:0:0:
248,76,24032,2,0,L|300:66,2,47.9999985351563,0|0|2,0:0|0:0|0:0,0:0:0:0:
154,97,24445,2,0,P|103:103|49:88,2,95.9999970703126,2|2|2,0:0|0:0|0:0,0:0:0:0:
215,171,25066,5,8,0:0:0:0:
252,298,25273,1,8,0:0:0:0:
215,171,25480,5,4,0:1:0:0:
279,218,25686,2,0,P|337:228|369:223,1,80,0|0,0:0|0:0,0:0:0:0:
434,200,26100,1,0,0:0:0:0:
413,122,26307,2,0,L|417:32,2,80,2|0|0,0:0|0:0|0:0,0:0:0:0:
434,200,26928,5,0,0:0:0:0:
434,200,27031,1,0,0:0:0:0:
434,200,27135,2,0,L|430:286,1,80,0|0,0:0|0:0,0:0:0:0:
379,341,27548,2,0,L|330:346,3,40,0|0|0|0,0:0|0:0|0:0|0:0,0:0:0:0:
300,332,27962,6,0,L|188:342,1,80,2|0,0:0|0:0,0:0:0:0:
180,331,28273,2,0,L|68:341,1,80,2|0,0:0|0:0,0:0:0:0:
48,286,28583,5,0,0:0:0:0:
48,286,28686,1,0,0:0:0:0:
48,286,28790,6,0,P|37:215|54:117,1,143.999995605469,4|0,0:1|0:0,0:0:0:0:
181,94,29411,2,0,L|133:81,2,47.9999985351563,0|0|2,0:0|0:0|0:0,0:0:0:0:
274,116,29824,2,0,P|325:122|382:105,2,95.9999970703126,2|2|2,0:0|0:0|0:0,0:0:0:0:
245,31,30446,5,8,0:0:0:0:
208,177,30653,1,8,0:0:0:0:
261,236,30859,6,0,L|345:245,1,80,0|0,0:0|0:0,0:0:0:0:
314,320,31272,2,0,L|235:333,1,80,0|8,0:0|0:0,0:0:0:0:
184,270,31686,1,8,0:0:0:0:
87,67,32100,6,0,P|33:118|73:131,1,120.000004577637,4|0,0:1|0:0,0:0:0:0:
118,145,32514,6,0,L|199:149,1,80,0|0,0:0|0:0,0:0:0:0:
266,107,32927,2,0,P|278:154|268:187,1,80,8|8,0:0|0:0,0:0:0:0:
204,231,33341,1,8,0:0:0:0:
353,289,33755,6,0,P|390:301|439:283,1,80,0|0,0:0|0:0,0:0:0:0:
392,218,34169,2,0,L|394:125,1,80,8|0,0:0|0:1,0:0:0:0:
434,68,34583,2,0,P|392:57|334:85,1,80,2|0,0:0|0:0,0:0:0:0:
256,131,34996,6,0,L|164:127,1,80,0|0,0:0|0:0,0:0:0:0:
105,87,35410,1,8,0:0:0:0:
105,167,35617,1,8,0:0:0:0:
170,212,35824,2,0,P|180:261|172:304,1,80,8|0,0:0|0:0,0:0:0:0:
300,330,36239,6,0,L|379:314,1,80,0|0,0:0|0:0,0:0:0:0:
421,246,36652,2,0,P|412:206|421:166,1,80,0|0,0:0|0:0,0:0:0:0:
490,207,37065,1,2,0:0:0:0:
357,117,37479,5,8,0:0:0:0:
357,117,37582,1,8,0:0:0:0:
357,117,37686,1,8,0:0:0:0:
282,345,38307,5,0,0:0:0:0:
274,265,38514,1,0,0:0:0:0:
266,185,38721,1,8,0:0:0:0:
253,106,38927,1,0,0:0:0:0:
253,106,39031,1,0,0:0:0:0:
253,106,39134,5,0,0:0:0:0:
187,151,39341,1,0,0:0:0:0:
110,126,39548,1,8,0:0:0:0:
45,174,39755,1,0,0:0:0:0:
45,174,39859,1,0,0:0:0:0:
45,174,39962,6,0,P|42:226|50:278,1,80,0|0,0:0|0:0,0:0:0:0:
104,308,40376,1,8,0:0:0:0:
183,296,40583,1,0,0:0:0:0:
183,296,40686,1,0,0:0:0:0:
183,296,40789,2,0,L|281:290,1,80,0|0,0:0|0:0,0:0:0:0:
336,324,41203,2,0,P|344:281|330:246,1,80,8|0,0:0|0:0,0:0:0:0:
253,208,41617,6,0,L|180:191,2,53.3333333333333,4|8|8,0:1|0:0|0:0,0:0:0:0:
330,161,42030,2,0,L|347:110,2,53.3333333333333,4|8|8,0:1|0:0|0:0,0:0:0:0:
331,248,42444,1,8,0:0:0:0:
190,324,42858,6,0,P|156:313|135:312,2,53.3333333333333,4|8|8,0:1|0:0|0:0,0:0:0:0:
268,344,43272,2,0,P|302:355|323:356,2,53.3333333333333,4|8|8,0:1|0:0|0:0,0:0:0:0:
247,262,43685,1,0,0:0:0:0:
413,106,44099,6,0,P|360:112|316:101,1,80,4|0,0:1|0:0,0:0:0:0:
334,107,44409,1,0,0:0:0:0:
334,107,44512,1,8,0:0:0:0:
316,185,44719,1,0,0:0:0:0:
289,260,44926,2,0,L|208:269,1,80,0|0,0:0|0:0,0:0:0:0:
209,268,45236,1,0,0:0:0:0:
209,268,45340,1,8,0:0:0:0:
132,292,45547,1,0,0:0:0:0:
48,225,45754,6,0,P|42:179|60:125,1,80,2|0,0:0|0:0,0:0:0:0:
70,68,46168,1,8,0:0:0:0:
125,126,46375,1,0,0:0:0:0:
182,185,46581,6,0,P|188:231|170:285,1,80,2|0,0:0|0:0,0:0:0:0:
160,342,46995,1,8,0:0:0:0:
105,284,47202,1,0,0:0:0:0:
241,318,47409,6,0,P|279:322|332:318,2,80,2|0|8,0:0|0:0|0:0,0:0:0:0:
221,282,47926,2,0,L|220:187,1,80,2|0,0:0|0:0,0:0:0:0:
229,162,48236,2,0,L|276:132,2,40,2|0|8,0:0|0:0|0:0,0:0:0:0:
192,178,48547,2,0,P|148:185|99:171,1,80,2|0,0:0|0:0,0:0:0:0:
75,164,48858,5,2,0:0:0:0:
44,90,49065,1,8,0:0:0:0:
70,14,49272,1,0,0:0:0:0:
70,14,49375,1,0,0:0:0:0:
70,14,49479,1,10,0:0:0:0:
201,63,49685,5,2,0:0:0:0:
280,75,49892,1,8,0:0:0:0:
359,62,50099,1,0,0:0:0:0:
359,62,50202,1,0,0:0:0:0:
359,62,50306,1,10,0:0:0:0:
438,72,50513,1,0,0:0:0:0:
481,192,50720,5,4,0:1:0:0:
481,192,50823,1,0,0:0:0:0:
481,192,50926,1,0,0:0:0:0:
409,278,51134,1,8,0:0:0:0:
363,177,51340,1,0,0:0:0:0:
426,40,51547,6,8,P|431:80|429:120,1,80,10|8,0:0|0:0,0:0:0:0:
364,256,51961,2,8,P|359:216|362:176,1,80,0|0,0:0|0:0,0:0:0:0:
450,235,52375,6,0,P|455:277|449:324,1,80,8|2,0:0|0:0,0:0:0:0:
283,356,52788,2,0,P|278:314|284:267,1,80,8|2,0:0|0:0,0:0:0:0:
362,176,53202,6,0,P|367:218|361:265,2,80,10|2|10,0:0|0:0|0:0,0:0:0:0:
190,87,54030,6,0,P|138:88|55:82,2,95.9999970703126,2|0|8,0:0|0:0|0:0,0:0:0:0:
269,141,54651,1,2,0:0:0:0:
220,223,54857,2,0,P|213:282|223:326,2,95.9999970703126,2|0|8,0:0|0:0|0:0,0:0:0:0:
269,141,55478,2,0,P|328:144|364:140,1,95.9999970703126,2|2,0:0|0:0,0:0:0:0:
446,89,55892,2,0,P|460:141|445:201,1,95.9999970703126,2|10,0:0|0:0,0:0:0:0:
415,270,56306,1,0,0:0:0:0:
350,341,56513,2,0,P|298:335|243:344,1,95.9999970703126,0|0,0:0|0:0,0:0:0:0:
160,358,56926,2,0,P|112:364|52:351,1,95.9999970703126,8|0,0:0|0:0,0:0:0:0:
65,355,57237,1,0,0:0:0:0:
65,355,57340,1,2,0:0:0:0:
72,205,57547,5,0,0:0:0:0:
124,124,57754,2,0,L|115:72,2,47.9999985351563,8|0|0,0:0|0:0|0:0,0:0:0:0:
214,150,58168,2,0,P|286:153|353:135,1,95.9999970703126,2|2,0:0|0:0,0:0:0:0:
403,130,58582,2,0,L|388:240,1,95.9999970703126,10|2,0:0|0:0,0:0:0:0:
311,280,58995,6,0,L|300:177,1,95.9999970703126,0|0,0:0|0:0,0:0:0:0:
270,92,59409,1,10,0:0:0:0:
222,113,59513,2,0,B|167:120|104:115,1,95.9999970703126,2|0,0:0|0:0,0:0:0:0:
80,100,59823,1,2,0:0:0:0:
47,190,60030,1,0,0:0:0:0:
89,276,60237,1,8,0:0:0:0:
186,319,60444,1,0,0:0:0:0:
186,319,60547,1,0,0:0:0:0:
186,319,60651,6,0,P|237:310|294:330,1,95.9999970703126,2|0,0:0|0:0,0:0:0:0:
367,359,61064,2,0,P|424:374|486:357,1,95.9999970703126,8|0,0:0|0:0,0:0:0:0:
422,279,61478,2,0,L|430:161,1,95.9999970703126,0|2,0:0|0:0,0:0:0:0:
342,138,61892,2,0,L|333:247,1,95.9999970703126,10|2,0:0|0:0,0:0:0:0:
451,288,62306,6,0,L|457:151,1,95.9999970703126,2|0,0:0|0:0,0:0:0:0:
455,192,62616,1,0,0:0:0:0:
455,192,62720,1,10,0:0:0:0:
384,127,62926,2,0,P|331:139|268:119,2,95.9999970703126,0|0|0,0:0|0:0|0:0,0:0:0:0:
477,104,63547,2,0,L|458:241,1,95.9999970703126,10|0,0:0|0:0,0:0:0:0:
309,299,63961,6,0,L|382:292,4,47.9999985351563,2|0|0|0|8,0:0|0:0|0:0|0:0|0:0,0:0:0:0:
217,328,64582,2,0,L|161:324,4,47.9999985351563,2|0|0|0|0,0:0|0:0|0:0|0:0|0:0,0:0:0:0:
274,251,65202,5,8,0:0:0:0:
258,156,65409,1,8,0:0:0:0:
151,60,65616,6,0,L|205:67,4,47.9999985351563,2|0|0|0|8,0:0|0:0|0:0|0:0|0:0,0:0:0:0:
346,67,66237,2,0,L|273:59,4,47.9999985351563,2|0|0|0|0,0:0|0:0|0:0|0:0|0:0,0:0:0:0:
402,144,66857,5,8,0:0:0:0:
391,239,67064,1,8,0:0:0:0:
371,346,67271,6,0,B|318:341|289:292|289:292|255:283|193:310,1,191.999994140625,2|10,0:0|0:0,0:0:0:0:
326,196,68099,2,0,B|379:201|408:250|408:250|442:259|504:232,1,191.999994140625,2|10,0:0|0:0,0:0:0:0:
320,288,68926,2,0,P|245:243|372:118,1,287.999991210938,2|0,0:0|0:0,0:0:0:0:
411,152,69754,2,0,L|433:204,3,47.9999985351563,0|0|0|0,0:0|0:0|0:0|0:0,0:0:0:0:
445,227,70168,6,0,L|467:279,3,47.9999985351563,10|0|0|0,0:0|0:0|0:0|0:0,0:0:0:0:
446,316,70582,2,0,P|379:338|330:321,1,95.9999970703126,8|0,0:0|0:0,0:0:0:0:
288,274,70995,6,0,L|242:286,3,47.9999985351563,8|0|0|0,0:0|0:0|0:0|0:0,0:0:0:0:
195,299,71409,2,0,L|93:290,1,95.9999970703126,8|0,0:0|0:0,0:0:0:0:
41,213,71823,6,0,L|87:201,3,47.9999985351563,10|0|0|0,0:0|0:0|0:0|0:0,0:0:0:0:
134,191,72237,2,0,L|201:197,1,47.9999985351563,8|0,0:0|0:0,0:0:0:0:
277,191,72547,2,0,L|363:201,1,47.9999985351563,8|0,0:0|0:0,0:0:0:0:
420,198,72857,2,0,L|461:125,2,47.9999985351563,8|0|0,0:0|0:0|0:0,0:0:0:0:
396,240,73168,2,0,L|363:302,3,47.9999985351563,2|0|0|8,0:0|0:0|0:0|0:0,0:0:0:0:
284,319,73685,2,0,L|216:322,1,47.9999985351563,8|0,0:0|0:0,0:0:0:0:
187,323,73892,6,0,L|121:340,3,47.9999985351563,8|8|2|2,0:0|0:0|0:0|0:0,0:0:0:0:
92,333,74306,2,0,L|37:325,3,47.9999985351563,8|8|8|2,0:0|0:0|0:0|0:0,0:0:0:0:
351,142,75133,6,0,B|323:102|317:56|317:56|301:116|225:153,1,180.000006866455,8|0,0:0|0:0,0:0:0:0:
220,210,75547,6,0,P|211:261|219:298,1,80,2|0,0:0|0:0,0:0:0:0:
286,327,75961,2,0,L|387:319,1,80,8|0,0:0|0:0,0:0:0:0:
444,299,76375,6,0,L|439:194,1,80,2|0,0:0|0:0,0:0:0:0:
438,178,76685,2,0,L|435:84,1,80,2|0,0:0|0:0,0:0:0:0:
434,57,76996,1,2,0:0:0:0:
360,86,77202,6,0,L|305:77,3,40,2|0|0|0,0:0|0:0|0:0|0:0,0:0:0:0:
283,67,77616,2,0,L|228:58,3,40,8|0|0|0,0:0|0:0|0:0|0:0,0:0:0:0:
211,36,78030,6,0,P|177:42|131:36,1,80,2|0,0:0|0:0,0:0:0:0:
97,17,78340,2,0,L|78:112,1,80,2|0,0:0|0:0,0:0:0:0:
75,135,78650,5,2,0:0:0:0:
53,211,78857,6,0,L|57:263,2,40,2|0|0,0:0|0:0|0:0,0:0:0:0:
130,235,79271,2,0,L|133:279,2,40,2|0|2,0:0|0:0|0:0,0:0:0:0:
210,265,79685,6,0,P|261:269|307:258,1,80,8|0,0:0|0:0,0:0:0:0:
385,221,80099,2,0,P|373:275|385:371,2,120,2|2|2,0:0|0:0|0:0,0:0:0:0:
436,158,80926,6,0,L|472:66,1,80,2|8,0:0|0:0,0:0:0:0:
386,72,81340,2,0,L|351:167,1,80,2|8,0:0|0:0,0:0:0:0:
294,194,81754,2,0,P|233:199|177:192,1,80,2|0,0:0|0:0,0:0:0:0:
136,185,82167,1,8,0:0:0:0:
69,39,82581,6,0,P|39:40|6:34,2,53.3333333333333,4|8|8,0:1|0:0|0:0,0:0:0:0:
153,34,82994,2,0,P|191:34|213:40,2,53.3333333333333,4|8|8,0:1|0:0|0:0,0:0:0:0:
115,110,83408,1,8,0:0:0:0:
154,265,83822,6,0,P|155:309|150:333,2,53.3333333333333,4|8|8,0:1|0:0|0:0,0:0:0:0:
147,184,84236,2,0,P|145:149|148:123,2,53.3333333333333,4|8|8,0:1|0:0|0:0,0:0:0:0:
232,222,84649,1,0,0:0:0:0:
441,40,85063,5,4,0:1:0:0:
256,192,85166,12,0,89201,0:0:0:0:
