osu file format v14

[General]
AudioFilename: audio.mp3
AudioLeadIn: 0
PreviewTime: 54030
Countdown: 0
SampleSet: Soft
StackLeniency: 0.7
Mode: 0
LetterboxInBreaks: 0
WidescreenStoryboard: 0

[Editor]
Bookmarks: 71823
DistanceSpacing: 1.1
BeatDivisor: 4
GridSize: 32
TimelineZoom: 3.599999

[Metadata]
Title:a e i u e o ao!!
TitleUnicode:あ・え・い・う・え・お・あお!!
Artist:Gekidan Hitotose
ArtistUnicode:劇団ひととせ
Creator:Kashima
Version:Extra
Source:ひなこのーと
Tags:Opening Hinako Note 桜木ひな子 Sakuragi M・A・O 市道真央 Ichimichi Mao 夏川くいな Natsukawa Kuina 富田美憂 Tomita Miyu 柊 真雪 Hiiragi Mayuki 小倉唯 Ogura Yui 萩野千秋 Hagino Chiaki 東城日沙子 Hisako Tojo 中島ゆあ Nakajima Yua 高野麻里佳 Kouno Marika - Sunflower - Karen Moecho bite you death byd
BeatmapID:1307641
BeatmapSetID:620436

[Difficulty]
HPDrainRate:6
CircleSize:4.3
OverallDifficulty:8.5
ApproachRate:9.2
SliderMultiplier:2
SliderTickRate:1

[Events]
//Background and Video events
0,0,"hinako.png",0,0
//Break Periods
//Storyboard Layer 0 (Background)
//Storyboard Layer 1 (Fail)
//Storyboard Layer 2 (Pass)
//Storyboard Layer 3 (Foreground)
//Storyboard Sound Samples

[TimingPoints]
654,413.793103448276,4,2,1,50,1,0
3550,-66.6666666666667,4,2,1,50,0,0
3964,-200,4,2,1,50,0,0
9343,-133.333333333333,4,2,1,50,0,0
9964,-100,4,2,1,50,0,0
10585,-83.3333333333333,4,2,1,50,0,0
10998,-71.4285714285714,4,2,1,50,0,0
11412,413.793103448276,4,2,1,50,1,0
12653,-66.6666666666667,4,2,2,50,0,0
13067,-83.3333333333333,4,2,1,50,0,0
16791,413.793103448276,4,2,1,50,1,0
16791,-83.3333333333333,4,2,1,50,0,0
20101,-100,4,2,1,50,0,0
23411,-83.3333333333333,4,2,1,50,0,0
25480,413.793103448276,4,2,1,50,1,0
25480,-100,4,2,1,50,0,0
28790,-83.3333333333333,4,2,1,50,0,0
30859,413.793103448276,4,2,1,50,1,0
32100,-66.6666666666667,4,2,1,50,0,0
32514,-125,4,2,1,50,0,0
38307,413.793103448276,4,2,1,50,1,0
38307,-100,4,2,1,50,0,0
41617,413.793103448276,3,2,1,50,1,0
44099,413.793103448276,4,2,1,50,1,0
50720,413.793103448276,4,2,1,50,1,0
53616,-66.6666666666667,4,2,2,50,0,0
54030,-83.3333333333333,4,2,1,70,0,1
55616,-83.3333333333333,4,2,1,5,0,1
55685,-83.3333333333333,4,2,1,70,0,1
55823,-83.3333333333333,4,2,1,5,0,1
55892,-83.3333333333333,4,2,1,70,0,1
56030,-83.3333333333333,4,2,1,5,0,1
56099,-83.3333333333333,4,2,1,70,0,1
58271,-83.3333333333333,4,2,1,5,0,1
58375,-83.3333333333333,4,2,1,70,0,1
58478,-83.3333333333333,4,2,1,5,0,1
58582,-83.3333333333333,4,2,1,70,0,1
58685,-83.3333333333333,4,2,1,5,0,1
58788,-83.3333333333333,4,2,1,70,0,1
58892,-83.3333333333333,4,2,1,5,0,1
58995,-83.3333333333333,4,2,1,70,0,1
61788,-83.3333333333333,4,2,1,5,0,1
61892,-83.3333333333333,4,2,1,70,0,1
61995,-83.3333333333333,4,2,1,5,0,1
62099,-83.3333333333333,4,2,1,70,0,1
62202,-83.3333333333333,4,2,1,5,0,1
62306,-83.3333333333333,4,2,1,70,0,1
75133,-66.6666666666667,4,2,2,70,0,1
75547,-83.3333333333333,4,2,1,50,0,0
79271,413.793103448276,4,2,1,50,1,0
79271,-83.3333333333333,4,2,1,50,0,0
82581,413.793103448276,3,2,1,50,1,0
85063,413.793103448276,4,2,1,50,1,0

[Colours]
Combo1 : 176,176,217
Combo2 : 255,157,206
Combo3 : 128,128,255
Combo4 : 255,174,255

[HitObjects]
92,41,654,5,8,0:0:0:0:
236,159,860,1,0,0:0:0:0:
243,198,964,1,0,0:0:0:0:
249,237,1067,1,0,0:0:0:0:
359,30,1274,1,0,0:0:0:0:
249,237,1481,2,0,L|270:347,2,100,8|0|0,0:0|0:0|0:0,0:0:0:0:
301,33,2309,6,0,L|304:9,1,25,8|0,0:0|0:0,0:0:0:0:
282,103,2516,2,0,L|285:128,1,25,2|0,0:0|0:0,0:0:0:0:
400,26,2722,6,0,L|402:1,1,25,8|0,0:0|0:0,0:0:0:0:
384,148,2929,2,0,L|389:178,1,25,2|0,0:0|0:0,0:0:0:0:
501,24,3136,6,0,L|503:0,1,25,10|0,0:0|0:0,0:0:0:0:
492,182,3343,2,0,L|497:212,1,25,2|0,0:0|0:0,0:0:0:0:
394,316,3550,2,0,P|348:280|437:283,1,200.000007629395,6|0,0:0|0:0,0:0:0:0:
394,316,3964,6,0,B|335:292|266:313|266:313|197:335|130:307,1,250,4|0,0:1|0:1,0:1:0:0:
59,288,5619,2,0,P|88:200|124:243,1,166.666666666667,4|0,0:1|0:0,0:0:0:0:
238,283,6447,2,0,L|129:289,1,100,4|8,0:1|0:0,0:0:0:0:
267,81,7274,5,0,0:0:0:0:
135,125,7481,1,0,0:0:0:0:
25,42,7688,1,8,0:0:0:0:
50,170,7791,2,0,P|54:146|49:122,1,50
23,243,8102,5,0,0:0:0:0:
106,297,8309,1,0,0:0:0:0:
206,295,8516,1,8,0:0:0:0:
287,237,8722,1,0,0:0:0:0:
265,139,8929,5,2,0:0:0:0:
206,295,9136,1,0,0:0:0:0:
287,237,9343,5,10,0:0:0:0:
339,135,9447,2,0,L|260:139,1,75.0000028610231
204,204,9757,1,2,0:0:0:0:
161,78,9964,5,0,0:0:0:0:
96,183,10067,2,0,L|75:78,1,100,8|0,0:0|0:0,0:0:0:0:
195,154,10378,2,0,L|206:220,1,50,8|0,0:0|0:0,0:0:0:0:
188,300,10585,5,2,0:0:0:0:
306,201,10688,2,0,B|283:59,1,119.999996337891,8|0,0:0|0:0,0:0:0:0:
320,350,10998,5,2,0:0:0:0:
450,236,11102,2,0,L|424:81,1,139.999995727539,8|0,0:0|0:0,0:0:0:0:
363,21,11412,5,8,0:0:0:0:
286,82,11515,1,8,0:0:0:0:
199,28,11619,5,8,0:0:0:0:
122,89,11722,1,8,0:0:0:0:
21,42,11825,5,8,0:0:0:0:
35,146,11929,1,8,0:0:0:0:
48,249,12032,1,8,0:0:0:0:
64,353,12136,2,0,L|121:369,1,50,2|0,0:0|0:0,0:0:0:0:
313,328,12654,2,0,B|270:388|191:385|191:385|201:329|141:280,1,200.000007629395,8|0,0:0|0:0,0:0:0:0:
245,293,13067,5,0,0:0:0:0:
248,269,13170,1,0,0:0:0:0:
251,245,13273,1,0,0:0:0:0:
254,221,13377,1,0,0:0:0:0:
311,175,13480,5,8,0:0:0:0:
331,113,13583,1,0,0:0:0:0:
294,59,13687,1,0,0:0:0:0:
228,55,13790,1,0,0:0:0:0:
184,216,13894,6,0,L|64:227,1,119.999996337891,2|0,0:0|0:0,0:0:0:0:
8,112,14205,2,0,L|127:100,1,119.999996337891,2|0,0:0|0:0,0:0:0:0:
257,124,14516,1,0,0:1:0:0:
487,163,14722,5,2,0:0:0:0:
421,166,14825,1,0,0:0:0:0:
424,232,14929,1,0,0:0:0:0:
489,229,15032,1,0,0:0:0:0:
487,163,15136,5,8,0:0:0:0:
421,166,15239,1,0,0:0:0:0:
424,232,15343,1,0,0:0:0:0:
489,229,15447,1,0,0:0:0:0:
451,100,15549,6,0,L|317:50,1,119.999996337891,2|0,0:0|0:0,0:0:0:0:
242,161,15860,2,0,L|354:202,1,119.999996337891,2|0,0:0|0:0,0:0:0:0:
185,102,16171,2,0,P|162:132|161:158,1,59.9999981689454
205,248,16377,5,2,0:0:0:0:
280,228,16480,1,0,0:0:0:0:
354,202,16584,1,0,0:0:0:0:
267,306,16791,5,8,0:0:0:0:
342,286,16894,1,0,0:0:0:0:
416,260,16997,2,0,L|493:228,1,59.9999981689454
496,92,17205,5,2,0:0:0:0:
494,116,17308,1,0,0:0:0:0:
493,140,17411,1,0,0:0:0:0:
492,164,17515,1,0,0:0:0:0:
416,260,17618,2,0,L|406:327,1,59.9999981689454,2|0,0:0|0:0,0:0:0:0:
341,196,17826,5,2,0:0:0:0:
284,229,17929,1,2,0:0:0:0:
317,107,18136,5,2,0:0:0:0:
252,95,18239,1,2,0:0:0:0:
51,62,18446,5,2,0:0:0:0:
57,103,18549,1,8,0:0:0:0:
86,218,18653,5,8,0:0:0:0:
88,176,18756,1,8,0:0:0:0:
160,73,18859,5,2,0:0:0:0:
166,114,18963,1,8,0:0:0:0:
195,229,19066,5,8,0:0:0:0:
197,187,19170,1,8,0:0:0:0:
269,76,19273,5,2,0:0:0:0:
316,21,19377,1,0,0:0:0:0:
382,49,19480,1,0,0:0:0:0:
376,121,19584,1,0,0:0:0:0:
306,137,19687,1,8,0:0:0:0:
138,30,20101,5,0,0:0:0:0:
81,132,20307,1,0,0:0:0:0:
78,157,20411,1,0,0:0:0:0:
75,181,20514,1,0,0:0:0:0:
169,172,20618,2,0,L|158:271,1,100
356,167,20928,6,0,L|240:154,1,100,2|0,0:0|0:0,0:0:0:0:
343,316,21239,2,0,L|227:303,1,100,2|0,0:0|0:0,0:0:0:0:
148,262,21549,6,0,P|137:231|143:200,1,50
204,91,21756,2,0,L|210:184,1,50
289,206,21963,2,0,P|316:218|361:209,1,50
332,138,22169,5,0,0:0:0:0:
335,101,22273,1,0,0:0:0:0:
340,62,22376,1,0,0:0:0:0:
344,25,22480,1,0,0:0:0:0:
450,10,22583,5,2,0:0:0:0:
443,79,22686,1,0,0:0:0:0:
436,149,22790,1,0,0:0:0:0:
428,229,22894,6,0,L|418:329,1,100,2|0,0:0|0:0,0:0:0:0:
347,342,23204,1,0,0:0:0:0:
289,300,23307,1,0,0:0:0:0:
364,181,23411,6,0,P|294:187|236:158,1,119.999996337891,4|0,0:1|0:0,0:0:0:0:
166,113,23721,2,0,L|178:201,1,59.9999981689454
287,272,24031,1,0,0:0:0:0:
292,313,24134,1,0,0:0:0:0:
363,240,24238,2,0,P|367:210|363:180,1,59.9999981689454,2|0,0:0|0:0,0:0:0:0:
338,109,24445,2,0,L|356:65,2,29.9999990844727,2|0|0,0:0|0:0|0:0,0:0:0:0:
259,121,24652,2,0,L|199:115,1,59.9999981689454,2|0,0:0|0:0,0:0:0:0:
76,148,24859,2,0,P|111:158|140:149,1,59.9999981689454,2|0,0:0|0:0,0:0:0:0:
110,77,25066,5,8,0:0:0:0:
182,299,25273,1,8,0:0:0:0:
76,148,25480,5,4,0:1:0:0:
244,127,25686,2,0,P|221:114|205:97,1,50
322,130,25893,2,0,P|343:116|367:111,1,50
279,194,26100,2,0,P|279:219|272:242,1,50
467,222,26307,2,0,P|417:197|443:153,1,100,2|0,0:0|0:0,0:0:0:0:
457,305,26617,2,0,P|403:294|368:267,1,100,2|0,0:0|0:0,0:0:0:0:
447,24,26928,5,0,0:0:0:0:
477,39,27031,1,0,0:0:0:0:
423,89,27135,2,0,L|324:106,1,100
266,64,27446,1,0,0:0:0:0:
288,174,27548,5,0,0:0:0:0:
325,176,27652,1,0,0:0:0:0:
363,179,27755,1,0,0:0:0:0:
400,181,27859,1,0,0:0:0:0:
512,240,27962,6,0,L|403:257,1,100,2|0,0:0|0:0,0:0:0:0:
266,304,28273,2,0,L|364:319,1,100,2|0,0:0|0:0,0:0:0:0:
413,255,28583,1,0,0:0:0:0:
400,181,28686,1,0,0:0:0:0:
210,137,28790,6,0,L|329:127,1,119.999996337891,4|0,0:1|0:0,0:0:0:0:
140,75,29100,2,0,L|61:64,1,59.9999981689454
181,221,29411,1,0,0:0:0:0:
187,250,29514,1,0,0:0:0:0:
253,288,29618,2,0,P|284:296|330:279,1,59.9999981689454,2|0,0:0|0:0,0:0:0:0:
380,257,29824,2,0,L|403:304,2,29.9999990844727,2|0|0,0:0|0:0|0:0,0:0:0:0:
285,150,30031,2,0,P|290:189|285:222,1,59.9999981689454,2|0,0:0|0:0,0:0:0:0:
342,93,30238,2,0,P|384:91|419:81,1,59.9999981689454,2|0,0:0|0:0,0:0:0:0:
262,72,30446,5,8,0:0:0:0:
380,257,30653,1,8,0:0:0:0:
195,153,30859,5,0,0:0:0:0:
74,239,31066,1,0,0:0:0:0:
68,88,31273,1,0,0:0:0:0:
191,3,31480,5,8,0:0:0:0:
384,203,31686,1,8,0:0:0:0:
486,193,32100,6,0,B|438:203|367:180|367:180|396:219,1,150.000005722046,4|0,0:1|0:0,0:0:0:0:
420,351,32514,6,0,P|429:313|430:272,1,80
384,203,32927,1,8,0:0:0:0:
508,301,33134,1,8,0:0:0:0:
480,73,33341,2,0,P|489:134|482:213,1,120,8|0,0:0|0:0,0:0:0:0:
354,299,33755,6,0,L|434:270,1,80
158,299,34169,2,0,L|77:270,1,80,8|0,0:0|0:1,0:0:0:0:
256,144,34583,2,0,L|255:272,1,120,2|0,0:0|0:0,0:0:0:0:
190,80,34996,6,0,L|115:54,1,80
65,174,35410,1,8,0:0:0:0:
256,144,35617,1,8,0:0:0:0:
161,306,35824,2,0,L|165:186,1,120,8|0,0:0|0:0,0:0:0:0:
341,249,36239,6,0,L|344:159,1,80
315,15,36652,2,0,L|314:102,1,80
313,318,37065,1,2,0:0:0:0:
440,160,37479,5,8,0:0:0:0:
440,160,37582,1,8,0:0:0:0:
440,160,37686,1,8,0:0:0:0:
223,92,38307,5,0,0:0:0:0:
186,185,38514,1,0,0:0:0:0:
224,277,38721,1,8,0:0:0:0:
398,187,38927,1,0,0:0:0:0:
402,152,39031,1,0,0:0:0:0:
407,116,39134,5,0,0:0:0:0:
186,185,39341,1,0,0:0:0:0:
407,278,39548,1,8,0:0:0:0:
286,81,39755,1,0,0:0:0:0:
290,116,39859,1,0,0:0:0:0:
364,91,39962,6,0,P|420:98|464:85,1,100
335,20,40375,1,8,0:0:0:0:
333,267,40582,1,0,0:0:0:0:
333,232,40686,1,0,0:0:0:0:
333,196,40789,1,0,0:0:0:0:
335,20,40996,1,0,0:0:0:0:
258,215,41203,1,8,0:0:0:0:
461,86,41410,2,0,P|431:92|398:89,1,50
279,86,41617,5,4,0:1:0:0:
229,42,41754,1,8,0:0:0:0:
216,107,41892,1,8,0:0:0:0:
97,163,42030,5,4,0:1:0:0:
95,229,42167,1,8,0:0:0:0:
154,198,42306,1,8,0:0:0:0:
282,275,42444,5,8,0:0:0:0:
282,275,42858,5,4,0:1:0:0:
264,353,42996,1,8,0:0:0:0:
341,332,43134,1,8,0:0:0:0:
256,193,43272,5,4,0:1:0:0:
278,115,43410,1,8,0:0:0:0:
200,135,43548,1,8,0:0:0:0:
340,171,43685,2,0,P|393:165|461:184,1,100,0|0,0:1|0:0,0:0:0:0:
386,42,44099,6,0,P|333:48|265:29,1,100,4|0,0:1|0:0,0:0:0:0:
210,9,44409,1,0,0:0:0:0:
212,31,44512,1,8,0:0:0:0:
172,154,44719,1,0,0:0:0:0:
167,124,44823,1,0,0:0:0:0:
162,94,44926,1,0,0:0:0:0:
152,227,45133,5,0,0:0:0:0:
301,127,45341,1,8,0:0:0:0:
127,27,45548,1,0,0:0:0:0:
81,281,45754,6,0,P|64:208|83:170,1,100,2|0,0:0|0:0,0:0:0:0:
101,118,46065,1,0,0:0:0:0:
115,96,46168,1,8,0:0:0:0:
1,324,46375,1,0,0:0:0:0:
267,321,46582,6,0,P|219:325|166:319,1,100,2|0,0:0|0:0,0:0:0:0:
153,245,46893,1,0,0:0:0:0:
162,216,46996,1,8,0:0:0:0:
341,361,47203,1,0,0:0:0:0:
416,138,47409,6,0,P|464:146|525:135,1,100,2|0,0:0|0:0,0:0:0:0:
346,182,47719,2,0,L|337:265,1,50,0|8,0:0|0:0,0:0:0:0:
343,99,47926,2,0,P|348:41|331:-8,1,100,2|0,0:0|0:0,0:0:0:0:
148,148,48236,6,0,P|197:143|240:160,1,50,2|0,0:0|0:0,0:0:0:0:
270,148,48443,1,8,0:0:0:0:
229,308,48547,2,0,P|239:250|217:194,1,100,2|0,0:0|0:0,0:0:0:0:
177,19,48858,5,2,0:0:0:0:
326,86,49065,1,8,0:0:0:0:
485,18,49272,1,0,0:0:0:0:
485,18,49375,1,0,0:0:0:0:
485,18,49479,1,10,0:0:0:0:
501,189,49685,5,2,0:0:0:0:
326,86,49892,1,8,0:0:0:0:
166,194,50099,1,0,0:0:0:0:
166,194,50202,1,0,0:0:0:0:
166,194,50306,1,10,0:0:0:0:
334,285,50513,1,0,0:0:0:0:
478,190,50720,5,4,0:1:0:0:
438,186,50823,1,0,0:0:0:0:
399,182,50927,1,0,0:0:0:0:
166,194,51134,1,8,0:0:0:0:
276,160,51340,1,0,0:0:0:0:
334,338,51547,6,8,P|321:271|337:215,1,100,10|8,0:0|0:0,0:0:0:0:
344,4,51961,2,8,P|357:71|341:127,1,100
142,183,52375,6,0,L|174:180,1,25,8|0,0:0|0:0,0:0:0:0:
265,58,52581,2,0,L|241:61,1,25,2|0,0:0|0:0,0:0:0:0:
122,264,52788,6,0,L|155:262,1,25,8|0,0:0|0:0,0:0:0:0:
351,101,52995,2,0,L|326:104,1,25,2|0,0:0|0:0,0:0:0:0:
102,344,53202,6,0,L|134:341,1,25,10|0,0:0|0:0,0:0:0:0:
428,150,53409,2,0,L|403:152,1,25,2|0,0:0|0:0,0:0:0:0:
224,271,53616,6,0,B|278:279|304:340|304:340|304:274|351:241,1,225.000008583069,10|0,0:0|0:0,3:0:0:0:
257,88,54030,6,0,L|278:211,2,119.999996337891,2|0|8,0:0|0:0|0:0,0:0:0:0:
184,37,54547,1,0,0:0:0:0:
96,64,54651,2,0,P|65:68|26:62,1,59.9999981689454,2|0,0:0|0:0,0:0:0:0:
158,134,54857,1,2,0:0:0:0:
107,213,54961,2,0,P|99:250|111:294,1,59.9999981689454,2|0,0:0|0:0,0:0:0:0:
308,248,55168,2,0,P|247:250|179:243,1,119.999996337891,2|0,0:0|0:0,0:0:0:0:
96,64,55478,6,0,P|118:96|153:115,1,79.9999975585938,2|0,0:0|0:0,0:0:0:0:
301,70,55685,2,0,P|261:73|227:94,1,79.9999975585938,2|0,0:0|0:0,0:0:0:0:
189,245,55892,2,0,P|206:209|205:169,1,79.9999975585938,2|0,0:0|0:0,0:0:0:0:
96,64,56099,1,10,0:0:0:0:
283,157,56202,2,0,L|342:185,1,59.9999981689454,2|0,0:0|0:0,0:0:0:0:
433,342,56409,6,0,P|406:252|436:169,1,179.999994506836,0|0,0:1|0:0,0:0:0:0:
373,78,56823,1,0,0:0:0:0:
283,157,56926,2,0,P|193:165|155:155,1,119.999996337891,8|0,0:0|0:0,0:0:0:0:
68,108,57237,1,0,0:0:0:0:
103,241,57340,1,2,0:0:0:0:
283,157,57547,5,0,0:0:0:0:
265,349,57754,1,8,0:0:0:0:
437,283,57857,2,0,P|377:306|309:288,1,119.999996337891
165,158,58168,2,0,P|166:114|139:46,1,59.9999981689454,2|0,0:0|0:0,0:0:0:0:
238,203,58375,2,0,P|282:204|350:177,1,59.9999981689454,2|0,0:0|0:0,0:0:0:0:
184,273,58582,2,0,P|183:317|210:385,1,59.9999981689454,10|0,0:0|0:0,0:0:0:0:
116,226,58788,2,0,P|72:225|4:252,1,59.9999981689454,2|0,0:0|0:0,0:0:0:0:
267,121,58995,6,0,L|255:2,1,119.999996337891
238,203,59409,1,10,0:0:0:0:
439,186,59513,2,0,B|386:169|321:188,1,119.999996337891,2|0,0:0|0:0,0:0:0:0:
292,279,59823,1,2,0:0:0:0:
254,1,60030,1,0,0:0:0:0:
155,222,60237,1,8,0:0:0:0:
350,90,60444,1,0,0:0:0:0:
396,99,60547,1,0,0:0:0:0:
498,159,60651,6,0,L|377:182,1,119.999996337891,2|0,0:0|0:0,0:0:0:0:
459,35,61064,1,8,0:0:0:0:
304,154,61271,1,0,0:0:0:0:
326,350,61375,2,0,P|332:287|316:219,1,119.999996337891,2|0,0:0|0:0,0:0:0:0:
304,154,61685,2,0,P|279:102|263:86,1,59.9999981689454,2|0,0:0|0:0,0:0:0:0:
221,201,61892,2,0,P|188:182|159:177,1,59.9999981689454,10|0,0:0|0:0,0:0:0:0:
208,295,62099,2,0,P|164:304|143:315,1,59.9999981689454,2|0,0:0|0:0,0:0:0:0:
438,331,62306,6,0,L|450:199,1,119.999996337891,2|0,0:0|0:0,0:0:0:0:
512,116,62616,1,0,0:0:0:0:
352,150,62720,1,10,0:0:0:0:
429,29,62823,2,0,L|422:105,1,59.9999981689454,2|0,0:0|0:0,0:0:0:0:
369,242,63030,2,0,L|223:246,1,119.999996337891,2|0,0:0|0:0,0:0:0:0:
173,280,63340,1,0,0:0:0:0:
173,280,63444,1,0,0:0:0:0:
345,340,63547,2,0,L|187:344,1,119.999996337891,10|0,0:0|0:0,0:0:0:0:
102,240,63961,5,2,0:0:0:0:
97,191,64064,1,0,0:0:0:0:
93,143,64168,1,0,0:0:0:0:
90,94,64271,1,0,0:0:0:0:
86,46,64375,1,8,0:0:0:0:
13,101,64582,5,2,0:0:0:0:
17,149,64685,1,0,0:0:0:0:
20,198,64788,1,0,0:0:0:0:
24,246,64892,1,0,0:0:0:0:
29,295,64995,1,0,0:0:0:0:
342,336,65202,6,0,P|310:341|233:322,1,59.9999981689454,8|0,0:0|0:0,0:0:0:0:
205,309,65409,2,0,P|178:286|158:241,1,59.9999981689454,8|0,0:0|0:0,0:0:0:0:
195,79,65616,5,2,0:0:0:0:
233,25,65720,1,0,0:0:0:0:
296,46,65823,1,0,0:0:0:0:
296,112,65926,1,0,0:0:0:0:
233,132,66030,1,8,0:0:0:0:
437,228,66237,5,2,0:0:0:0:
469,284,66340,1,0,0:0:0:0:
423,332,66444,1,0,0:0:0:0:
363,303,66547,1,0,0:0:0:0:
372,238,66651,1,0,0:0:0:0:
249,77,66857,5,8,0:0:0:0:
221,269,67064,1,8,0:0:0:0:
174,281,67168,1,0,0:0:0:0:
83,283,67271,6,0,B|101:213|101:213|212:185,1,179.999994506836,2|0,0:0|0:0,0:0:0:0:
343,149,67685,2,0,B|308:177|292:210|292:210|302:156|262:111,1,179.999994506836,10|0,0:0|0:0,0:0:0:0:
347,63,68099,2,0,B|381:34|398:2|398:2|388:56|423:95,1,179.999994506836,2|0,0:0|0:0,0:0:0:0:
425,282,68513,2,0,P|385:231|444:222,1,119.999996337891,10|0,0:0|0:0,0:0:0:0:
493,235,68823,1,0,0:0:0:0:
400,362,68927,6,0,B|347:357|318:308|318:308|284:299|233:321,1,179.999994506836,2|0,0:0|0:0,0:0:0:0:
20,311,69340,2,0,B|73:316|102:365|102:365|136:374|187:352,1,179.999994506836,8|0,0:0|0:0,0:0:0:0:
242,317,69754,1,0,0:0:0:0:
158,195,69858,2,0,L|148:255,2,59.9999981689454
246,63,70168,5,10,0:0:0:0:
286,65,70271,1,0,0:0:0:0:
326,66,70375,1,0,0:0:0:0:
366,68,70478,1,0,0:0:0:0:
452,138,70582,2,0,P|445:79|467:11,1,119.999996337891,8|0,0:0|0:0,0:0:0:0:
351,201,70995,5,8,0:0:0:0:
311,203,71099,1,0,0:0:0:0:
271,204,71202,1,0,0:0:0:0:
231,206,71306,1,0,0:0:0:0:
145,276,71409,2,0,P|152:217|130:149,1,119.999996337891,8|0,0:0|0:0,0:0:0:0:
246,63,71823,5,10,0:0:0:0:
286,65,71926,1,0,0:0:0:0:
326,66,72030,1,0,0:0:0:0:
366,68,72133,1,0,0:0:0:0:
452,138,72237,2,0,P|445:79|458:29,1,59.9999981689454,8|0,0:0|0:0,0:0:0:0:
397,259,72547,2,0,P|390:200|403:150,1,59.9999981689454,8|0,0:0|0:0,0:0:0:0:
344,384,72857,2,0,P|337:325|350:275,1,59.9999981689454,8|0,0:0|0:0,0:0:0:0:
428,343,73064,5,0,0:0:0:0:
296,200,73168,2,0,L|307:130,1,59.9999981689454,2|0,0:0|0:0,0:0:0:0:
133,59,73375,2,0,L|144:-11,1,59.9999981689454,0|8,0:0|0:0,0:0:0:0:
296,200,73685,2,0,L|305:140,1,59.9999981689454,8|0,0:0|0:0,0:0:0:0:
240,103,73892,5,8,0:0:0:0:
192,111,73995,1,8,0:0:0:0:
363,252,74099,5,2,0:0:0:0:
411,244,74202,1,2,0:0:0:0:
315,64,74306,5,8,0:0:0:0:
305,140,74409,1,8,0:0:0:0:
295,216,74513,1,8,0:0:0:0:
285,292,74616,1,2,0:0:0:0:
351,142,75133,6,0,B|323:102|320:33|320:33|301:116|225:153,1,225.000008583069,8|0,0:0|0:0,0:0:0:0:
73,187,75547,5,2,0:0:0:0:
97,186,75651,1,0,0:0:0:0:
121,184,75754,1,0,0:0:0:0:
145,183,75858,1,0,0:0:0:0:
189,134,75961,5,8,0:0:0:0:
186,67,76065,1,0,0:0:0:0:
130,31,76168,1,0,0:0:0:0:
75,69,76272,1,0,0:0:0:0:
25,189,76375,6,0,L|166:181,1,119.999996337891,2|0,0:0|0:0,0:0:0:0:
253,93,76685,2,0,L|134:100,1,119.999996337891,2|0,0:0|0:0,0:0:0:0:
25,189,76996,1,2,0:0:0:0:
326,189,77202,5,2,0:0:0:0:
364,242,77306,1,0,0:0:0:0:
330,299,77410,1,0,0:0:0:0:
291,245,77513,1,0,0:0:0:0:
326,189,77616,5,8,0:0:0:0:
364,136,77719,1,0,0:0:0:0:
330,79,77823,1,0,0:0:0:0:
291,133,77926,1,0,0:0:0:0:
326,189,78030,6,0,P|379:193|459:202,1,119.999996337891,2|0,0:0|0:0,0:0:0:0:
326,189,78341,2,0,P|273:193|197:202,1,119.999996337891,2|0,0:0|0:0,0:0:0:0:
129,271,78651,1,2,0:0:0:0:
176,278,78754,1,0,0:0:0:0:
307,320,78857,5,2,0:0:0:0:
316,254,78961,1,0,0:0:0:0:
326,189,79064,1,0,0:0:0:0:
383,27,79271,5,2,0:0:0:0:
393,92,79374,1,0,0:0:0:0:
405,156,79477,2,0,L|423:237,1,59.9999981689454,2|0,0:0|0:0,0:0:0:0:
478,330,79684,5,8,0:0:0:0:
480,305,79788,1,0,0:0:0:0:
484,282,79891,1,0,0:0:0:0:
487,258,79995,1,0,0:0:0:0:
418,214,80098,6,0,L|393:92,1,119.999996337891,2|0,0:0|0:0,0:0:0:0:
350,334,80408,2,0,L|325:212,1,119.999996337891,2|0,0:0|0:0,0:0:0:0:
495,186,80719,1,2,0:0:0:0:
330,113,80926,5,2,0:0:0:0:
369,100,81029,1,8,0:0:0:0:
259,91,81133,5,8,0:0:0:0:
246,52,81236,1,8,0:0:0:0:
227,157,81339,5,2,0:0:0:0:
188,170,81442,1,8,0:0:0:0:
298,180,81546,5,8,0:0:0:0:
311,219,81649,1,8,0:0:0:0:
411,348,81753,5,2,0:0:0:0:
477,319,81856,1,0,0:0:0:0:
469,246,81960,1,0,0:0:0:0:
399,231,82063,1,0,0:0:0:0:
362,295,82167,1,8,0:0:0:0:
356,138,82581,5,4,0:1:0:0:
450,43,82718,1,8,0:0:0:0:
484,172,82856,1,8,0:0:0:0:
376,65,82994,5,4,0:1:0:0:
505,98,83131,1,8,0:0:0:0:
410,192,83269,1,8,0:0:0:0:
431,118,83408,5,8,0:0:0:0:
286,122,83822,5,4,0:1:0:0:
121,150,83960,1,8,0:0:0:0:
286,122,84098,1,8,0:0:0:0:
189,59,84236,5,4,0:1:0:0:
217,224,84374,1,8,0:0:0:0:
189,59,84512,1,8,0:0:0:0:
340,215,84649,5,8,0:0:0:0:
335,7,85063,5,4,0:1:0:0:
256,192,85166,12,0,89201,0:0:0:0:
