osu file format v14

[General]
AudioFilename: audio.mp3
AudioLeadIn: 0
PreviewTime: 52382
Countdown: 0
SampleSet: Soft
StackLeniency: 0.7
Mode: 3
LetterboxInBreaks: 0
SpecialStyle: 0
WidescreenStoryboard: 1

[Editor]
DistanceSpacing: 2.5
BeatDivisor: 4
GridSize: 32
TimelineZoom: 2.3

[Metadata]
Title:a e i u e o ao!!
TitleUnicode:あ・え・い・う・え・お・あお!!
Artist:Gekidan Hitotose
ArtistUnicode:劇団ひととせ
Creator:Div
Version:normal!!
Source:ひなこのーと
Tags:opening hinako note 桜木ひな子 sakuragi M・A・O 市道真央 ichimichi mao 夏川くいな natsukawa kuina 富田美憂 tomita miyu 柊 真雪 hiiragi mayuki
BeatmapID:1297555
BeatmapSetID:614440

[Difficulty]
HPDrainRate:7.5
CircleSize:4
OverallDifficulty:7.5
ApproachRate:5
SliderMultiplier:1.7
SliderTickRate:1

[Events]
//Background and Video events
0,0,"aa.png",0,0
//Break Periods
//Storyboard Layer 0 (Background)
//Storyboard Layer 1 (Fail)
//Storyboard Layer 2 (Pass)
//Storyboard Layer 3 (Foreground)
//Storyboard Sound Samples

[TimingPoints]
770,413.793103448276,4,2,1,30,1,0
9045,413.793103448276,6,2,1,30,1,0
11527,413.793103448276,4,2,1,30,1,0
14837,413.793103448276,5,2,1,30,1,0
16905,413.793103448276,4,2,1,30,1,0
23525,413.793103448276,5,2,1,30,1,0
25593,413.793103448276,4,2,1,30,1,0
28903,413.793103448276,5,2,1,30,1,0
30971,413.793103448276,4,2,1,30,1,0
32626,413.793103448276,3,2,1,30,1,0
36350,413.793103448276,5,2,1,30,1,0
38418,413.793103448276,4,2,1,30,1,0
41728,413.793103448276,3,2,1,30,1,0
44210,413.793103448276,4,2,1,30,1,0
54141,-100,4,2,1,30,0,1
75658,-100,4,2,1,30,0,0
77313,413.793103448276,5,2,1,30,1,0
79381,413.793103448276,4,2,1,30,1,0
82691,413.793103448276,3,2,1,30,1,0
85173,413.793103448276,4,2,1,30,1,0

[HitObjects]
64,192,770,5,4,0:0:0:0:
448,192,770,1,0,0:0:0:0:
192,192,1597,1,4,0:0:0:0:
320,192,1597,1,0,0:0:0:0:
64,192,2425,1,8,0:0:0:0:
64,192,2632,1,8,0:0:0:0:
448,192,2838,1,8,0:0:0:0:
448,192,3045,1,8,0:0:0:0:
192,192,3252,1,8,0:0:0:0:
192,192,3459,1,8,0:0:0:0:
320,192,3666,1,8,0:0:0:0:
448,192,3666,128,0,4080:0:0:0:0:
64,192,4080,128,4,5735:0:0:0:0:
192,192,5735,128,12,6563:0:0:0:0:
448,192,6563,128,0,7390:0:0:0:0:
64,192,6976,1,8,0:0:0:0:
320,192,7390,128,0,9045:0:0:0:0:
192,192,7804,1,8,0:0:0:0:
448,192,8218,1,0,0:0:0:0:
64,192,8632,1,8,0:0:0:0:
448,192,9045,1,0,0:0:0:0:
192,192,9045,1,8,0:0:0:0:
64,192,9458,1,8,0:0:0:0:
320,192,9458,1,0,0:0:0:0:
448,192,9872,1,8,0:0:0:0:
320,192,9872,1,0,0:0:0:0:
64,192,10182,1,8,0:0:0:0:
192,192,10182,1,0,0:0:0:0:
320,192,10493,1,0,0:0:0:0:
448,192,10493,1,8,0:0:0:0:
64,192,10803,1,8,0:0:0:0:
192,192,10803,1,0,0:0:0:0:
448,192,11113,1,8,0:0:0:0:
320,192,11217,1,0,0:0:0:0:
192,192,11320,1,0,0:0:0:0:
64,192,11424,1,0,0:0:0:0:
448,192,11527,1,8,0:0:0:0:
64,192,11630,1,8,0:0:0:0:
320,192,11733,1,8,0:0:0:0:
192,192,11837,1,8,0:0:0:0:
448,192,11940,1,8,0:0:0:0:
64,192,12044,1,8,0:0:0:0:
320,192,12147,1,8,0:0:0:0:
192,192,12251,1,0,0:0:0:0:
448,192,12251,1,8,0:0:0:0:
64,192,12768,128,0,13182:0:0:0:0:
320,192,13182,1,4,0:0:0:0:
448,192,13182,1,0,0:0:0:0:
192,192,13389,1,0,0:0:0:0:
64,192,13595,1,8,0:0:0:0:
320,192,13595,1,0,0:0:0:0:
448,192,13802,1,0,0:0:0:0:
64,192,14009,1,0,0:0:0:0:
192,192,14009,1,0,0:0:0:0:
320,192,14216,1,0,0:0:0:0:
448,192,14423,1,0,0:0:0:0:
64,192,14423,1,8,0:0:0:0:
192,192,14630,1,0,0:0:0:0:
320,192,14837,1,0,0:0:0:0:
448,192,14837,1,0,0:0:0:0:
64,192,15043,1,0,0:0:0:0:
192,192,15250,1,8,0:0:0:0:
320,192,15250,1,0,0:0:0:0:
448,192,15457,1,0,0:0:0:0:
64,192,15664,1,0,0:0:0:0:
192,192,15664,1,0,0:0:0:0:
320,192,15871,1,0,0:0:0:0:
192,192,16078,1,0,0:0:0:0:
448,192,16078,1,8,0:0:0:0:
64,192,16285,1,0,0:0:0:0:
448,192,16492,1,8,0:0:0:0:
320,192,16492,1,0,0:0:0:0:
64,192,16699,1,0,0:0:0:0:
448,192,16905,1,0,0:0:0:0:
192,192,16905,1,0,0:0:0:0:
320,192,17111,1,0,0:0:0:0:
64,192,17318,1,8,0:0:0:0:
448,192,17318,1,0,0:0:0:0:
192,192,17525,1,0,0:0:0:0:
320,192,17732,1,0,0:0:0:0:
448,192,17732,1,0,0:0:0:0:
64,192,17939,1,0,0:0:0:0:
192,192,18146,1,8,0:0:0:0:
448,192,18146,1,0,0:0:0:0:
320,192,18353,1,0,0:0:0:0:
64,192,18560,1,0,0:0:0:0:
448,192,18560,1,0,0:0:0:0:
192,192,18663,1,0,0:0:0:0:
320,192,18767,1,8,0:0:0:0:
192,192,18870,1,8,0:0:0:0:
448,192,18973,1,0,0:0:0:0:
64,192,19077,1,0,0:0:0:0:
448,192,19180,1,8,0:0:0:0:
192,192,19284,1,8,0:0:0:0:
320,192,19387,128,0,19801:0:0:0:0:
64,192,19801,1,8,0:0:0:0:
448,192,19801,1,0,0:0:0:0:
320,192,20215,1,0,0:0:0:0:
192,192,20215,1,0,0:0:0:0:
448,192,20422,1,0,0:0:0:0:
64,192,20629,1,0,0:0:0:0:
192,192,20629,1,0,0:0:0:0:
448,192,20836,1,0,0:0:0:0:
192,192,21042,1,0,0:0:0:0:
320,192,21042,1,0,0:0:0:0:
448,192,21249,1,0,0:0:0:0:
64,192,21456,1,0,0:0:0:0:
192,192,21456,1,0,0:0:0:0:
320,192,21663,1,0,0:0:0:0:
64,192,21870,1,0,0:0:0:0:
448,192,21870,1,0,0:0:0:0:
192,192,22077,1,0,0:0:0:0:
320,192,22284,1,0,0:0:0:0:
448,192,22284,1,0,0:0:0:0:
64,192,22491,1,0,0:0:0:0:
192,192,22594,1,0,0:0:0:0:
448,192,22698,1,0,0:0:0:0:
320,192,22801,1,0,0:0:0:0:
192,192,22905,1,0,0:0:0:0:
64,192,23008,1,0,0:0:0:0:
448,192,23111,128,0,23525:0:0:0:0:
64,192,23525,128,0,23938:0:0:0:0:
448,192,23938,1,0,0:0:0:0:
320,192,24145,128,0,24352:0:0:0:0:
64,192,24352,128,0,24559:0:0:0:0:
448,192,24559,128,0,24766:0:0:0:0:
320,192,24766,128,8,24973:0:0:0:0:
192,192,24973,128,0,25180:0:0:0:0:
448,192,25180,1,4,0:0:0:0:
448,192,25387,1,4,0:0:0:0:
64,192,25593,1,0,0:0:0:0:
320,192,25593,1,0,0:0:0:0:
448,192,25799,1,0,0:0:0:0:
64,192,26006,1,0,0:0:0:0:
192,192,26006,1,0,0:0:0:0:
448,192,26213,1,0,0:0:0:0:
192,192,26420,1,0,0:0:0:0:
320,192,26420,1,0,0:0:0:0:
448,192,26627,1,0,0:0:0:0:
64,192,26834,1,0,0:0:0:0:
192,192,26834,1,0,0:0:0:0:
320,192,27041,1,0,0:0:0:0:
64,192,27248,1,0,0:0:0:0:
448,192,27248,1,0,0:0:0:0:
192,192,27455,1,0,0:0:0:0:
448,192,27661,1,0,0:0:0:0:
320,192,27765,1,0,0:0:0:0:
192,192,27868,1,0,0:0:0:0:
64,192,27972,1,0,0:0:0:0:
448,192,28075,1,0,0:0:0:0:
320,192,28179,1,0,0:0:0:0:
64,192,28282,1,0,0:0:0:0:
192,192,28386,1,0,0:0:0:0:
320,192,28489,128,0,28903:0:0:0:0:
64,192,28903,128,0,29316:0:0:0:0:
448,192,29316,1,0,0:0:0:0:
320,192,29523,128,0,29730:0:0:0:0:
192,192,29730,128,0,29937:0:0:0:0:
64,192,29937,128,0,30144:0:0:0:0:
320,192,30144,128,8,30351:0:0:0:0:
448,192,30351,128,0,30558:0:0:0:0:
64,192,30558,1,4,0:0:0:0:
192,192,30558,1,0,0:0:0:0:
64,192,30765,1,4,0:0:0:0:
192,192,30765,1,0,0:0:0:0:
448,192,30971,1,0,0:0:0:0:
320,192,31177,1,0,0:0:0:0:
192,192,31384,1,0,0:0:0:0:
64,192,31591,1,0,0:0:0:0:
320,192,31591,1,0,0:0:0:0:
448,192,31798,1,0,0:0:0:0:
192,192,31798,1,0,0:0:0:0:
64,192,32212,1,8,0:0:0:0:
448,192,32626,128,0,33867:0:0:0:0:
64,192,33039,1,0,0:0:0:0:
320,192,33246,1,0,0:0:0:0:
192,192,33453,1,0,0:0:0:0:
64,192,33763,1,0,0:0:0:0:
192,192,33867,128,0,35108:0:0:0:0:
320,192,34281,1,0,0:0:0:0:
448,192,34488,1,0,0:0:0:0:
64,192,34694,1,0,0:0:0:0:
448,192,35005,1,0,0:0:0:0:
320,192,35108,128,0,36350:0:0:0:0:
64,192,35522,1,0,0:0:0:0:
448,192,35729,1,0,0:0:0:0:
192,192,35936,1,0,0:0:0:0:
448,192,36246,1,0,0:0:0:0:
64,192,36350,128,0,37591:0:0:0:0:
320,192,36763,1,0,0:0:0:0:
192,192,36970,1,0,0:0:0:0:
448,192,37177,1,0,0:0:0:0:
448,192,37591,1,0,0:0:0:0:
320,192,37694,1,0,0:0:0:0:
192,192,37798,1,0,0:0:0:0:
64,192,38418,1,0,0:0:0:0:
448,192,38418,128,0,38624:0:0:0:0:
320,192,38624,128,0,38831:0:0:0:0:
192,192,38831,1,8,0:0:0:0:
64,192,39245,128,0,39452:0:0:0:0:
448,192,39245,1,0,0:0:0:0:
192,192,39452,128,0,39659:0:0:0:0:
320,192,39659,1,8,0:0:0:0:
448,192,40073,128,0,40280:0:0:0:0:
192,192,40073,1,0,0:0:0:0:
64,192,40280,128,0,40486:0:0:0:0:
320,192,40486,1,8,0:0:0:0:
192,192,40900,128,0,41107:0:0:0:0:
448,192,40900,1,0,0:0:0:0:
320,192,41107,128,0,41314:0:0:0:0:
64,192,41314,1,8,0:0:0:0:
448,192,41728,1,8,0:0:0:0:
64,192,41865,1,8,0:0:0:0:
320,192,42003,1,8,0:0:0:0:
192,192,42141,1,8,0:0:0:0:
448,192,42279,1,8,0:0:0:0:
64,192,42417,1,8,0:0:0:0:
320,192,42555,1,8,0:0:0:0:
64,192,42969,1,8,0:0:0:0:
320,192,43107,1,8,0:0:0:0:
192,192,43245,1,8,0:0:0:0:
448,192,43383,1,8,0:0:0:0:
64,192,43521,1,8,0:0:0:0:
320,192,43659,1,8,0:0:0:0:
192,192,43796,1,8,0:0:0:0:
64,192,44210,1,0,0:0:0:0:
448,192,44210,1,0,0:0:0:0:
320,192,44416,1,0,0:0:0:0:
192,192,44520,1,0,0:0:0:0:
64,192,44623,1,8,0:0:0:0:
192,192,44830,1,0,0:0:0:0:
320,192,44934,1,0,0:0:0:0:
448,192,45037,1,0,0:0:0:0:
192,192,45244,1,0,0:0:0:0:
64,192,45451,1,0,0:0:0:0:
320,192,45451,1,8,0:0:0:0:
448,192,45658,1,0,0:0:0:0:
64,192,45865,1,0,0:0:0:0:
192,192,45865,1,0,0:0:0:0:
448,192,46072,1,0,0:0:0:0:
320,192,46175,1,0,0:0:0:0:
192,192,46278,1,8,0:0:0:0:
64,192,46485,1,0,0:0:0:0:
192,192,46589,1,0,0:0:0:0:
320,192,46692,1,0,0:0:0:0:
192,192,46899,1,0,0:0:0:0:
64,192,47106,1,8,0:0:0:0:
448,192,47106,1,0,0:0:0:0:
192,192,47313,1,0,0:0:0:0:
320,192,47520,1,0,0:0:0:0:
448,192,47520,1,0,0:0:0:0:
64,192,47727,1,0,0:0:0:0:
192,192,47830,1,0,0:0:0:0:
448,192,47934,1,8,0:0:0:0:
320,192,48141,1,0,0:0:0:0:
192,192,48244,1,0,0:0:0:0:
64,192,48347,1,0,0:0:0:0:
192,192,48554,1,0,0:0:0:0:
448,192,48761,1,0,0:0:0:0:
320,192,48761,1,8,0:0:0:0:
64,192,48968,1,0,0:0:0:0:
448,192,49175,1,0,0:0:0:0:
192,192,49175,1,0,0:0:0:0:
320,192,49382,1,0,0:0:0:0:
192,192,49485,1,0,0:0:0:0:
64,192,49589,1,8,0:0:0:0:
192,192,49796,1,0,0:0:0:0:
320,192,49899,1,0,0:0:0:0:
448,192,50003,1,0,0:0:0:0:
192,192,50210,1,0,0:0:0:0:
448,192,50416,1,8,0:0:0:0:
64,192,50416,1,0,0:0:0:0:
320,192,50623,1,0,0:0:0:0:
64,192,50830,1,0,0:0:0:0:
192,192,50934,1,0,0:0:0:0:
320,192,51037,1,0,0:0:0:0:
448,192,51141,1,0,0:0:0:0:
64,192,51244,1,8,0:0:0:0:
192,192,51244,1,0,0:0:0:0:
320,192,51451,1,0,0:0:0:0:
64,192,51658,1,8,0:0:0:0:
448,192,51658,1,0,0:0:0:0:
192,192,51865,1,0,0:0:0:0:
320,192,51865,1,0,0:0:0:0:
192,192,52072,1,8,0:0:0:0:
320,192,52072,1,0,0:0:0:0:
64,192,52278,1,0,0:0:0:0:
448,192,52278,1,0,0:0:0:0:
192,192,52485,1,8,0:0:0:0:
320,192,52485,1,0,0:0:0:0:
192,192,52692,1,0,0:0:0:0:
64,192,52899,1,8,0:0:0:0:
320,192,52899,1,0,0:0:0:0:
320,192,53106,1,0,0:0:0:0:
448,192,53313,1,8,0:0:0:0:
192,192,53313,1,0,0:0:0:0:
448,192,53520,1,0,0:0:0:0:
64,192,53727,128,0,54141:0:0:0:0:
320,192,54141,1,4,0:0:0:0:
448,192,54141,1,0,0:0:0:0:
192,192,54347,1,0,0:0:0:0:
64,192,54554,1,8,0:0:0:0:
448,192,54554,1,0,0:0:0:0:
320,192,54761,1,0,0:0:0:0:
64,192,54968,1,0,0:0:0:0:
192,192,54968,1,0,0:0:0:0:
448,192,55175,1,0,0:0:0:0:
192,192,55382,1,8,0:0:0:0:
320,192,55382,1,0,0:0:0:0:
64,192,55589,1,0,0:0:0:0:
320,192,55796,1,0,0:0:0:0:
448,192,55796,1,0,0:0:0:0:
192,192,56003,1,0,0:0:0:0:
64,192,56210,1,8,0:0:0:0:
448,192,56210,1,0,0:0:0:0:
320,192,56416,1,0,0:0:0:0:
64,192,56623,1,0,0:0:0:0:
192,192,56623,1,0,0:0:0:0:
448,192,56830,1,0,0:0:0:0:
64,192,57037,1,8,0:0:0:0:
320,192,57037,1,0,0:0:0:0:
192,192,57244,1,0,0:0:0:0:
320,192,57347,1,0,0:0:0:0:
64,192,57451,1,0,0:0:0:0:
448,192,57451,1,0,0:0:0:0:
192,192,57658,1,0,0:0:0:0:
320,192,57865,1,8,0:0:0:0:
448,192,57865,1,0,0:0:0:0:
64,192,58072,1,0,0:0:0:0:
192,192,58278,1,0,0:0:0:0:
448,192,58278,1,0,0:0:0:0:
320,192,58485,1,0,0:0:0:0:
64,192,58692,1,8,0:0:0:0:
192,192,58692,1,0,0:0:0:0:
448,192,58899,1,0,0:0:0:0:
64,192,59106,1,0,0:0:0:0:
320,192,59106,1,0,0:0:0:0:
192,192,59313,1,0,0:0:0:0:
448,192,59520,1,0,0:0:0:0:
320,192,59520,1,8,0:0:0:0:
64,192,59623,1,0,0:0:0:0:
192,192,59830,1,0,0:0:0:0:
448,192,59934,1,0,0:0:0:0:
320,192,59934,1,0,0:0:0:0:
64,192,60141,1,0,0:0:0:0:
192,192,60244,1,0,0:0:0:0:
320,192,60347,1,8,0:0:0:0:
448,192,60451,1,0,0:0:0:0:
320,192,60554,1,0,0:0:0:0:
192,192,60658,1,0,0:0:0:0:
64,192,60761,1,4,0:0:0:0:
320,192,60968,1,0,0:0:0:0:
64,192,61175,1,8,0:0:0:0:
448,192,61175,1,0,0:0:0:0:
192,192,61382,1,0,0:0:0:0:
320,192,61589,1,0,0:0:0:0:
448,192,61589,1,0,0:0:0:0:
64,192,61796,1,0,0:0:0:0:
192,192,62003,1,8,0:0:0:0:
448,192,62003,1,0,0:0:0:0:
320,192,62210,1,0,0:0:0:0:
64,192,62416,1,0,0:0:0:0:
192,192,62416,1,0,0:0:0:0:
448,192,62623,1,0,0:0:0:0:
64,192,62830,1,8,0:0:0:0:
320,192,62830,1,0,0:0:0:0:
192,192,63037,1,0,0:0:0:0:
320,192,63244,1,0,0:0:0:0:
448,192,63244,1,0,0:0:0:0:
192,192,63347,1,0,0:0:0:0:
64,192,63451,1,0,0:0:0:0:
320,192,63658,1,8,0:0:0:0:
192,192,63658,1,0,0:0:0:0:
448,192,63865,1,0,0:0:0:0:
320,192,63968,1,0,0:0:0:0:
64,192,64072,1,4,0:0:0:0:
320,192,64175,1,0,0:0:0:0:
64,192,64278,1,0,0:0:0:0:
320,192,64382,1,0,0:0:0:0:
64,192,64485,1,8,0:0:0:0:
448,192,64692,1,0,0:0:0:0:
192,192,64796,1,0,0:0:0:0:
448,192,64899,1,0,0:0:0:0:
192,192,65003,1,0,0:0:0:0:
448,192,65106,1,0,0:0:0:0:
64,192,65313,1,8,0:0:0:0:
192,192,65313,1,0,0:0:0:0:
320,192,65520,1,0,0:0:0:0:
448,192,65727,1,4,0:0:0:0:
64,192,65830,1,0,0:0:0:0:
448,192,65934,1,0,0:0:0:0:
64,192,66037,1,0,0:0:0:0:
448,192,66141,1,8,0:0:0:0:
192,192,66347,1,0,0:0:0:0:
320,192,66451,1,0,0:0:0:0:
192,192,66554,1,0,0:0:0:0:
320,192,66658,1,0,0:0:0:0:
192,192,66761,1,0,0:0:0:0:
448,192,66968,1,8,0:0:0:0:
320,192,66968,1,0,0:0:0:0:
192,192,67175,1,0,0:0:0:0:
320,192,67175,1,0,0:0:0:0:
64,192,67382,1,0,0:0:0:0:
192,192,67382,1,4,0:0:0:0:
320,192,67796,1,4,0:0:0:0:
64,192,67796,1,0,0:0:0:0:
192,192,68210,1,0,0:0:0:0:
320,192,68210,1,4,0:0:0:0:
192,192,68623,1,0,0:0:0:0:
448,192,68623,1,4,0:0:0:0:
320,192,69037,1,0,0:0:0:0:
448,192,69037,1,4,0:0:0:0:
64,192,69244,1,0,0:0:0:0:
192,192,69451,1,8,0:0:0:0:
448,192,69451,1,0,0:0:0:0:
320,192,69658,1,0,0:0:0:0:
64,192,69865,1,0,0:0:0:0:
192,192,69968,1,0,0:0:0:0:
320,192,70072,1,0,0:0:0:0:
448,192,70175,1,0,0:0:0:0:
320,192,70278,1,8,0:0:0:0:
192,192,70382,1,0,0:0:0:0:
64,192,70485,1,0,0:0:0:0:
192,192,70589,1,8,0:0:0:0:
320,192,70692,1,8,0:0:0:0:
448,192,70692,1,0,0:0:0:0:
64,192,71106,1,8,0:0:0:0:
192,192,71106,1,0,0:0:0:0:
320,192,71520,1,8,0:0:0:0:
448,192,71520,1,0,0:0:0:0:
64,192,71934,1,8,0:0:0:0:
192,192,71934,1,0,0:0:0:0:
192,192,72347,1,8,0:0:0:0:
448,192,72347,1,0,0:0:0:0:
64,192,72658,1,8,0:0:0:0:
320,192,72658,1,0,0:0:0:0:
192,192,72968,1,8,0:0:0:0:
448,192,72968,1,0,0:0:0:0:
64,192,73278,1,8,0:0:0:0:
320,192,73278,1,0,0:0:0:0:
64,192,73589,1,8,0:0:0:0:
448,192,73589,1,0,0:0:0:0:
320,192,73899,1,0,0:0:0:0:
192,192,74003,1,8,0:0:0:0:
448,192,74106,1,8,0:0:0:0:
64,192,74210,1,8,0:0:0:0:
320,192,74313,1,8,0:0:0:0:
192,192,74416,1,8,0:0:0:0:
448,192,74520,1,8,0:0:0:0:
64,192,74623,1,8,0:0:0:0:
320,192,74727,1,4,0:0:0:0:
448,192,74727,1,0,0:0:0:0:
448,192,75244,128,0,75658:0:0:0:0:
64,192,75658,1,0,0:0:0:0:
192,192,75658,1,0,0:0:0:0:
320,192,75865,1,0,0:0:0:0:
192,192,76072,1,8,0:0:0:0:
448,192,76072,1,0,0:0:0:0:
64,192,76278,1,0,0:0:0:0:
320,192,76485,1,0,0:0:0:0:
448,192,76485,1,0,0:0:0:0:
192,192,76692,1,0,0:0:0:0:
64,192,76899,1,8,0:0:0:0:
448,192,76899,1,0,0:0:0:0:
320,192,77106,1,0,0:0:0:0:
64,192,77313,1,0,0:0:0:0:
192,192,77313,1,0,0:0:0:0:
320,192,77519,1,0,0:0:0:0:
192,192,77726,1,8,0:0:0:0:
448,192,77726,1,0,0:0:0:0:
64,192,77933,1,0,0:0:0:0:
320,192,78140,1,0,0:0:0:0:
448,192,78140,1,0,0:0:0:0:
192,192,78347,1,0,0:0:0:0:
64,192,78554,1,8,0:0:0:0:
320,192,78554,1,0,0:0:0:0:
448,192,78761,1,0,0:0:0:0:
64,192,78968,1,8,0:0:0:0:
192,192,78968,1,0,0:0:0:0:
320,192,79175,1,0,0:0:0:0:
64,192,79381,1,0,0:0:0:0:
192,192,79381,1,0,0:0:0:0:
320,192,79587,1,0,0:0:0:0:
64,192,79794,1,8,0:0:0:0:
448,192,79794,1,0,0:0:0:0:
192,192,80001,1,0,0:0:0:0:
320,192,80208,1,0,0:0:0:0:
448,192,80208,1,0,0:0:0:0:
64,192,80415,1,0,0:0:0:0:
192,192,80622,1,0,0:0:0:0:
448,192,80622,1,8,0:0:0:0:
320,192,80829,1,0,0:0:0:0:
64,192,81036,1,8,0:0:0:0:
448,192,81139,1,8,0:0:0:0:
192,192,81243,1,8,0:0:0:0:
320,192,81346,1,8,0:0:0:0:
64,192,81449,1,8,0:0:0:0:
448,192,81553,1,8,0:0:0:0:
192,192,81656,1,8,0:0:0:0:
320,192,81760,1,8,0:0:0:0:
192,192,81863,128,0,82277:0:0:0:0:
64,192,82277,1,0,0:0:0:0:
448,192,82277,1,0,0:0:0:0:
192,192,82691,1,8,0:0:0:0:
448,192,82828,1,8,0:0:0:0:
64,192,82966,1,8,0:0:0:0:
320,192,83104,1,8,0:0:0:0:
64,192,83242,1,8,0:0:0:0:
448,192,83380,1,8,0:0:0:0:
192,192,83518,1,8,0:0:0:0:
320,192,83932,1,8,0:0:0:0:
64,192,84070,1,8,0:0:0:0:
448,192,84208,1,8,0:0:0:0:
192,192,84346,1,8,0:0:0:0:
448,192,84484,1,8,0:0:0:0:
64,192,84622,1,8,0:0:0:0:
320,192,84759,1,8,0:0:0:0:
64,192,85173,128,4,89310:0:0:0:0:
448,192,85173,128,0,89310:0:0:0:0:
