osu file format v14

[General]
AudioFilename: audio.mp3
AudioLeadIn: 0
PreviewTime: 19988
Countdown: 0
SampleSet: Soft
StackLeniency: 0.2
Mode: 0
LetterboxInBreaks: 0
WidescreenStoryboard: 1

[Editor]
Bookmarks: 56503
DistanceSpacing: 0.4
BeatDivisor: 4
GridSize: 8
TimelineZoom: 1.8

[Metadata]
Title:a e i u e o ao!!
TitleUnicode:あ・え・い・う・え・お・あお!!
Artist:Gekidan Hitotose
ArtistUnicode:劇団ひととせ
Creator:Dashyy-
Version:pishi's Extra
Source:ひなこのーと
Tags:Uber imbor borborygmos hpk pishifat bor _83 hiicantpk bariton meat inspector Opening Hinako Note 桜木ひな子 Sakuragi M・A・O 市道真央 Ichimichi Mao 夏川くいな Natsukawa Kuina 富田美憂 Tomita Miyu 柊 真雪 Hiiragi Mayuki 小倉唯 Ogura Yui 萩野千秋 Hagino Chiaki 東城日沙子 Hisako Tojo 中島ゆあ Nakajima Yua 高野麻里佳 Kouno Marika
BeatmapID:1415661
BeatmapSetID:669309

[Difficulty]
HPDrainRate:6.5
CircleSize:4.2
OverallDifficulty:8.5
ApproachRate:9
SliderMultiplier:2
SliderTickRate:1

[Events]
//Background and Video events
Video,0,"video.avi"
0,0,"pishi.jpg",0,0
//Break Periods
//Storyboard Layer 0 (Background)
//Storyboard Layer 1 (Fail)
//Storyboard Layer 2 (Pass)
//Storyboard Layer 3 (Foreground)
//Storyboard Sound Samples

[TimingPoints]
645,413.793103448276,4,2,1,70,1,0
2300,-100,4,2,1,70,0,0
3955,-100,4,2,1,60,0,0
4162,-400,4,2,1,60,0,0
6438,-303.030303030303,4,2,1,60,0,0
7265,-222.222222222222,4,2,1,60,0,0
8920,-100,4,2,1,70,0,0
11403,413.793103448276,4,2,1,76,1,0
12127,-133.333333333333,4,2,1,76,0,0
12644,-133.333333333333,4,2,2,40,0,0
12954,-133.333333333333,4,2,2,5,0,0
13058,-100,4,2,1,73,0,0
16782,413.793103448276,4,2,1,73,1,0
19264,-100,4,2,1,60,0,0
20092,-125,4,2,1,60,0,0
23402,-100,4,2,1,73,0,0
25471,413.793103448276,4,2,1,60,1,0
25471,-125,4,2,1,60,0,0
28781,-100,4,2,1,74,0,0
30850,-181.818181818181,4,2,1,60,0,0
31471,-100,4,2,1,63,0,0
32091,-100,4,2,1,60,0,0
32505,413.793103448276,3,2,1,66,1,0
32505,-133.333333333333,3,2,1,66,0,0
38298,413.793103448276,4,2,1,61,1,0
38298,-117.647058823529,4,2,1,61,0,0
41608,413.793103448276,3,2,1,60,1,0
44090,413.793103448276,4,2,1,65,1,0
44090,-125,4,2,1,65,0,0
53710,-100,4,2,1,20,0,0
54021,-80,4,2,1,70,0,1
65193,-66.6666666666667,4,2,1,70,0,1
67262,-80,4,2,1,70,0,1
70572,-100,4,2,1,60,0,0
72227,-100,4,2,1,70,0,0
73676,-100,4,2,1,76,0,0
74607,-100,4,2,1,76,0,0
75124,-133.333333333333,4,2,2,40,0,0
75434,-108.695652173913,4,2,2,5,0,0
75538,-100,4,2,1,73,0,0
79262,413.793103448276,4,2,1,73,1,0
81744,-100,4,2,1,63,0,0
81848,-125,4,2,1,63,0,0
82572,413.793103448276,3,2,1,60,1,0
85054,413.793103448276,4,2,1,60,1,0
88364,-100,4,2,1,40,0,0
88778,-100,4,2,1,20,0,0
89191,-100,4,2,1,5,0,0

[Colours]
Combo1 : 166,136,255
Combo2 : 191,255,134
Combo3 : 96,248,255
Combo4 : 255,179,132
Combo5 : 255,119,193
Combo6 : 255,247,147

[HitObjects]
60,261,645,5,4,1:2:0:0:
454,261,1472,1,0,1:0:0:0:
219,107,2300,5,2,1:0:0:0:
295,107,2507,1,0,1:0:0:0:
181,174,2713,5,2,1:0:0:0:
333,174,2920,1,0,1:0:0:0:
132,232,3127,5,2,1:0:0:0:
380,232,3334,1,0,1:0:0:0:
256,39,3541,5,6,1:2:0:0:
485,320,3955,5,4,0:1:0:0:
380,359,4162,2,0,L|429:370,3,50,2|2|2|2,0:3|0:3|0:3|0:3,0:0:0:0:
222,269,5610,5,4,0:1:0:0:
337,293,5817,2,0,L|288:303,1,50,2|2,0:3|0:3,0:0:0:0:
130,356,6438,5,4,0:3:0:0:
200,376,6645,1,2,0:3:0:0:
12,295,6851,1,0,1:0:0:0:
80,276,7058,1,2,0:3:0:0:
39,77,7265,6,0,L|28:138,1,44.999998626709,4|2,0:1|0:3,0:0:0:0:
163,70,7679,2,0,L|115:29,1,44.999998626709,0|2,1:0|0:3,0:0:0:0:
186,201,8093,6,0,L|197:140,1,44.999998626709,4|2,0:3|0:3,0:0:0:0:
62,208,8507,2,0,L|109:248,1,44.999998626709,0|2,1:0|0:3,0:0:0:0:
430,88,8920,5,4,1:2:0:0:
408,189,9127,1,0,0:3:0:0:
430,88,9334,5,2,1:2:0:0:
426,111,9438,1,2,0:0:0:0:
343,52,9645,5,2,0:0:0:0:
349,81,9748,1,2,1:2:0:0:
248,40,9955,5,2,0:0:0:0:
269,76,10058,1,2,1:2:0:0:
149,61,10265,5,2,0:0:0:0:
192,97,10369,1,2,1:2:0:0:
225,274,10576,5,4,1:2:0:0:
236,219,10679,1,2,1:2:0:0:
370,99,10886,5,0,0:0:0:0:
319,119,10989,1,4,1:2:0:0:
375,97,11093,1,2,1:2:0:0:
249,146,11300,5,2,0:0:0:0:
306,193,11403,5,4,1:2:0:0:
319,119,11506,1,2,1:2:0:0:
262,70,11609,1,0,1:0:0:0:
192,97,11713,1,0,1:0:0:0:
178,169,11816,1,2,1:2:0:0:
236,219,11920,1,0,1:0:0:0:
249,146,12023,5,0,1:0:0:0:
234,234,12127,1,6,1:2:0:0:
234,234,12644,6,0,L|375:252,1,112.500004291535,8|0,0:0|0:0,0:0:0:0:
415,306,13058,5,4,0:1:0:0:
432,347,13161,1,0,0:0:0:0:
418,305,13265,1,0,0:0:0:0:
428,349,13368,1,0,0:0:0:0:
422,305,13471,1,0,1:0:0:0:
424,348,13575,1,0,0:0:0:0:
426,305,13678,1,0,0:0:0:0:
420,349,13782,1,0,0:0:0:0:
424,326,13885,6,0,P|373:330|306:349,1,100,4|0,0:3|0:0,0:0:0:0:
258,359,14196,1,0,0:0:0:0:
317,345,14299,2,0,P|249:358|224:355,1,50,0|0,1:0|0:0,0:0:0:0:
186,348,14506,1,0,0:0:0:0:
307,180,14713,5,4,0:3:0:0:
324,221,14816,1,0,0:0:0:0:
310,179,14920,1,0,0:0:0:0:
320,223,15023,1,0,0:0:0:0:
314,179,15127,1,0,1:0:0:0:
316,223,15230,1,0,0:0:0:0:
318,179,15334,1,0,0:0:0:0:
127,300,15540,6,0,P|116:249|117:180,1,100,4|0,0:3|0:0,0:0:0:0:
126,127,15851,1,0,0:0:0:0:
55,154,15954,1,0,1:0:0:0:
213,23,16161,2,0,P|245:76|247:103,1,50
236,169,16368,5,0,1:0:0:0:
193,177,16471,1,0,0:0:0:0:
207,134,16575,1,0,0:0:0:0:
186,273,16782,6,0,P|265:258|326:261,1,100,4|0,0:3|0:0,0:0:0:0:
357,253,17092,1,0,0:0:0:0:
296,260,17195,2,0,P|330:260|369:250,1,50,0|0,1:0|0:0,0:0:0:0:
433,233,17402,2,0,P|457:236|481:244,1,50
492,362,17609,6,0,P|447:357|385:339,1,100,4|0,0:3|0:0,0:0:0:0:
325,352,17919,1,0,0:0:0:0:
385,337,18023,2,0,P|332:349|310:362,1,50,0|0,1:0|0:0,0:0:0:0:
256,384,18230,1,0,0:0:0:0:
302,128,18437,5,4,0:3:0:0:
271,163,18540,1,4,0:3:0:0:
285,119,18644,5,0,1:0:0:0:
262,159,18747,1,0,1:0:0:0:
266,112,18850,5,4,0:3:0:0:
253,156,18954,1,4,0:3:0:0:
246,108,19057,5,0,1:0:0:0:
243,154,19161,1,0,1:0:0:0:
225,108,19264,5,4,1:2:0:0:
246,108,19368,1,0,0:0:0:0:
266,112,19471,1,0,0:0:0:0:
285,119,19575,1,0,0:0:0:0:
302,128,19678,1,0,1:0:0:0:
303,128,20092,6,0,P|255:110|208:111,1,80,4|0,0:0|0:0,0:0:0:0:
211,113,20402,1,0,0:0:0:0:
198,123,20506,1,0,1:0:0:0:
189,136,20609,2,0,P|152:151|112:155,1,80
97,149,20919,2,0,P|128:172|152:205,1,80,4|0,0:3|0:0,0:0:0:0:
156,220,21230,1,0,0:0:0:0:
157,235,21333,1,0,1:0:0:0:
0,289,21540,1,0,1:0:0:0:
12,279,21644,1,0,1:0:0:0:
26,273,21747,6,0,P|65:276|102:292,1,80,4|0,0:3|0:0,0:0:0:0:
230,365,22161,1,0,1:0:0:0:
217,354,22264,1,0,0:0:0:0:
210,339,22368,1,0,1:0:0:0:
209,323,22471,1,0,1:0:0:0:
212,307,22575,2,0,L|258:299,1,40,4|0,0:3|0:0,0:0:0:0:
329,330,22782,1,0,0:0:0:0:
344,333,22885,1,0,0:0:0:0:
359,336,22988,1,0,1:0:0:0:
402,164,23195,1,2,0:0:0:0:
402,164,23299,1,2,0:0:0:0:
402,164,23402,6,0,B|376:193|376:193|298:183,1,100,4|0,0:0|0:0,0:0:0:0:
315,185,23713,1,2,0:0:0:0:
338,267,23816,1,0,1:0:0:0:
386,82,24023,1,2,0:0:0:0:
386,82,24126,1,2,0:0:0:0:
386,82,24230,6,0,L|435:87,1,50,4|0,0:3|0:0,0:0:0:0:
280,20,24437,2,0,L|329:14,1,50,2|0,0:0|0:0,0:0:0:0:
177,72,24644,2,0,L|226:77,1,50,0|0,1:0|0:0,0:0:0:0:
57,52,24850,2,0,L|106:46,1,50,2|0,0:0|0:0,0:0:0:0:
280,20,25057,5,0,1:0:0:0:
0,99,25264,1,0,1:0:0:0:
181,154,25471,5,4,0:0:0:0:
128,238,25677,1,0,0:0:0:0:
192,313,25884,1,0,1:0:0:0:
207,308,25988,1,0,0:0:0:0:
222,306,26091,1,0,0:0:0:0:
237,307,26195,1,0,0:0:0:0:
252,311,26298,2,0,P|326:328|355:322,1,80,4|0,0:3|0:0,0:0:0:0:
344,323,26608,1,0,0:0:0:0:
358,315,26712,1,0,1:0:0:0:
284,219,26919,1,0,1:0:0:0:
295,230,27022,1,0,1:0:0:0:
308,238,27126,6,0,P|378:222|406:200,1,80,4|0,0:3|0:0,0:0:0:0:
285,90,27539,1,0,1:0:0:0:
297,100,27643,1,0,0:0:0:0:
310,108,27746,2,0,P|357:123|377:120,1,40,0|0,1:0|1:0,1:0:0:0:
424,97,27953,2,0,L|432:37,2,40,4|0|0,0:3|1:0|1:0,0:0:0:0:
479,151,28264,1,0,1:0:0:0:
493,144,28367,1,0,1:0:0:0:
186,173,28574,1,2,0:0:0:0:
186,173,28677,1,2,0:0:0:0:
186,173,28781,6,0,B|152:202|152:202|158:278,1,100,4|0,0:0|0:0,0:0:0:0:
156,257,29091,1,0,0:0:0:0:
79,230,29195,1,0,1:0:0:0:
221,362,29402,1,2,0:0:0:0:
367,204,29608,6,0,L|359:138,1,50,4|0,0:3|0:0,0:0:0:0:
440,242,29815,2,0,L|455:177,1,50,2|0,0:0|0:0,0:0:0:0:
309,270,30022,2,0,L|278:210,1,50,0|0,1:0|0:0,0:0:0:0:
482,328,30229,2,0,L|518:272,1,50,2|0,0:0|0:0,0:0:0:0:
473,116,30436,5,0,1:0:0:0:
232,285,30643,1,0,1:0:0:0:
232,285,30850,6,0,L|225:350,2,55.0000016784668
256,17,31471,5,4,0:3:0:0:
232,285,31677,1,4,1:3:0:0:
245,147,32091,5,2,1:2:0:0:
245,147,32505,6,0,B|332:171|306:106|417:139,1,150.000005722046,4|2,0:0|0:0,0:0:0:0:
277,77,33125,1,4,0:3:0:0:
357,289,33332,1,0,1:0:0:0:
357,289,33642,1,0,1:0:0:0:
365,300,33746,6,0,P|268:311|237:369,1,150.000005722046,4|2,0:3|0:0,0:0:0:0:
324,377,34367,1,4,0:3:0:0:
189,266,34573,1,0,1:0:0:0:
189,266,34884,1,0,1:0:0:0:
178,279,34987,6,0,B|96:298|114:241|32:264,1,150.000005722046,4|2,0:0|0:0,0:0:0:0:
64,341,35608,1,4,0:3:0:0:
128,114,35815,1,0,1:0:0:0:
128,114,36125,1,0,1:0:0:0:
119,127,36229,6,0,P|176:187|255:176,1,150.000005722046,4|2,0:3|0:0,0:0:0:0:
131,260,36849,1,4,0:3:0:0:
207,105,37056,1,0,0:0:0:0:
462,364,37470,5,0,1:0:0:0:
450,294,37573,1,0,1:0:0:0:
438,223,37677,1,0,1:0:0:0:
438,223,38298,6,0,P|441:177|452:120,1,85.0000016212464,4|0,0:0|0:0,0:0:0:0:
344,51,38711,2,0,P|350:92|353:135,1,85.0000016212464,0|0,1:0|0:0,0:0:0:0:
353,135,39022,1,0,1:0:0:0:
353,135,39125,1,4,0:3:0:0:
284,216,39332,1,4,0:3:0:0:
185,182,39539,1,0,1:0:0:0:
133,273,39746,1,0,1:0:0:0:
133,273,39849,1,0,1:0:0:0:
133,273,39953,6,0,P|145:189|152:98,1,170.000003242493,4|0,0:3|1:0,0:0:0:0:
21,55,40573,1,0,0:0:0:0:
21,55,40677,1,0,1:0:0:0:
21,55,40780,2,0,P|82:48|120:38,1,85.0000016212464,4|4,0:3|0:3,0:0:0:0:
308,79,41194,2,0,P|266:70|224:66,1,85.0000016212464,0|0,1:0|1:0,0:0:0:0:
231,73,41504,1,0,1:0:0:0:
231,73,41608,6,0,B|235:108|235:108|266:151,2,66.6666666666667,4|0|0,1:2|1:0|1:0,0:0:0:0:
393,52,42021,5,2,1:3:0:0:
374,137,42159,1,0,1:0:0:0:
308,79,42297,1,0,1:0:0:0:
359,89,42435,5,4,1:3:0:0:
238,216,42849,6,0,B|234:251|234:251|203:294,2,66.6666666666667,4|0|0,1:2|1:0|1:0,0:0:0:0:
76,195,43263,5,2,1:3:0:0:
95,280,43401,1,0,1:0:0:0:
161,222,43539,1,0,1:0:0:0:
110,232,43676,5,4,1:3:0:0:
234,82,44090,6,0,L|316:75,1,80,4|0,0:0|0:0,0:0:0:0:
329,74,44400,1,0,0:0:0:0:
344,73,44503,1,0,1:0:0:0:
438,180,44710,1,0,0:0:0:0:
421,179,44814,1,0,0:0:0:0:
405,178,44917,2,0,L|323:171,1,80,4|0,0:3|0:0,0:0:0:0:
182,158,45331,1,0,1:0:0:0:
239,284,45538,1,0,0:0:0:0:
325,171,45745,5,4,0:3:0:0:
282,376,45952,1,0,0:0:0:0:
291,361,46055,1,0,0:0:0:0:
300,348,46158,2,0,L|347:280,1,80,0|0,1:0|0:0,0:0:0:0:
355,269,46469,1,0,0:0:0:0:
364,256,46572,1,4,0:3:0:0:
121,234,46779,1,0,0:0:0:0:
129,249,46883,1,0,0:0:0:0:
136,263,46986,2,0,L|170:337,1,80,0|0,1:0|0:0,0:0:0:0:
266,73,47400,5,4,0:2:0:0:
239,284,47607,1,2,0:0:0:0:
253,154,47814,5,2,1:2:0:0:
248,201,47917,2,0,L|352:186,1,80,2|0,0:0|0:0,0:0:0:0:
343,187,48227,1,4,0:3:0:0:
356,61,48434,5,2,0:0:0:0:
340,106,48538,2,0,L|444:116,1,80,2|0,0:0|0:0,0:0:0:0:
434,117,48848,1,2,0:0:0:0:
274,16,49055,5,4,0:3:0:0:
173,153,49262,2,0,L|164:73,1,80,2|0,0:0|1:0,0:0:0:0:
165,74,49676,1,2,0:0:0:0:
59,127,49883,5,4,0:3:0:0:
253,208,50090,2,0,L|261:128,1,80,2|0,0:0|1:0,0:0:0:0:
261,129,50503,1,2,0:0:0:0:
82,332,50710,5,6,0:2:0:0:
118,357,50814,1,2,0:0:0:0:
161,359,50917,1,2,0:0:0:0:
173,153,51124,5,0,1:0:0:0:
145,274,51331,1,0,0:0:0:0:
367,274,51538,5,2,0:0:0:0:
339,153,51745,1,0,1:0:0:0:
256,302,51952,5,0,1:0:0:0:
256,105,52158,1,0,1:0:0:0:
100,196,52365,5,0,1:0:0:0:
412,196,52779,5,0,1:0:0:0:
256,384,53193,5,0,1:0:0:0:
164,111,54021,6,0,P|142:15|90:97,1,250,4|0,0:1|1:0,0:0:0:0:
116,170,54538,1,2,0:0:0:0:
116,170,54641,2,0,P|74:197|41:195,1,62.5,2|0,0:0|0:0,0:0:0:0:
0,240,54848,5,6,0:3:0:0:
0,240,54952,2,0,P|78:238|84:290,1,125,2|0,0:0|0:0,0:0:0:0:
64,339,55262,2,0,P|97:290|152:308,1,125,0|0,1:0|0:0,0:0:0:0:
222,345,55572,1,0,1:0:0:0:
222,345,55676,5,6,0:3:0:0:
258,118,55883,1,2,0:0:0:0:
233,270,56090,5,0,1:0:0:0:
243,194,56193,2,0,P|298:175|332:223,1,125,2|0,0:0|0:0,0:0:0:0:
377,285,56503,2,0,P|363:215|433:209,1,125,6|0,0:3|0:0,0:0:0:0:
479,172,56814,1,2,0:0:0:0:
478,172,56917,2,0,P|400:168|440:102,1,187.5,0|0,1:0|0:0,0:0:0:0:
512,67,57331,5,4,0:0:0:0:
314,22,57538,1,2,0:0:0:0:
440,102,57745,5,0,1:0:0:0:
367,85,57848,2,0,P|309:90|300:148,1,125,2|0,0:0|0:0,0:0:0:0:
308,224,58158,2,0,P|272:164|215:202,1,125,6|0,0:3|0:0,0:0:0:0:
380,253,58572,2,0,P|322:246|300:300,1,125,0|0,1:0|0:0,0:0:0:0:
349,368,58883,1,0,1:0:0:0:
349,368,58986,5,6,0:3:0:0:
116,235,59193,1,2,0:0:0:0:
244,358,59400,5,0,1:0:0:0:
202,294,59503,2,0,P|171:296|145:313,1,62.5,2|0,0:0|0:0,0:0:0:0:
93,389,59710,1,2,0:0:0:0:
93,389,59814,2,0,P|116:336|68:304,1,125,6|0,0:3|0:0,0:0:0:0:
16,366,60124,1,2,0:0:0:0:
16,366,60227,1,0,1:0:0:0:
133,97,60434,1,0,1:0:0:0:
104,164,60538,1,0,1:0:0:0:
78,233,60641,6,0,P|2:248|29:176,1,187.5,4|0,0:1|0:0,0:0:0:0:
104,164,61055,1,0,1:0:0:0:
134,357,61262,1,2,0:0:0:0:
134,357,61365,6,0,P|128:299|183:279,1,125,2|0,0:0|0:0,0:0:0:0:
283,298,61676,2,0,P|262:274|257:244,1,62.5,2|0,0:0|0:0,0:0:0:0:
321,203,61883,2,0,P|265:221|231:173,1,125,0|0,1:0|0:0,0:0:0:0:
281,114,62193,1,0,1:0:0:0:
281,114,62296,5,6,0:3:0:0:
98,246,62503,1,2,0:0:0:0:
231,173,62710,5,0,1:0:0:0:
153,185,62814,2,0,P|121:153|121:105,1,62.5,2|0,0:0|0:0,0:0:0:0:
195,27,63021,2,0,P|184:70|142:94,1,62.5,2|0,2:3|2:3,2:0:0:0:
39,69,63227,1,2,0:3:0:0:
39,69,63331,2,0,P|83:57|125:81,1,62.5,2|0,2:3|2:0,2:0:0:0:
153,185,63538,2,0,P|152:131|223:187,1,187.5,0|0,1:0|0:0,0:0:0:0:
210,263,63952,5,2,3:2:0:0:
200,264,64055,1,2,3:2:0:0:
132,275,64158,1,2,3:2:0:0:
122,276,64262,1,2,3:2:0:0:
53,286,64365,1,2,1:2:0:0:
201,345,64572,5,2,3:2:0:0:
191,346,64676,1,2,3:2:0:0:
123,357,64779,1,2,3:2:0:0:
113,358,64883,1,2,3:2:0:0:
44,368,64986,1,2,1:2:0:0:
205,183,65193,6,0,L|127:195,1,75.0000028610231,2|0,1:0|0:0,0:0:0:0:
209,101,65400,2,0,L|131:113,1,75.0000028610231,2|0,1:0|1:0,0:0:0:0:
302,263,65607,5,2,3:2:0:0:
312,264,65710,1,2,3:2:0:0:
380,275,65814,1,2,3:2:0:0:
390,276,65917,1,2,3:2:0:0:
459,286,66021,1,2,1:2:0:0:
311,345,66227,5,2,3:2:0:0:
321,346,66331,1,2,3:2:0:0:
389,357,66434,1,2,3:2:0:0:
399,358,66538,1,2,3:2:0:0:
468,368,66641,1,2,1:2:0:0:
307,183,66848,6,0,L|385:195,1,75.0000028610231,2|0,1:0|0:0,0:0:0:0:
303,101,67055,2,0,L|381:113,1,75.0000028610231,2|0,1:0|1:0,0:0:0:0:
143,243,67262,6,0,P|87:209|170:179,1,187.5,4|0,0:1|0:0,0:0:0:0:
233,146,67676,2,0,P|160:96|192:63,1,125,0|0,1:0|0:0,0:0:0:0:
452,217,68090,2,0,P|418:273|388:190,1,187.5,6|0,0:3|0:0,0:0:0:0:
355,127,68503,2,0,P|305:200|272:168,1,125,0|0,1:0|0:0,0:0:0:0:
237,150,68814,1,0,1:0:0:0:
237,150,68917,6,0,P|181:131|241:210,1,250,6|0,0:3|1:0,0:0:0:0:
279,30,69538,2,0,P|275:59|315:108,1,62.5,2|0,0:0|0:0,0:0:0:0:
355,127,69745,5,2,0:0:0:0:
390,123,69848,1,0,1:0:0:0:
422,103,69952,1,0,1:0:0:0:
442,72,70055,1,0,1:0:0:0:
466,2,70158,5,0,1:0:0:0:
450,75,70262,1,0,1:0:0:0:
435,148,70365,1,0,1:0:0:0:
420,221,70469,1,0,1:0:0:0:
456,287,70572,5,4,0:0:0:0:
142,331,70986,1,0,1:0:0:0:
143,313,71090,2,0,L|146:264,2,50,2|0|2,0:0|0:0|0:0,0:0:0:0:
56,287,71400,5,0,1:0:0:0:
370,331,71814,1,0,1:0:0:0:
368,313,71917,2,0,L|366:264,2,50,2|0|2,0:0|0:0|0:0,0:0:0:0:
255,299,72227,5,2,1:2:0:0:
286,294,72331,1,2,0:0:0:0:
217,217,72538,5,2,1:2:0:0:
257,224,72641,1,2,0:0:0:0:
199,122,72848,5,2,1:2:0:0:
247,150,72952,1,2,0:0:0:0:
303,143,73055,5,4,1:2:0:0:
294,88,73158,1,0,0:0:0:0:
344,65,73262,1,2,0:0:0:0:
382,105,73365,1,2,0:0:0:0:
356,152,73469,1,2,1:2:0:0:
100,123,73676,5,2,0:0:0:0:
100,123,73779,1,2,1:2:0:0:
159,78,73883,5,2,1:2:0:0:
91,48,73986,1,2,0:0:0:0:
30,89,74090,1,2,0:0:0:0:
37,165,74193,1,2,0:0:0:0:
102,197,74296,1,2,1:2:0:0:
166,155,74400,1,2,0:0:0:0:
100,123,74503,5,2,0:0:0:0:
182,160,74607,1,2,1:2:0:0:
182,160,75124,6,0,L|195:303,1,112.500004291535,8|0,0:0|0:0,0:0:0:0:
192,351,75538,5,4,0:0:0:0:
151,368,75641,1,0,0:0:0:0:
193,354,75745,1,0,0:0:0:0:
149,364,75848,1,0,0:0:0:0:
193,358,75952,1,0,1:0:0:0:
149,360,76055,1,0,0:0:0:0:
193,362,76158,1,0,0:0:0:0:
149,356,76262,1,0,0:0:0:0:
172,360,76365,6,0,P|168:309|149:242,1,100,4|0,0:3|0:0,0:0:0:0:
139,194,76676,1,0,0:0:0:0:
153,253,76779,2,0,P|140:185|143:160,1,50,0|0,1:0|0:0,0:0:0:0:
150,122,76986,1,0,0:0:0:0:
307,239,77193,5,4,0:3:0:0:
348,256,77296,1,0,0:0:0:0:
306,242,77400,1,0,0:0:0:0:
350,252,77503,1,0,0:0:0:0:
306,246,77607,1,0,1:0:0:0:
350,248,77710,1,0,0:0:0:0:
306,250,77814,1,0,0:0:0:0:
150,122,78021,6,0,P|196:99|263:82,1,100,4|0,0:3|0:0,0:0:0:0:
317,77,78331,1,0,0:0:0:0:
272,15,78434,1,0,1:0:0:0:
436,129,78641,2,0,P|383:97|356:95,1,50
306,186,78848,5,0,1:0:0:0:
348,198,78952,1,0,0:0:0:0:
337,154,79055,1,0,0:0:0:0:
350,303,79262,6,0,P|273:281|212:279,1,100,4|0,0:3|0:0,0:0:0:0:
182,268,79572,1,0,0:0:0:0:
242,281,79675,2,0,P|208:278|170:264,1,50,0|0,1:0|0:0,0:0:0:0:
110,252,79882,2,0,P|76:255|37:269,1,50
225,197,80089,6,0,P|248:129|255:72,1,100,4|0,0:3|0:0,0:0:0:0:
272,30,80399,1,0,0:0:0:0:
257,90,80503,2,0,P|269:37|282:15,1,50,0|0,1:0|0:0,0:0:0:0:
341,0,80710,1,0,0:0:0:0:
415,224,80917,5,4,0:3:0:0:
384,189,81020,1,4,0:3:0:0:
398,233,81124,5,0,1:0:0:0:
375,193,81227,1,0,1:0:0:0:
379,240,81330,5,4,0:3:0:0:
366,196,81434,1,4,0:3:0:0:
359,244,81537,5,0,1:0:0:0:
356,198,81641,1,0,1:0:0:0:
338,244,81744,5,4,1:2:0:0:
359,244,81848,1,0,0:0:0:0:
379,240,81951,1,0,0:0:0:0:
398,233,82055,1,0,0:0:0:0:
415,224,82158,1,0,1:0:0:0:
120,33,82572,5,4,1:3:0:0:
104,118,82709,1,0,1:0:0:0:
185,90,82847,1,0,1:0:0:0:
118,28,82985,5,2,1:3:0:0:
100,121,83123,1,0,1:0:0:0:
189,90,83261,1,0,1:0:0:0:
136,79,83399,5,4,1:3:0:0:
392,33,83813,5,4,1:3:0:0:
408,118,83951,1,0,1:0:0:0:
327,90,84089,1,0,1:0:0:0:
393,28,84227,5,2,1:3:0:0:
411,121,84365,1,0,1:0:0:0:
322,90,84503,1,0,1:0:0:0:
376,79,84640,5,8,1:3:0:0:
256,340,85054,5,4,1:1:0:0:
256,192,85157,12,0,89191,0:0:0:0:
