osu file format v14

[General]
AudioFilename: audio.mp3
AudioLeadIn: 0
PreviewTime: 19988
Countdown: 0
SampleSet: Soft
StackLeniency: 0.2
Mode: 0
LetterboxInBreaks: 0
WidescreenStoryboard: 1

[Editor]
Bookmarks: 56503
DistanceSpacing: 1
BeatDivisor: 4
GridSize: 8
TimelineZoom: 1.8

[Metadata]
Title:a e i u e o ao!!
TitleUnicode:あ・え・い・う・え・お・あお!!
Artist:Gekidan Hitotose
ArtistUnicode:劇団ひととせ
Creator:Dashyy-
Version:Normal
Source:ひなこのーと
Tags:Uber imbor borborygmos hpk pishifat bor _83 hiicantpk bariton meat inspector Opening Hinako Note 桜木ひな子 Sakuragi M・A・O 市道真央 Ichimichi Mao 夏川くいな Natsukawa Kuina 富田美憂 Tomita Miyu 柊 真雪 Hiiragi Mayuki 小倉唯 Ogura Yui 萩野千秋 Hagino Chiaki 東城日沙子 Hisako Tojo 中島ゆあ Nakajima Yua 高野麻里佳 Kouno Marika
BeatmapID:1432465
BeatmapSetID:669309

[Difficulty]
HPDrainRate:4
CircleSize:3.5
OverallDifficulty:4
ApproachRate:5.4
SliderMultiplier:1.2
SliderTickRate:1

[Events]
//Background and Video events
0,0,"a.jpg",0,0
Video,0,"video.avi"
//Break Periods
//Storyboard Layer 0 (Background)
//Storyboard Layer 1 (Fail)
//Storyboard Layer 2 (Pass)
//Storyboard Layer 3 (Foreground)
//Storyboard Sound Samples

[TimingPoints]
645,413.793103448276,4,2,1,70,1,0
2300,-100,4,2,1,70,0,0
3955,-100,4,2,1,60,0,0
4162,-100,4,2,1,60,0,0
6438,-100,4,2,1,60,0,0
7265,-100,4,2,1,60,0,0
8920,-100,4,2,1,70,0,0
11403,413.793103448276,4,2,1,76,1,0
12127,-100,4,2,1,76,0,0
12644,-100,4,2,2,40,0,0
12954,-100,4,2,2,5,0,0
13058,-100,5,2,1,73,0,0
16782,413.793103448276,4,2,1,73,1,0
20092,-100,4,2,1,60,0,0
23402,-100,4,2,1,73,0,0
25471,413.793103448276,4,2,1,40,1,0
25471,-100,4,2,1,40,0,0
30850,-100,4,2,1,60,0,0
31471,-100,4,2,1,63,0,0
32091,-100,4,2,1,60,0,0
32505,413.793103448276,3,2,1,66,1,0
32505,-100,3,2,1,66,0,0
38298,413.793103448276,4,2,1,61,1,0
38298,-100,4,2,1,61,0,0
41608,413.793103448276,3,2,1,60,1,0
44090,413.793103448276,4,2,1,65,1,0
44090,-100,4,2,1,65,0,0
53710,-100,4,2,1,20,0,0
54021,-100,4,2,1,70,0,1
65193,-100,4,2,1,70,0,1
67262,-100,4,2,1,70,0,1
70572,-100,4,2,1,60,0,0
72227,-100,4,2,1,70,0,0
73676,-100,4,2,1,76,0,0
74607,-100,4,2,1,76,0,0
75124,-100,4,2,2,40,0,0
75434,-100,4,2,2,5,0,0
75538,-100,4,2,1,73,0,0
79262,413.793103448276,4,2,1,73,1,0
81848,-100,4,2,1,63,0,0
82572,413.793103448276,3,2,1,60,1,0
85054,413.793103448276,4,2,1,60,1,0
88364,-100,4,2,1,40,0,0
88778,-100,4,2,1,20,0,0
89191,-100,4,2,1,5,0,0

[Colours]
Combo1 : 166,136,255
Combo2 : 191,255,134
Combo3 : 96,248,255
Combo4 : 255,179,132
Combo5 : 255,119,193
Combo6 : 255,247,147

[HitObjects]
125,226,645,6,0,P|158:212|250:241,1,120,4|0,1:2|0:0,0:0:0:0:
350,271,1472,2,0,P|393:291|469:270,1,120,0|0,1:0|0:0,0:0:0:0:
416,163,2300,2,0,L|344:171,1,60,2|0,1:0|1:0,0:0:0:0:
281,194,2713,2,0,L|209:202,1,60,2|0,1:0|1:0,0:0:0:0:
175,240,3127,2,0,L|103:248,1,60,2|0,1:0|1:0,0:0:0:0:
62,275,3541,1,6,1:2:0:0:
22,161,3955,6,0,L|147:166,1,120,4|0,0:1|0:0,0:0:0:0:
196,139,4576,1,2,0:3:0:0:
196,139,4782,2,0,P|231:117|323:132,1,120,0|0,0:0|0:0,0:0:0:0:
409,185,5610,2,0,L|403:313,1,120,4|0,0:1|0:0,0:0:0:0:
296,360,6438,1,4,0:3:0:0:
272,242,6851,1,0,1:0:0:0:
246,124,7265,6,0,L|174:118,1,60,4|2,0:1|0:3,0:0:0:0:
126,124,7679,1,0,1:0:0:0:
51,218,8093,2,0,L|123:224,1,60,4|2,0:3|0:3,0:0:0:0:
171,218,8507,1,0,1:0:0:0:
329,225,8920,6,0,P|350:273|336:355,1,120,4|2,1:2|1:2,0:0:0:0:
227,369,9748,2,0,L|234:273,2,90,2|2|2,1:2|1:2|1:2,0:0:0:0:
144,332,10679,2,0,L|136:256,1,60,2|4,1:2|1:2,0:0:0:0:
131,212,11093,1,0,0:0:0:0:
160,159,11300,2,0,L|167:52,2,90,2|0|0,0:0|1:0|1:0,0:0:0:0:
206,196,12127,1,6,1:2:0:0:
321,125,12644,5,8,0:0:0:0:
402,212,13058,2,0,P|428:251|420:338,1,120,4|0,0:1|1:0,0:0:0:0:
381,361,13678,1,0,0:0:0:0:
381,361,13885,2,0,L|254:367,1,120,4|0,0:3|1:0,0:0:0:0:
156,306,14713,6,0,P|103:293|32:320,1,120,4|0,0:3|1:0,0:0:0:0:
8,361,15333,1,0,0:0:0:0:
8,361,15540,2,0,B|31:310|31:310|30:238,1,120,4|0,0:3|1:0,0:0:0:0:
4,126,16368,2,0,L|79:133,1,60,0|0,1:0|0:0,0:0:0:0:
107,90,16781,6,0,B|156:79|156:79|181:59|181:59|241:51,1,120,4|0,0:3|1:0,0:0:0:0:
278,56,17402,1,0,0:0:0:0:
278,56,17609,2,0,P|321:84|407:63,1,120,4|0,0:3|1:0,0:0:0:0:
504,56,18437,2,0,P|515:102|519:139,1,60
489,168,18850,2,0,P|476:199|473:244,1,60
497,279,19264,2,0,P|509:323|516:359,1,60
471,382,19678,1,0,0:0:0:0:
376,307,20092,6,0,L|250:300,1,120,4|0,0:0|1:0,0:0:0:0:
144,345,20919,2,0,B|89:363|89:363|15:369,1,120,4|0,0:3|1:0,0:0:0:0:
10,248,21747,2,0,L|25:123,2,120,4|0|4,0:3|1:0|0:3,0:0:0:0:
126,295,22988,1,0,1:0:0:0:
215,214,23402,6,0,P|254:186|329:206,1,120,4|0,0:0|1:0,0:0:0:0:
420,266,24230,2,0,L|412:196,1,60,4|2,0:3|0:0,0:0:0:0:
386,152,24644,2,0,L|378:82,1,60,0|2,1:0|0:0,0:0:0:0:
347,34,25057,1,0,1:0:0:0:
347,34,25264,1,0,1:0:0:0:
347,34,25471,6,0,P|309:51|217:23,1,120,4|0,0:0|1:0,0:0:0:0:
120,12,26298,2,0,L|110:140,1,120,4|0,0:3|1:0,0:0:0:0:
172,234,27126,2,0,L|308:246,2,120,4|0|4,0:3|1:0|0:3,0:0:0:0:
71,299,28367,1,0,1:0:0:0:
31,185,28781,6,0,L|42:60,1,120,4|0,0:0|1:0,0:0:0:0:
160,48,29608,2,0,P|197:45|224:49,1,60,4|2,0:3|0:0,0:0:0:0:
265,87,30022,2,0,P|302:90|329:86,1,60,0|2,1:0|0:0,0:0:0:0:
376,56,30436,1,0,1:0:0:0:
376,56,30643,1,0,1:0:0:0:
440,287,31471,1,4,0:3:0:0:
440,287,31677,1,4,1:3:0:0:
327,245,32091,1,2,1:2:0:0:
233,320,32505,6,0,L|110:317,1,120,4|2,0:0|0:0,0:0:0:0:
58,291,33125,1,4,0:3:0:0:
58,291,33332,1,0,1:0:0:0:
142,205,33746,2,0,P|159:169|134:68,1,120,4|2,0:3|0:0,0:0:0:0:
117,40,34367,1,4,0:3:0:0:
117,40,34573,1,0,1:0:0:0:
51,140,34987,6,0,L|192:146,1,120,4|2,0:0|0:0,0:0:0:0:
225,119,35608,1,4,0:3:0:0:
225,119,35815,1,0,1:0:0:0:
297,214,36229,2,0,B|346:233|346:233|434:224,1,120,4|2,0:3|0:0,0:0:0:0:
459,188,36849,1,4,0:3:0:0:
459,188,37056,1,0,1:0:0:0:
490,72,37470,6,0,L|421:68,1,60,0|0,1:0|1:0,0:0:0:0:
251,90,38298,6,0,P|233:143|261:215,1,120,4|0,0:0|1:0,0:0:0:0:
291,246,38918,1,0,0:0:0:0:
291,246,39125,2,0,P|306:284|290:370,1,120,4|0,0:3|1:0,0:0:0:0:
177,334,39953,2,0,L|172:205,1,120,4|0,0:3|1:0,0:0:0:0:
184,155,40573,1,0,0:0:0:0:
184,155,40780,2,0,B|230:130|230:130|323:131,1,120,4|0,0:3|1:0,0:0:0:0:
417,145,41608,6,0,L|404:13,2,120,4|2|4,1:2|1:3|1:3,0:0:0:0:
347,242,42849,2,0,L|336:366,2,120,4|2|4,1:2|1:3|1:3,0:0:0:0:
297,132,44090,6,0,P|243:116|161:140,1,120,4|0,0:0|1:0,0:0:0:0:
102,218,44917,2,0,P|51:238|-20:232,1,120,4|0,0:3|1:0,0:0:0:0:
50,131,45745,2,0,L|186:133,1,120,4|0,0:3|1:0,0:0:0:0:
219,166,46365,1,0,0:0:0:0:
219,166,46572,2,0,P|240:218|230:301,1,120,4|0,0:3|1:0,0:0:0:0:
157,370,47400,6,0,L|297:359,1,120,4|2,0:2|1:2,0:0:0:0:
357,271,48227,2,0,L|495:281,1,120,4|0,0:3|0:0,0:0:0:0:
417,175,49055,2,0,P|408:137|435:51,1,120,4|0,0:3|1:0,0:0:0:0:
476,24,49676,1,2,0:0:0:0:
476,24,49883,2,0,B|436:42|436:42|341:38,1,120,4|0,0:3|1:0,0:0:0:0:
243,9,50710,6,0,P|162:10|115:38,1,120,6|0,0:2|1:0,0:0:0:0:
67,130,51538,1,2,0:0:0:0:
80,249,51952,1,0,1:0:0:0:
94,367,52365,2,0,L|171:358,1,60,0|0,1:0|0:0,0:0:0:0:
199,321,52779,2,0,L|276:312,1,60,0|0,1:0|0:0,0:0:0:0:
307,278,53193,2,0,L|384:269,1,60,0|0,1:0|0:0,0:0:0:0:
412,232,53607,1,0,0:0:0:0:
343,119,54021,6,0,L|217:111,1,120,4|0,0:1|1:0,0:0:0:0:
167,89,54641,1,2,0:0:0:0:
167,89,54848,2,0,L|159:23,2,60,6|0|0,0:3|0:0|1:0,0:0:0:0:
176,148,55469,1,0,0:0:0:0:
187,206,55676,6,0,B|194:271|194:271|172:342,1,120,6|0,0:3|1:0,0:0:0:0:
67,374,56503,1,6,0:3:0:0:
41,256,56917,1,0,1:0:0:0:
16,138,57331,6,0,L|137:148,1,120,4|0,0:0|1:0,0:0:0:0:
193,131,57952,1,0,0:0:0:0:
193,131,58158,2,0,P|251:114|312:140,1,120,6|0,0:3|1:0,0:0:0:0:
351,172,58779,1,0,0:0:0:0:
351,172,58986,2,0,L|337:37,2,120,6|0|6,0:3|1:0|0:3,0:0:0:0:
361,291,60227,2,0,L|284:300,1,60,0|0,1:0|1:0,0:0:0:0:
251,263,60641,6,0,P|193:248|112:276,1,120,4|0,0:1|1:0,0:0:0:0:
99,309,61262,1,2,0:0:0:0:
99,309,61469,2,0,L|88:374,2,60,0|2|0,0:0|0:0|1:0,0:0:0:0:
151,201,62296,6,0,B|161:131|161:131|146:69,1,120,6|0,0:3|1:0,0:0:0:0:
50,22,63124,1,0,2:3:0:0:
37,141,63538,1,0,1:0:0:0:
19,259,63952,6,0,L|83:269,1,60,2|2,3:2|3:2,0:0:0:0:
129,299,64365,1,2,1:2:0:0:
129,299,64572,2,0,L|205:288,1,60,2|2,3:2|3:2,0:0:0:0:
239,258,64986,1,2,1:2:0:0:
402,333,65607,6,0,L|412:269,1,60,2|2,3:2|3:2,0:0:0:0:
442,223,66020,1,2,1:2:0:0:
442,223,66227,2,0,L|431:147,1,60,2|2,3:2|3:2,0:0:0:0:
401,113,66641,1,2,1:2:0:0:
401,113,66848,2,0,L|408:36,1,60,2|2,1:0|1:0,0:0:0:0:
349,34,67262,6,0,P|292:60|216:48,2,120,4|0|6,0:1|1:0|0:3,0:0:0:0:
464,65,68503,1,0,1:0:0:0:
384,154,68917,2,0,B|293:145|293:145|226:175|226:175|133:164,1,240,6|2,0:3|0:0,0:0:0:0:
93,148,69952,1,0,1:0:0:0:
93,148,70158,2,0,L|81:229,1,60,0|0,1:0|1:0,0:0:0:0:
74,266,70572,5,4,0:0:0:0:
183,314,70986,2,0,L|171:233,1,60,0|0,1:0|0:0,0:0:0:0:
164,196,71400,1,0,1:0:0:0:
278,159,71814,2,0,L|266:236,1,60,0|0,1:0|0:0,0:0:0:0:
258,277,72227,6,0,L|367:267,2,90,2|2|2,1:2|1:2|1:2,0:0:0:0:
173,244,73158,2,0,L|60:230,2,90,0|2|2,0:0|1:2|1:2,0:0:0:0:
258,213,74090,6,0,L|268:138,2,60,2|0|0,0:0|0:0|0:0,0:0:0:0:
398,325,75124,1,8,0:0:0:0:
474,232,75538,6,0,P|489:171|474:108,1,120,4|0,0:0|1:0,0:0:0:0:
442,67,76158,1,0,0:0:0:0:
442,67,76365,2,0,L|312:61,1,120,4|0,0:3|1:0,0:0:0:0:
221,127,77193,2,0,P|186:146|98:124,1,120,4|0,0:3|1:0,0:0:0:0:
65,91,77814,1,0,0:0:0:0:
65,91,78021,2,0,B|77:144|77:144|67:226,1,120,4|0,0:3|1:0,0:0:0:0:
10,314,78848,2,0,L|90:308,1,60,0|0,1:0|0:0,0:0:0:0:
127,293,79262,6,0,B|196:287|196:287|256:317,1,120,4|0,0:3|1:0,0:0:0:0:
280,354,79882,1,0,0:0:0:0:
280,354,80089,2,0,P|317:364|398:347,1,120,4|0,0:3|1:0,0:0:0:0:
462,248,80917,6,0,L|395:256,1,60,4|0,0:3|1:0,0:0:0:0:
346,234,81330,2,0,L|279:242,1,60,4|0,0:3|1:0,0:0:0:0:
234,210,81744,2,0,L|167:218,1,60,4|0,1:2|0:0,0:0:0:0:
114,208,82158,1,0,1:0:0:0:
167,100,82572,6,0,L|28:90,2,120,4|2|4,1:3|1:3|1:3,0:0:0:0:
273,154,83813,2,0,L|412:144,2,120,4|2|8,1:3|1:3|1:3,0:0:0:0:
256,192,85054,12,0,89191,0:0:0:0:
