osu file format v14

[General]
AudioFilename: audio.mp3
AudioLeadIn: 0
PreviewTime: 19988
Countdown: 0
SampleSet: Soft
StackLeniency: 0.4
Mode: 0
LetterboxInBreaks: 0
WidescreenStoryboard: 0

[Editor]
Bookmarks: 56503,64572
DistanceSpacing: 1.2
BeatDivisor: 4
GridSize: 4
TimelineZoom: 1.6

[Metadata]
Title:a e i u e o ao!!
TitleUnicode:あ・え・い・う・え・お・あお!!
Artist:Gekidan Hitotose
ArtistUnicode:劇団ひととせ
Creator:Dashyy-
Version:HPK's Hard
Source:ひなこのーと
Tags:Uber imbor borborygmos hpk pishifat bor _83 hiicantpk bariton meat inspector Opening Hinako Note 桜木ひな子 Sakuragi M・A・O 市道真央 Ichimichi Mao 夏川くいな Natsukawa Kuina 富田美憂 Tomita Miyu 柊 真雪 Hiiragi Mayuki 小倉唯 Ogura Yui 萩野千秋 Hagino Chiaki 東城日沙子 Hisako Tojo 中島ゆあ Nakajima Yua 高野麻里佳 Kouno Marika
BeatmapID:1430964
BeatmapSetID:669309

[Difficulty]
HPDrainRate:5
CircleSize:3.8
OverallDifficulty:6
ApproachRate:7.5
SliderMultiplier:1.7
SliderTickRate:1

[Events]
//Background and Video events
0,0,"a.jpg",0,0
Video,0,"video.avi"
//Break Periods
//Storyboard Layer 0 (Background)
//Storyboard Layer 1 (Fail)
//Storyboard Layer 2 (Pass)
//Storyboard Layer 3 (Foreground)
//Storyboard Sound Samples

[TimingPoints]
645,413.793103448276,4,2,1,70,1,0
3955,-125,4,2,1,60,0,0
7265,-133.333333333333,4,2,1,60,0,0
8920,-125,4,2,1,70,0,0
9438,-100,4,2,1,70,0,0
11403,413.793103448276,4,2,1,76,1,0
12127,-100,4,2,1,76,0,0
12644,-100,4,2,2,40,0,0
12954,-100,4,2,2,5,0,0
13058,-100,4,2,1,73,0,0
16782,413.793103448276,4,2,1,73,1,0
20092,-100,4,2,1,60,0,0
23402,-100,4,2,1,73,0,0
25471,413.793103448276,4,2,1,40,1,0
25471,-100,4,2,1,40,0,0
28781,-100,4,2,1,74,0,0
30850,-100,4,2,1,60,0,0
31471,-100,4,2,1,63,0,0
32091,-100,4,2,1,60,0,0
32505,413.793103448276,3,2,1,66,1,0
32505,-100,3,2,1,66,0,0
38298,413.793103448276,4,2,1,61,1,0
38298,-100,4,2,1,61,0,0
41608,413.793103448276,3,2,1,60,1,0
44090,413.793103448276,4,2,1,65,1,0
44090,-100,4,2,1,65,0,0
53710,-100,4,2,1,20,0,0
54021,-90.9090909090909,4,2,1,70,0,1
58055,-90.9090909090909,4,2,1,5,0,1
58158,-90.9090909090909,4,2,1,70,0,1
67262,-90.9090909090909,4,2,1,70,0,1
70158,-100,4,2,1,70,0,1
70572,-100,4,2,1,60,0,0
72227,-100,4,2,1,70,0,0
73676,-100,4,2,1,76,0,0
74607,-100,4,2,1,76,0,0
75124,-100,4,2,2,40,0,0
75434,-100,4,2,2,5,0,0
75538,-100,4,2,1,73,0,0
79262,413.793103448276,4,2,1,73,1,0
81848,-100,4,2,1,63,0,0
82572,413.793103448276,3,2,1,60,1,0
85054,413.793103448276,4,2,1,60,1,0
88364,-100,4,2,1,40,0,0
88778,-100,4,2,1,20,0,0
89191,-100,4,2,1,5,0,0

[Colours]
Combo1 : 166,136,255
Combo2 : 191,255,134
Combo3 : 96,248,255
Combo4 : 255,179,132
Combo5 : 255,119,193
Combo6 : 255,247,147

[HitObjects]
169,94,645,6,0,P|139:206|120:225,1,127.5,4|0,0:2|0:0,0:0:0:0:
105,246,1058,2,0,L|198:234,1,85,0|0,0:0|0:0,0:0:0:0:
291,215,1472,2,0,P|335:152|272:109,1,170
374,253,2300,6,0,L|465:218,2,85,2|0|2,1:0|1:0|1:0,0:0:0:0:
369,150,2920,1,0,1:0:0:0:
433,71,3127,1,2,1:0:0:0:
338,31,3334,1,0,1:0:0:0:
273,110,3541,2,0,P|258:163|230:186,1,85,6|0,1:2|0:0,0:0:0:0:
135,210,3955,6,0,P|109:148|106:56,1,136,4|0,0:1|0:0,0:0:0:0:
143,8,4576,1,2,0:3:0:0:
219,35,4782,2,0,P|257:40|343:24,2,102,0|0|2,0:0|0:0|0:3,0:0:0:0:
194,113,5610,5,4,0:1:0:0:
236,182,5817,1,2,0:3:0:0:
250,262,6024,2,0,P|241:314|223:347,1,68,0|2,0:0|0:3,0:0:0:0:
146,271,6438,2,0,P|130:198|101:134,1,136,4|0,0:3|1:0,0:0:0:0:
210,30,7265,5,4,0:1:0:0:
279,62,7472,1,2,0:3:0:0:
354,76,7679,2,0,P|385:65|431:33,1,63.7500024318696,0|2,1:0|0:3,0:0:0:0:
384,151,8093,2,0,P|367:193|337:228,1,63.7500024318696,4|2,0:3|0:3,0:0:0:0:
300,260,8507,1,0,1:0:0:0:
232,295,8713,1,2,0:3:0:0:
152,312,8920,6,0,P|112:311|66:283,1,68,4|0,1:2|0:3,0:0:0:0:
42,215,9334,1,2,1:2:0:0:
42,215,9438,2,0,P|84:176|138:160,1,85,2|2,0:0|0:0,0:0:0:0:
108,116,9748,2,0,P|164:104|219:117,1,85,2|2,1:2|0:0,0:0:0:0:
215,62,10058,2,0,P|269:80|310:119,1,85,2|2,1:2|0:0,0:0:0:0:
335,69,10369,1,2,1:2:0:0:
436,81,10576,5,4,1:2:0:0:
463,124,10680,2,0,P|460:180|433:229,1,85,2|0,1:2|0:0,0:0:0:0:
463,254,10989,2,0,P|430:300|382:330,1,85,4|0,1:2|0:0,0:0:0:0:
314,357,11403,2,0,L|254:372,2,42.5,4|2|0,1:2|1:2|1:0,0:0:0:0:
245,281,11816,2,0,L|185:263,2,42.5,2|0|0,1:2|1:0|1:0,0:0:0:0:
296,278,12127,6,0,P|295:227|251:162,1,127.5,6|0,1:2|0:0,0:0:0:0:
169,107,12644,1,8,0:0:0:0:
361,36,13058,6,0,L|436:57,1,42.5,4|0,0:1|0:0,0:0:0:0:
384,95,13265,2,0,L|459:116,1,42.5,0|0,0:0|0:0,0:0:0:0:
407,154,13471,2,0,L|482:175,1,42.5,0|0,1:0|0:0,0:0:0:0:
430,213,13678,2,0,L|505:234,1,42.5,0|0,0:0|0:0,0:0:0:0:
453,272,13885,2,0,P|401:297|293:315,2,127.5,4|0|0,0:3|0:0|0:0,0:0:0:0:
351,260,14713,6,0,L|331:179,1,42.5,4|0,0:3|0:0,0:0:0:0:
293,231,14920,2,0,L|272:156,1,42.5,0|0,0:0|0:0,0:0:0:0:
234,208,15126,2,0,L|213:133,1,42.5,0|0,1:0|0:0,0:0:0:0:
175,185,15333,2,0,L|154:110,1,42.5,0|0,0:0|0:0,0:0:0:0:
116,162,15540,2,0,P|91:214|73:322,2,127.5,4|0|0,0:3|0:0|0:0,0:0:0:0:
156,70,16368,1,0,1:0:0:0:
156,70,16471,1,0,0:0:0:0:
156,70,16575,1,0,0:0:0:0:
250,31,16782,6,0,P|247:117|235:135,1,85,4|0,0:3|0:0,0:0:0:0:
199,202,17195,2,0,L|220:277,1,42.5,0|0,1:0|0:0,0:0:0:0:
259,226,17402,2,0,L|280:301,1,42.5,0|0,0:0|0:0,0:0:0:0:
319,250,17609,2,0,P|344:198|362:90,2,127.5,4|0|0,0:3|0:0|0:0,0:0:0:0:
258,332,18437,5,4,0:3:0:0:
210,242,18644,1,0,1:0:0:0:
159,329,18850,1,4,0:3:0:0:
111,239,19057,1,0,1:0:0:0:
63,149,19264,2,0,L|18:115,1,42.5,4|0,1:2|0:0,0:0:0:0:
62,84,19471,2,0,L|17:50,1,42.5,0|0,0:0|0:0,0:0:0:0:
61,19,19678,1,0,1:0:0:0:
224,56,20092,5,4,0:0:0:0:
324,37,20299,2,0,P|347:45|386:52,1,42.5,0|0,0:0|0:0,0:0:0:0:
415,48,20506,2,0,P|425:97|404:186,1,127.5,0|0,1:0|0:0,0:0:0:0:
379,212,20919,2,0,P|337:195|230:201,2,127.5,4|0|0,0:3|0:0|1:0,0:0:0:0:
445,290,21747,5,4,0:3:0:0:
375,364,21954,1,0,0:0:0:0:
276,335,22161,2,0,P|227:305|193:262,1,85,0|0,1:0|1:0,0:0:0:0:
255,193,22575,2,0,P|272:151|266:44,2,127.5,4|0|2,0:3|1:0|0:0,0:0:0:0:
153,204,23402,6,0,B|74:156|74:156|39:101,2,127.5,4|2|2,0:0|0:0|0:0,0:0:0:0:
255,193,24230,2,0,L|326:238,1,85,4|2,0:3|0:0,0:0:0:0:
423,204,24644,2,0,L|351:158,1,85,0|2,1:0|0:0,0:0:0:0:
273,92,25057,1,0,1:0:0:0:
255,193,25264,1,0,1:0:0:0:
177,127,25471,5,4,0:0:0:0:
122,212,25677,2,0,P|103:260|96:266,1,42.5,0|0,0:0|0:0,0:0:0:0:
111,303,25884,2,0,P|165:335|218:339,1,85,0|0,1:0|0:0,0:0:0:0:
285,315,26298,2,0,P|262:256|255:193,2,127.5,4|0|0,0:3|0:0|1:0,0:0:0:0:
385,336,27126,6,0,P|437:312|465:271,1,85,4|0,0:3|0:0,0:0:0:0:
370,233,27539,1,0,1:0:0:0:
340,135,27746,1,0,1:0:0:0:
255,193,27953,2,0,P|191:190|130:170,2,127.5,4|0|2,0:3|1:0|0:0,0:0:0:0:
358,191,28781,6,0,B|415:263|415:263|429:326,2,127.5,4|0|2,0:0|0:0|0:0,0:0:0:0:
255,193,29608,2,0,L|309:258,1,85,4|2,0:3|0:0,0:0:0:0:
208,262,30022,2,0,L|154:197,1,85,0|2,1:0|0:0,0:0:0:0:
201,105,30436,1,0,1:0:0:0:
255,193,30643,1,0,1:0:0:0:
340,135,30850,6,0,P|358:80|355:32,1,85,0|0,0:0|0:0,0:0:0:0:
441,114,31264,2,0,L|478:28,2,85,0|4|4,0:0|0:3|1:3,0:0:0:0:
255,193,32091,1,2,1:2:0:0:
113,46,32505,6,0,P|64:32|22:33,1,85,4|0,0:0|0:0,0:0:0:0:
54,130,32918,2,0,P|103:144|145:143,2,85,2|4|0,0:0|0:3|1:0,0:0:0:0:
181,50,33642,1,0,0:0:0:0:
210,74,33746,6,0,P|236:117|246:158,2,85,4|0|2,0:3|0:0|0:0,0:0:0:0:
295,17,34367,1,4,0:3:0:0:
393,42,34573,2,0,P|373:79|344:110,1,85,0|0,1:0|0:0,0:0:0:0:
245,150,34987,6,0,P|215:180|196:218,1,85,4|0,0:0|0:0,0:0:0:0:
249,306,35401,2,0,P|278:275|297:237,2,85,2|4|0,0:0|0:3|1:0,0:0:0:0:
165,163,36125,1,0,0:0:0:0:
140,132,36229,6,0,P|97:133|57:146,2,85,4|0|2,0:3|0:0|0:0,0:0:0:0:
245,150,36849,1,4,0:3:0:0:
345,169,37056,2,0,P|387:167|427:154,1,85,0|0,1:0|0:0,0:0:0:0:
506,89,37470,2,0,P|498:57|503:29,2,42.5,0|0|0,1:0|1:0|1:0,0:0:0:0:
411,302,38298,5,4,0:0:0:0:
411,302,38504,1,0,0:0:0:0:
316,340,38711,2,0,P|261:350|220:344,1,85,0|0,1:0|0:0,0:0:0:0:
164,269,39125,1,4,0:3:0:0:
164,269,39331,1,4,0:3:0:0:
259,231,39539,2,0,P|314:221|355:227,1,85,0|0,1:0|1:0,0:0:0:0:
440,256,39953,6,0,P|454:207|446:163,1,85,4|0,0:3|0:0,0:0:0:0:
407,80,40366,1,0,1:0:0:0:
407,80,40573,1,0,0:0:0:0:
309,48,40780,2,0,P|295:97|303:141,1,85,4|4,0:3|0:3,0:0:0:0:
342,224,41193,1,0,1:0:0:0:
342,224,41400,1,0,1:0:0:0:
259,285,41608,6,0,L|197:343,2,56.6666666666667,4|0|0,1:2|1:0|1:0,0:0:0:0:
212,274,42021,2,0,L|129:293,2,56.6666666666667,2|0|0,1:3|1:0|1:0,0:0:0:0:
176,241,42435,1,4,1:3:0:0:
103,88,42849,6,0,L|165:30,2,56.6666666666667,4|0|0,1:2|1:0|1:0,0:0:0:0:
150,99,43263,2,0,L|232:79,2,56.6666666666667,2|0|0,1:3|1:0|1:0,0:0:0:0:
185,132,43676,1,4,1:3:0:0:
20,253,44090,6,0,P|50:306|100:328,1,85,4|0,0:0|0:0,0:0:0:0:
167,344,44503,1,0,1:0:0:0:
167,344,44710,1,0,0:0:0:0:
236,269,44917,2,0,P|228:219|251:152,1,85,4|0,0:3|0:0,0:0:0:0:
287,98,45331,1,0,1:0:0:0:
287,98,45538,1,0,0:0:0:0:
384,69,45745,6,0,P|435:122|449:156,1,85
451,173,46055,2,0,P|422:240|418:320,1,127.5
343,365,46572,2,0,P|313:297|311:261,1,85
324,246,46883,2,0,P|321:182|299:122,1,127.5,0|0,2:0|2:0,2:0:0:0:
234,43,47400,5,4,0:0:0:0:
140,86,47607,2,0,B|82:119|82:119|39:131,1,85,2|2,0:0|1:2,0:0:0:0:
13,127,47917,1,2,0:0:0:0:
35,280,48227,2,0,B|80:325|80:325|134:348,1,85,4|2,0:3|0:0,0:0:0:0:
150,342,48538,2,0,P|143:288|167:214,1,127.5,2|2,0:0|0:0,0:0:0:0:
232,142,49055,5,2,0:0:0:0:
232,142,49262,1,0,1:0:0:0:
308,74,49470,2,0,P|350:79|391:72,1,85,4|2,0:3|0:0,0:0:0:0:
461,146,49882,1,2,0:0:0:0:
461,146,50090,1,0,1:0:0:0:
397,224,50296,2,0,P|355:217|313:222,1,85,4|2,0:3|0:0,0:0:0:0:
280,337,50710,6,0,L|307:367,2,42.5,6|2|2,0:2|0:0|0:0,0:0:0:0:
185,296,51124,2,0,P|143:268|119:230,1,85,0|0,1:0|0:0,0:0:0:0:
26,207,51538,2,0,P|19:160|66:38,1,170,2|0,0:0|1:0,0:0:0:0:
223,80,52365,6,0,L|309:94,1,85,0|0,1:0|0:0,0:0:0:0:
246,176,52779,2,0,L|190:243,1,85,0|0,1:0|0:0,0:0:0:0:
145,150,53193,1,0,1:0:0:0:
223,80,53400,1,0,0:0:0:0:
246,176,53607,6,0,P|271:224|328:252,1,85,0|0,0:0|0:0,0:0:0:0:
376,163,54021,6,0,P|384:109|374:32,1,93.5000028533936,4|0,0:1|0:0,0:0:0:0:
299,1,54434,1,0,1:0:0:0:
223,80,54641,1,2,0:0:0:0:
143,159,54848,2,0,P|96:189|35:193,1,93.5000028533936,6|0,0:3|0:0,0:0:0:0:
7,172,55158,2,0,P|44:230|48:310,1,140.25000428009,0|0,0:0|0:0,0:0:0:0:
142,364,55676,5,6,0:3:0:0:
227,291,55883,2,0,P|282:284|334:300,1,93.5000028533936,2|0,0:0|1:0,0:0:0:0:
351,312,56193,1,2,0:0:0:0:
388,313,56296,1,0,0:0:0:0:
424,305,56399,1,0,0:0:0:0:
459,290,56503,2,0,P|492:245|504:192,1,93.5000028533936,6|0,0:3|0:0,0:0:0:0:
390,201,56917,2,0,P|347:173|303:110,1,93.5000028533936,0|0,1:0|0:0,0:0:0:0:
290,32,57331,5,4,0:0:0:0:
215,115,57538,2,0,P|167:92|139:54,1,93.5000028533936,2|0,0:0|1:0,0:0:0:0:
121,14,57848,2,0,P|119:77|94:139,1,93.5000028533936,2|0,0:0|0:0,0:0:0:0:
82,149,58158,2,0,P|84:212|109:274,1,93.5000028533936,6|0,0:3|0:0,0:0:0:0:
173,320,58572,1,0,1:0:0:0:
284,337,58779,1,0,0:0:0:0:
363,254,58986,6,0,P|352:207|329:168,2,93.5000028533936,6|2|0,0:3|0:0|1:0,0:0:0:0:
365,310,59503,2,0,P|424:323|490:303,1,93.5000028533936,2|2,0:0|0:0,0:0:0:0:
483,281,59814,1,6,0:3:0:0:
492,169,60021,1,0,0:0:0:0:
383,194,60227,2,0,P|338:182|298:158,1,93.5000028533936,0|0,1:0|1:0,0:0:0:0:
230,67,60641,6,0,P|184:73|146:100,1,93.5000028533936,4|0,0:1|0:0,0:0:0:0:
140,213,61055,2,0,P|185:206|223:179,1,93.5000028533936,0|2,1:0|0:0,0:0:0:0:
268,145,61365,2,0,P|250:200|275:294,1,140.25000428009,2|2,0:0|0:0,0:0:0:0:
309,383,61883,2,0,P|262:382|217:370,1,93.5000028533936,0|0,1:0|0:0,0:0:0:0:
265,279,62296,5,6,0:3:0:0:
323,183,62503,1,2,0:0:0:0:
211,181,62710,2,0,P|196:135|207:81,1,93.5000028533936,0|0,1:0|0:0,0:0:0:0:
235,40,63021,2,0,P|321:99|393:95,1,140.25000428009,2|2,2:3|2:3,0:0:0:0:
450,44,63538,2,0,P|468:109|452:153,1,93.5000028533936,0|0,1:0|0:0,0:0:0:0:
395,199,63952,6,0,L|363:254,1,46.7500014266968,2|2,3:2|3:2,0:0:0:0:
327,204,64158,2,0,L|295:259,1,46.7500014266968,2|2,3:2|3:2,0:0:0:0:
259,209,64365,1,2,1:2:0:0:
123,219,64572,2,0,L|64:320,2,93.5000028533936,2|2|2,3:2|3:2|1:2,0:0:0:0:
185,125,65193,1,2,1:0:0:0:
247,31,65400,1,2,1:0:0:0:
357,50,65607,6,0,L|412:82,1,46.7500014266968,2|2,3:2|3:2,0:0:0:0:
362,118,65813,2,0,L|417:150,1,46.7500014266968,2|2,3:2|3:2,0:0:0:0:
367,186,66020,1,2,1:2:0:0:
377,322,66227,2,0,L|478:381,2,93.5000028533936,2|2|2,3:2|3:2|1:2,0:0:0:0:
283,260,66848,1,2,1:0:0:0:
189,198,67055,1,2,1:0:0:0:
239,97,67262,6,0,P|298:130|384:121,1,140.25000428009,4|0,0:1|0:0,0:0:0:0:
418,154,67676,2,0,P|359:187|273:178,1,140.25000428009,0|0,1:0|0:0,0:0:0:0:
239,211,68090,2,0,P|298:244|384:235,1,140.25000428009,6|0,0:3|0:0,0:0:0:0:
418,268,68503,2,0,P|359:301|273:292,1,140.25000428009,0|0,1:0|1:0,0:0:0:0:
239,325,68917,2,0,P|298:358|417:348,1,187.000005706787,6|0,0:3|1:0,0:0:0:0:
498,263,69538,1,2,0:0:0:0:
455,148,69745,2,0,L|359:139,1,93.5000028533936,2|0,0:0|1:0,0:0:0:0:
260,132,70158,6,0,L|253:55,2,42.5,0|0|0,1:0|1:0|1:0,0:0:0:0:
214,158,70469,2,0,L|136:164,1,42.5,0|4,1:0|0:0,0:0:0:0:
359,240,70986,2,0,L|365:163,2,42.5,0|2|0,1:0|0:0|0:0,0:0:0:0:
405,266,71297,2,0,L|482:272,1,42.5,2|0,0:0|1:0,0:0:0:0:
260,348,71814,2,0,L|253:271,2,42.5,0|2|0,1:0|0:0|0:0,0:0:0:0:
118,290,72227,6,0,P|149:241|197:212,1,85,2|0,1:2|0:0,0:0:0:0:
155,176,72538,2,0,P|205:150|262:149,1,85,2|0,1:2|0:0,0:0:0:0:
245,96,72848,2,0,P|301:98|351:125,1,85,2|4,1:2|1:2,0:0:0:0:
362,72,73158,2,0,P|409:103|439:151,1,85,0|2,0:0|0:0,0:0:0:0:
477,110,73469,2,0,P|501:160|503:217,1,85,2|2,1:2|0:0,0:0:0:0:
444,311,73883,2,0,L|412:364,2,42.5,2|2|2,1:2|0:0|0:0,0:0:0:0:
342,306,74296,2,0,L|286:335,2,42.5,2|2|2,1:2|0:0|0:0,0:0:0:0:
376,268,74607,6,0,P|339:232|262:217,1,127.5,2|0,1:2|0:0,0:0:0:0:
165,236,75124,1,8,0:0:0:0:
3,111,75538,6,0,L|24:36,1,42.5,4|0,0:0|0:0,0:0:0:0:
62,88,75745,2,0,L|83:13,1,42.5,0|0,0:0|0:0,0:0:0:0:
121,65,75951,2,0,L|142:-10,1,42.5,0|0,1:0|0:0,0:0:0:0:
180,42,76158,2,0,L|201:-33,1,42.5,0|0,0:0|0:0,0:0:0:0:
239,19,76365,2,0,P|264:71|282:179,2,127.5,4|0|0,0:3|0:0|0:0,0:0:0:0:
337,45,77193,6,0,L|417:64,1,42.5,4|0,0:3|0:0,0:0:0:0:
366,103,77400,2,0,L|441:124,1,42.5,0|0,0:0|0:0,0:0:0:0:
389,162,77606,2,0,L|464:183,1,42.5,0|0,1:0|0:0,0:0:0:0:
412,221,77813,2,0,L|487:242,1,42.5,0|0,0:0|0:0,0:0:0:0:
435,280,78020,2,0,P|383:305|275:323,2,127.5,4|0|0,0:3|0:0|0:0,0:0:0:0:
512,240,78848,1,0,1:0:0:0:
512,240,79055,1,0,0:0:0:0:
429,173,79262,6,0,P|343:176|325:188,1,85,4|0,0:3|0:0,0:0:0:0:
258,224,79675,2,0,L|183:203,1,42.5,0|0,1:0|0:0,0:0:0:0:
234,164,79882,2,0,L|159:143,1,42.5,0|0,0:0|0:0,0:0:0:0:
210,104,80089,2,0,P|262:79|370:61,2,127.5,4|0|0,0:3|0:0|0:0,0:0:0:0:
116,198,80917,5,4,0:3:0:0:
217,212,81124,1,0,1:0:0:0:
153,290,81330,1,4,0:3:0:0:
254,304,81537,1,0,1:0:0:0:
355,319,81744,2,0,L|402:349,1,42.5,4|0,1:2|0:0,0:0:0:0:
414,296,81951,2,0,L|461:326,1,42.5,0|0,0:0|0:0,0:0:0:0:
473,273,82158,1,0,1:0:0:0:
341,116,82572,6,0,L|279:58,2,56.6666666666667,4|0|0,1:3|1:0|1:0,0:0:0:0:
294,127,82985,2,0,L|211:108,2,56.6666666666667,2|0|0,1:3|1:0|1:0,0:0:0:0:
258,160,83399,1,4,1:3:0:0:
92,279,83813,6,0,L|154:337,2,56.6666666666667,4|0|0,1:3|1:0|1:0,0:0:0:0:
139,268,84227,2,0,L|221:288,2,56.6666666666667,2|0|0,1:3|1:0|1:0,0:0:0:0:
174,235,84640,1,8,1:3:0:0:
299,77,85054,5,4,1:1:0:0:
256,192,85157,12,0,89191,0:0:0:0:
