osu file format v14

[General]
AudioFilename: audio.mp3
AudioLeadIn: 0
PreviewTime: 19988
Countdown: 0
SampleSet: Soft
StackLeniency: 0.2
Mode: 0
LetterboxInBreaks: 0
WidescreenStoryboard: 1

[Editor]
Bookmarks: 56503
DistanceSpacing: 1
BeatDivisor: 4
GridSize: 8
TimelineZoom: 1.8

[Metadata]
Title:a e i u e o ao!!
TitleUnicode:あ・え・い・う・え・お・あお!!
Artist:Gekidan Hitotose
ArtistUnicode:劇団ひととせ
Creator:Dashyy-
Version:Collab Easy
Source:ひなこのーと
Tags:Uber imbor borborygmos hpk pishifat bor _83 hiicantpk bariton meat inspector Opening Hinako Note 桜木ひな子 Sakuragi M・A・O 市道真央 Ichimichi Mao 夏川くいな Natsukawa Kuina 富田美憂 Tomita Miyu 柊 真雪 Hiiragi Mayuki 小倉唯 Ogura Yui 萩野千秋 Hagino Chiaki 東城日沙子 Hisako Tojo 中島ゆあ Nakajima Yua 高野麻里佳 Kouno Marika
BeatmapID:1415659
BeatmapSetID:669309

[Difficulty]
HPDrainRate:2
CircleSize:3
OverallDifficulty:2
ApproachRate:3
SliderMultiplier:1
SliderTickRate:1

[Events]
//Background and Video events
0,0,"a.jpg",0,0
Video,0,"video.avi"
//Break Periods
//Storyboard Layer 0 (Background)
//Storyboard Layer 1 (Fail)
//Storyboard Layer 2 (Pass)
//Storyboard Layer 3 (Foreground)
//Storyboard Sound Samples

[TimingPoints]
645,413.793103448276,4,2,1,70,1,0
2300,-100,4,2,1,70,0,0
3955,-100,4,2,1,60,0,0
4162,-100,4,2,1,60,0,0
6438,-100,4,2,1,60,0,0
7265,-100,4,2,1,60,0,0
8920,-100,4,2,1,70,0,0
11403,413.793103448276,4,2,1,76,1,0
12127,-100,4,2,1,76,0,0
12644,-100,4,2,2,40,0,0
12954,-100,4,2,2,5,0,0
13058,-100,5,2,1,73,0,0
16782,413.793103448276,4,2,1,73,1,0
20092,-100,4,2,1,60,0,0
23402,-100,4,2,1,73,0,0
25471,413.793103448276,4,2,1,40,1,0
25471,-100,4,2,1,40,0,0
28781,-100,4,2,1,74,0,0
30850,-100,4,2,1,60,0,0
31471,-100,4,2,1,63,0,0
32091,-100,4,2,1,60,0,0
32505,413.793103448276,3,2,1,66,1,0
32505,-100,3,2,1,66,0,0
38298,413.793103448276,4,2,1,61,1,0
38298,-100,4,2,1,61,0,0
41608,413.793103448276,3,2,1,60,1,0
44090,413.793103448276,4,2,1,65,1,0
44090,-100,4,2,1,65,0,0
53710,-100,4,2,1,20,0,0
54021,-100,4,2,1,70,0,1
65193,-100,4,2,1,70,0,1
67262,-100,4,2,1,70,0,1
70572,-100,4,2,1,60,0,0
72227,-100,4,2,1,70,0,0
73676,-100,4,2,1,76,0,0
74607,-100,4,2,1,76,0,0
75124,-100,4,2,2,40,0,0
75434,-100,4,2,2,5,0,0
75538,-100,4,2,1,73,0,0
79262,413.793103448276,4,2,1,73,1,0
81848,-100,4,2,1,63,0,0
82572,413.793103448276,3,2,1,60,1,0
85054,413.793103448276,4,2,1,60,1,0
88364,-100,4,2,1,40,0,0
88778,-100,4,2,1,20,0,0
89191,-100,4,2,1,5,0,0

[Colours]
Combo1 : 166,136,255
Combo2 : 191,255,134
Combo3 : 96,248,255
Combo4 : 255,179,132
Combo5 : 255,119,193
Combo6 : 255,247,147

[HitObjects]
80,152,645,5,0,0:0:0:0:
256,64,1472,1,0,0:0:0:0:
424,176,2300,2,0,L|435:293,1,99.9999999999999,2|2,1:0|1:0,0:0:0:0:
336,288,3127,2,0,L|325:171,1,99.9999999999999,2|6,1:0|1:2,0:0:0:0:
384,112,3955,6,0,P|348:157|213:150,1,200,4|0,0:1|0:0,0:0:0:0:
67,18,5610,2,0,B|90:72|90:72|88:125,1,99.9999999999999,4|0,0:1|0:0,0:0:0:0:
30,203,6438,2,0,B|8:255|8:255|9:310,1,99.9999999999999,4|0,0:3|1:0,0:0:0:0:
104,352,7265,6,0,L|109:241,2,99.9999999999999,4|0|4,0:1|1:0|0:3,0:0:0:0:
203,304,8507,1,0,1:0:0:0:
305,343,8920,6,0,L|293:238,1,99.9999999999999,4|2,1:2|1:2,0:0:0:0:
361,156,9748,2,0,L|454:162,2,75,2|2|2,1:2|1:2|1:2,0:0:0:0:
375,237,10679,2,0,L|466:243,2,75,2|4|2,1:2|1:2|0:0,0:0:0:0:
298,268,11609,2,0,B|260:257|260:257|161:267,1,125,0|6,1:0|1:2,0:0:0:0:
47,217,12644,1,8,0:0:0:0:
82,112,13058,6,0,P|140:99|197:124,1,99.9999999999999,4|0,0:1|1:0,0:0:0:0:
260,182,13885,2,0,P|314:194|367:177,1,99.9999999999999,4|0,0:3|1:0,0:0:0:0:
410,98,14713,2,0,L|402:-5,2,99.9999999999999,4|0|4,0:3|1:0|0:3,0:0:0:0:
471,189,15954,1,0,1:0:0:0:
435,293,16368,1,0,1:0:0:0:
333,250,16782,6,0,B|277:241|277:241|228:255,1,99.9999999999999,4|0,0:3|1:0,0:0:0:0:
140,308,17609,2,0,B|88:324|88:324|21:314,1,99.9999999999999,4|0,0:3|1:0,0:0:0:0:
28,207,18437,2,0,B|29:148|29:148|4:107|4:107|4:53|26:8,1,200,4|4,0:3|1:2,0:0:0:0:
123,59,19678,1,0,1:0:0:0:
230,33,20092,6,0,L|344:16,2,100,4|0|4,0:0|1:0|0:3,0:0:0:0:
341,222,21747,2,0,L|464:208,2,100,4|0|4,0:3|1:0|0:3,0:0:0:0:
124,180,23402,2,0,P|106:224|101:286,1,99.9999999999999,4|0,0:0|1:0,0:0:0:0:
182,349,24230,2,0,L|291:347,1,99.9999999999999,4|0,0:3|1:0,0:0:0:0:
374,288,25057,5,0,1:0:0:0:
281,227,25471,6,0,L|288:119,2,99.9999999999999,4|0|4,0:0|1:0|0:3,0:0:0:0:
72,155,27126,2,0,L|79:47,2,99.9999999999999,4|0|4,0:3|1:0|0:3,0:0:0:0:
272,245,28781,6,0,L|264:132,1,99.9999999999999,4|0,0:0|1:0,0:0:0:0:
189,65,29608,2,0,P|146:51|89:60,1,99.9999999999999,4|0,0:3|1:0,0:0:0:0:
47,159,30436,1,0,1:0:0:0:
103,253,30850,2,0,B|207:295|208:219|317:274,1,200,0|4,0:0|1:3,0:0:0:0:
397,312,32091,1,2,1:2:0:0:
380,203,32505,6,0,B|376:143|376:143|391:99|391:99|387:4,1,200,4|0,0:0|1:0,0:0:0:0:
307,82,33746,2,0,P|246:113|132:46,1,200,4|0,0:3|1:0,0:0:0:0:
231,4,34987,6,0,L|228:216,1,200,4|0,0:0|1:0,0:0:0:0:
153,285,36229,2,0,B|197:252|197:252|355:236,1,200,4|0,0:3|1:0,0:0:0:0:
420,314,37470,1,0,1:0:0:0:
363,101,38298,6,0,P|321:83|250:80,1,99.9999999999999,4|0,0:0|1:0,0:0:0:0:
194,159,39125,2,0,B|154:181|154:181|86:184,1,99.9999999999999,4|0,0:3|1:0,0:0:0:0:
11,116,39953,2,0,L|23:11,2,99.9999999999999,4|0|4,0:3|1:0|0:3,0:0:0:0:
56,216,41194,1,0,1:0:0:0:
151,161,41608,6,0,B|211:140|211:140|369:149,1,200,4|4,1:2|1:3,0:0:0:0:
419,230,42849,2,0,B|359:251|359:251|201:242,1,200,4|4,1:2|1:3,0:0:0:0:
135,193,44090,6,0,P|122:241|135:294,1,99.9999999999999,4|0,0:0|1:0,0:0:0:0:
213,352,44917,2,0,L|318:359,1,99.9999999999999,4|0,0:3|1:0,0:0:0:0:
409,305,45745,2,0,L|519:297,2,99.9999999999999,4|0|4,0:3|1:0|0:3,0:0:0:0:
305,268,46986,1,0,1:0:0:0:
375,183,47400,6,0,P|394:135|383:82,1,99.9999999999999,4|2,0:2|1:2,0:0:0:0:
298,21,48227,2,0,P|279:69|290:122,1,99.9999999999999,4|0,0:3|0:0,0:0:0:0:
295,225,49055,2,0,L|195:221,1,99.9999999999999,4|0,0:3|1:0,0:0:0:0:
110,150,49883,2,0,L|10:146,1,99.9999999999999,4|0,0:3|1:0,0:0:0:0:
19,255,50710,6,0,L|35:354,1,100,6|0,0:2|1:0,0:0:0:0:
145,350,51538,2,0,L|161:251,1,100,2|0,0:0|1:0,0:0:0:0:
130,156,52365,1,0,0:0:0:0:
206,92,52779,1,0,0:0:0:0:
297,132,53193,1,0,0:0:0:0:
493,94,54021,6,0,L|503:216,1,100,4|0,0:1|1:0,0:0:0:0:
460,284,54848,2,0,P|389:296|360:284,1,100,6|0,0:3|1:0,0:0:0:0:
278,234,55676,2,0,L|182:181,1,100,6|0,0:3|1:0,0:0:0:0:
103,136,56503,1,6,0:3:0:0:
159,53,56917,1,0,1:0:0:0:
240,110,57331,6,0,P|324:119|350:108,1,100,4|0,0:0|1:0,0:0:0:0:
396,33,58158,2,0,P|311:23|285:34,1,100,6|0,0:3|1:0,0:0:0:0:
199,31,58986,1,6,0:3:0:0:
140,112,59400,2,0,L|141:224,2,100,0|6|0,1:0|0:3|1:0,0:0:0:0:
228,64,60641,6,0,P|295:81|319:106,1,100,4|0,0:1|1:0,0:0:0:0:
244,171,61469,1,0,0:0:0:0:
315,240,61883,1,0,1:0:0:0:
407,203,62296,2,0,L|411:91,1,100,6|0,0:3|1:0,0:0:0:0:
448,10,63124,1,0,2:3:0:0:
496,97,63538,1,0,1:0:0:0:
499,196,63952,6,0,P|480:260|439:292,2,100,2|2|0,3:2|1:2|0:0,0:0:0:0:
402,199,65193,1,2,1:0:0:0:
301,199,65607,2,0,P|324:260|367:292,2,100,2|2|0,3:2|1:2|0:0,0:0:0:0:
322,101,66848,1,2,1:0:0:0:
226,65,67262,6,0,L|121:62,1,100,4|0,0:1|1:0,0:0:0:0:
60,150,68090,2,0,L|165:153,1,100,6|0,0:3|1:0,0:0:0:0:
215,235,68917,2,0,P|127:301|135:392,1,200,6|2,0:3|0:0,0:0:0:0:
222,335,70158,1,0,1:0:0:0:
325,285,70572,6,0,P|340:231|319:183,1,100,4|0,0:0|1:0,0:0:0:0:
247,113,71400,2,0,P|233:61|253:11,1,100,0|0,1:0|1:0,0:0:0:0:
344,69,72227,2,0,B|416:99|416:99|452:177,2,150,2|2|2,1:2|1:2|1:2,0:0:0:0:
300,170,73883,2,0,L|228:335,1,175,2|0,1:2|0:0,0:0:0:0:
5,226,75538,6,0,P|62:205|92:171,1,100,4|0,0:0|1:0,0:0:0:0:
109,69,76365,2,0,P|145:35|192:20,1,100,4|0,0:3|1:0,0:0:0:0:
253,111,77193,2,0,P|300:143|364:156,1,100,4|0,0:3|1:0,0:0:0:0:
423,81,78021,2,0,P|470:95|510:124,1,100,4|0,0:3|1:0,0:0:0:0:
497,233,78848,1,0,1:0:0:0:
399,283,79262,6,0,L|287:288,1,100,4|0,0:3|1:0,0:0:0:0:
195,250,80089,2,0,L|190:138,1,100,4|0,0:3|1:0,0:0:0:0:
175,40,80917,5,4,0:3:0:0:
81,97,81330,1,4,0:3:0:0:
92,206,81744,2,0,L|96:324,1,100,4|0,1:2|1:0,0:0:0:0:
198,345,82572,6,0,B|266:356|302:313|302:313|353:332|392:314,1,200,4|4,1:3|1:3,0:0:0:0:
338,228,83813,2,0,B|270:217|234:260|234:260|183:241|144:259,1,200,4|4,1:3|1:3,0:0:0:0:
256,192,85054,12,0,89191,0:0:0:0:
