osu file format v14

[General]
AudioFilename: audio.mp3
AudioLeadIn: 0
PreviewTime: 19988
Countdown: 0
SampleSet: Soft
StackLeniency: 0.2
Mode: 0
LetterboxInBreaks: 0
WidescreenStoryboard: 1

[Editor]
DistanceSpacing: 0.8
BeatDivisor: 3
GridSize: 4
TimelineZoom: 2.799999

[Metadata]
Title:a e i u e o ao!!
TitleUnicode:あ・え・い・う・え・お・あお!!
Artist:Gekidan Hitotose
ArtistUnicode:劇団ひととせ
Creator:Dashyy-
Version:Bariton's Insane
Source:ひなこのーと
Tags:Uber imbor borborygmos hpk pishifat bor _83 hiicantpk bariton meat inspector Opening Hinako Note 桜木ひな子 Sakuragi M・A・O 市道真央 Ichimichi Mao 夏川くいな Natsukawa Kuina 富田美憂 Tomita Miyu 柊 真雪 Hiiragi Mayuki 小倉唯 Ogura Yui 萩野千秋 Hagino Chiaki 東城日沙子 Hisako Tojo 中島ゆあ Nakajima Yua 高野麻里佳 Kouno Marika
BeatmapID:1468745
BeatmapSetID:669309

[Difficulty]
HPDrainRate:5.7
CircleSize:4
OverallDifficulty:8
ApproachRate:9
SliderMultiplier:1.7
SliderTickRate:1

[Events]
//Background and Video events
0,0,"a.jpg",0,0
Video,0,"video.avi"
//Break Periods
//Storyboard Layer 0 (Background)
//Storyboard Layer 1 (Fail)
//Storyboard Layer 2 (Pass)
//Storyboard Layer 3 (Foreground)
//Storyboard Sound Samples

[TimingPoints]
645,413.793103448276,4,2,1,70,1,0
2300,-133.333333333333,4,2,1,70,0,0
3955,-133.333333333333,4,2,1,60,0,0
4162,-133.333333333333,4,2,1,60,0,0
6438,-133.333333333333,4,2,1,60,0,0
7265,-133.333333333333,4,2,1,60,0,0
8507,-117.647058823529,4,2,1,60,0,0
8920,-100,4,2,1,70,0,0
11403,413.793103448276,4,2,1,76,1,0
12127,-100,4,2,1,76,0,0
12644,-200,4,2,2,40,0,0
12954,-100,4,2,2,5,0,0
13058,-100,4,2,1,73,0,0
16782,413.793103448276,4,2,1,73,1,0
19264,-100,4,2,1,60,0,0
19988,-100,4,2,1,60,0,0
20092,-100,4,2,1,60,0,0
23402,-100,4,2,1,73,0,0
25471,413.793103448276,4,2,1,40,1,0
25471,-100,4,2,1,40,0,0
28781,-100,4,2,1,74,0,0
30850,-200,4,2,1,60,0,0
31471,-100,4,2,1,63,0,0
31677,-66.6666666666667,4,2,1,63,0,0
31884,-66.6666666666667,4,2,1,63,0,0
32091,-100,4,2,1,60,0,0
32505,413.793103448276,3,2,1,66,1,0
32505,-133.333333333333,3,2,1,66,0,0
38298,413.793103448276,4,2,1,61,1,0
38298,-100,4,2,1,61,0,0
41608,413.793103448276,3,2,1,60,1,0
44090,413.793103448276,4,2,1,65,1,0
44090,-100,4,2,1,65,0,0
51952,-66.6666666666667,4,2,1,65,0,0
52365,-200,4,2,1,65,0,0
52676,-200,4,2,1,65,0,0
52779,-142.857142857143,4,2,1,65,0,0
53090,-142.857142857143,4,2,1,65,0,0
53193,-111.111111111111,4,2,1,65,0,0
53503,-111.111111111111,4,2,1,65,0,0
53607,-55.5555555555556,4,2,1,65,0,0
53710,-55.5555555555556,4,2,1,20,0,0
53814,-66.6666666666667,4,2,1,20,0,0
54021,-83.3333333333333,4,2,1,70,0,1
65193,-83.3333333333333,4,2,1,70,0,1
67262,-83.3333333333333,4,2,1,70,0,1
70572,-100,4,2,1,60,0,0
72227,-100,4,2,1,70,0,0
73676,-100,4,2,1,76,0,0
74607,-100,4,2,1,76,0,0
75124,-200,4,2,2,40,0,0
75434,-100,4,2,2,5,0,0
75538,-100,4,2,1,73,0,0
79262,413.793103448276,4,2,1,73,1,0
81744,-100,4,2,1,63,0,0
81848,-100,4,2,1,63,0,0
82572,413.793103448276,3,2,1,60,1,0
85054,413.793103448276,4,2,1,60,1,0
88364,-100,4,2,1,40,0,0
88778,-100,4,2,1,20,0,0
89191,-100,4,2,1,5,0,0

[Colours]
Combo1 : 166,136,255
Combo2 : 191,255,134
Combo3 : 124,193,226
Combo4 : 255,179,132
Combo5 : 255,119,193
Combo6 : 252,228,150

[HitObjects]
192,136,645,6,0,L|188:104,1,21.25,4|0,1:2|0:0,0:0:0:0:
320,136,1472,6,0,L|324:104,1,21.25,0|0,1:0|0:0,0:0:0:0:
212,154,2300,6,0,L|210:132,1,21.25,2|0,1:0|0:0,0:0:0:0:
299,154,2507,2,0,L|301:132,1,21.25,0|0,1:0|0:0,0:0:0:0:
202,240,2713,6,0,L|172:217,1,21.25,2|0,1:0|0:0,0:0:0:0:
312,242,2920,2,0,L|342:219,1,21.25,0|0,1:0|0:0,0:0:0:0:
172,336,3127,6,0,L|131:341,1,21.25,2|0,1:0|0:0,0:0:0:0:
340,336,3334,2,0,L|380:341,1,21.25,0|0,1:0|0:0,0:0:0:0:
256,152,3541,6,0,L|256:128,1,21.25,6|0,1:2|0:0,0:0:0:0:
256,152,3955,6,0,P|316:168|372:136,1,127.500004863739,4|0,0:1|0:0,0:0:0:0:
412,76,4472,1,0,0:0:0:0:
412,76,4576,1,2,0:3:0:0:
456,236,4782,1,0,0:0:0:0:
456,236,4886,2,0,L|444:320,2,63.7500024318696,0|0|0,0:0|0:0|0:0,0:0:0:0:
492,168,5403,1,2,0:3:0:0:
360,296,5610,6,0,P|320:308|280:300,1,63.7500024318696,4|2,0:1|0:3,0:0:0:0:
152,248,6024,1,0,0:0:0:0:
152,248,6127,2,0,P|192:236|232:244,1,63.7500024318696,0|0,0:0|0:0,0:0:0:0:
224,244,6438,2,0,P|204:200|244:128,1,127.500004863739,4|0,0:3|1:0,0:0:0:0:
320,80,7058,1,2,0:3:0:0:
236,132,7265,6,0,L|168:136,1,63.7500024318696,4|2,0:1|0:3,0:0:0:0:
104,104,7576,1,0,0:0:0:0:
104,104,7679,1,0,1:0:0:0:
48,240,7886,1,2,0:3:0:0:
48,240,7989,1,0,0:0:0:0:
48,240,8093,2,0,P|40:208|44:176,1,63.7500024318696,4|2,0:3|0:3,0:0:0:0:
136,276,8507,2,0,P|119:304|84:328,1,72.2500013780594,0|2,1:0|0:3,0:0:0:0:
160,164,8920,5,4,1:2:0:0:
160,164,9334,2,0,P|216:184|276:152,1,127.5,2|2,1:2|0:0,0:0:0:0:
316,92,9748,2,0,P|320:135|366:175,1,85,2|2,1:2|0:0,0:0:0:0:
392,232,10058,2,0,P|419:198|415:137,1,85,2|2,1:2|0:0,0:0:0:0:
316,92,10369,1,2,1:2:0:0:
304,260,10576,5,4,1:2:0:0:
304,260,10679,2,0,L|208:280,1,85,2|0,1:2|0:0,0:0:0:0:
152,312,10989,1,4,1:2:0:0:
152,312,11093,2,0,P|104:316|64:296,1,85,2|2,1:2|0:0,0:0:0:0:
32,228,11403,5,4,1:2:0:0:
34,185,11506,1,2,1:2:0:0:
53,148,11609,1,0,1:0:0:0:
87,123,11713,1,0,1:0:0:0:
128,114,11816,1,2,1:2:0:0:
169,122,11920,1,0,1:0:0:0:
203,148,12023,1,0,1:0:0:0:
222,186,12127,6,0,P|252:152|208:48,1,170,6|0,1:2|0:0,0:0:0:0:
222,186,12644,6,0,P|256:192|292:180,1,63.75,8|0,0:0|0:0,0:0:0:0:
356,128,13058,6,0,P|381:124|401:128,1,42.5,4|0,0:1|0:0,0:0:0:0:
356,248,13265,2,0,P|381:252|401:248,1,42.5,0|0,0:0|0:0,0:0:0:0:
368,119,13471,6,0,P|394:105|416:102,1,42.5,0|0,1:0|0:0,0:0:0:0:
368,255,13678,2,0,P|394:269|416:272,1,42.5,0|0,0:0|0:0,0:0:0:0:
276,312,13885,6,0,L|184:304,1,85,4|0,0:3|0:0,0:0:0:0:
120,324,14196,2,0,P|140:284|136:244,1,85,0|0,0:0|0:0,0:0:0:0:
96,176,14506,1,0,0:0:0:0:
204,48,14713,5,4,0:3:0:0:
204,48,14816,1,0,0:0:0:0:
204,48,14920,2,0,L|256:56,1,42.5,0|0,0:0|0:0,0:0:0:0:
384,100,15127,5,0,1:0:0:0:
384,100,15230,1,0,0:0:0:0:
384,100,15334,2,0,L|332:108,1,42.5,0|0,0:0|0:0,0:0:0:0:
273,233,15540,6,0,P|261:192|272:152,1,85,4|0,0:3|0:0,0:0:0:0:
340,264,15851,2,0,P|303:244|281:207,1,85,0|0,0:0|0:0,0:0:0:0:
412,256,16161,2,0,P|364:248|348:232,1,42.5,0|0,0:0|0:0,0:0:0:0:
472,200,16368,5,0,1:0:0:0:
472,200,16471,1,0,0:0:0:0:
472,200,16575,1,0,0:0:0:0:
376,72,16782,6,0,P|332:60|292:72,1,85,4|0,0:3|0:0,0:0:0:0:
228,112,17092,1,0,0:0:0:0:
228,112,17195,2,0,L|180:100,1,42.5,0|0,1:0|0:0,0:0:0:0:
96,48,17402,2,0,L|144:36,1,42.5,0|0,0:0|0:0,0:0:0:0:
228,112,17609,6,0,P|240:152|224:200,1,85,4|0,0:3|0:0,0:0:0:0:
180,256,17919,2,0,P|168:296|180:336,1,85,0|0,0:0|0:0,0:0:0:0:
252,368,18230,1,0,0:0:0:0:
360,252,18437,6,0,L|368:208,3,42.5,4|4|0|0,0:3|0:3|1:0|1:0,0:0:0:0:
460,232,18850,6,0,L|452:190,3,42.5,4|4|0|0,0:3|0:3|1:0|1:0,0:0:0:0:
384,132,19264,5,4,1:2:0:0:
385,123,19368,1,0,0:0:0:0:
387,114,19471,1,0,0:0:0:0:
388,105,19575,1,0,0:0:0:0:
390,94,19678,6,0,B|325:73|328:116|264:88,1,127.5,0|0,1:0|0:0,0:0:0:0:
232,60,20092,6,0,P|236:100|212:140,1,85,4|0,0:0|0:0,0:0:0:0:
180,168,20402,1,0,0:0:0:0:
180,168,20506,2,0,L|88:144,1,85,0|0,1:0|0:0,0:0:0:0:
204,280,20919,2,0,P|256:292|312:264,1,85,4|0,0:3|0:0,0:0:0:0:
296,276,21230,1,0,0:0:0:0:
304,268,21333,1,0,1:0:0:0:
348,184,21540,1,0,1:0:0:0:
296,96,21747,5,4,0:3:0:0:
296,96,21850,1,0,0:0:0:0:
296,96,21954,2,0,L|344:88,1,42.5,0|0,0:0|0:0,0:0:0:0:
232,148,22161,2,0,P|188:156|148:140,1,85,0|0,1:0|1:0,0:0:0:0:
88,104,22471,1,0,1:0:0:0:
88,104,22575,2,0,L|96:200,1,85,4|0,0:3|1:0,0:0:0:0:
160,332,22988,2,0,L|168:236,1,85,0|2,1:0|0:0,0:0:0:0:
168,236,23299,1,2,0:0:0:0:
168,224,23402,6,0,P|228:252|288:232,1,127.5,4|2,0:0|0:0,0:0:0:0:
348,192,23816,2,0,P|388:184|436:200,1,85,0|2,1:0|0:0,0:0:0:0:
440,204,24126,1,2,0:0:0:0:
444,216,24230,5,4,0:3:0:0:
256,316,24437,1,2,0:0:0:0:
416,300,24644,1,0,1:0:0:0:
348,192,24850,1,2,0:0:0:0:
368,372,25057,5,0,1:0:0:0:
348,172,25264,1,0,1:0:0:0:
256,316,25471,6,0,P|216:332|168:324,1,85,4|0,0:0|0:0,0:0:0:0:
80,248,25884,1,0,1:0:0:0:
52,216,25987,1,0,0:0:0:0:
48,174,26090,1,0,0:0:0:0:
67,137,26194,1,0,0:0:0:0:
92,116,26298,6,0,L|180:128,1,85,4|0,0:3|0:0,0:0:0:0:
220,108,26608,2,0,P|280:116|336:76,1,127.5,0|0,1:0|1:0,0:0:0:0:
372,52,27022,1,0,1:0:0:0:
372,52,27126,6,0,P|420:44|460:60,1,85,4|0,0:3|0:0,0:0:0:0:
360,180,27539,1,0,1:0:0:0:
335,213,27642,1,0,0:0:0:0:
328,255,27745,1,0,1:0:0:0:
341,295,27849,1,0,1:0:0:0:
370,325,27953,6,0,L|284:320,1,85,4|0,0:3|1:0,0:0:0:0:
240,340,28264,2,0,P|172:352|124:324,1,127.5,0|2,1:0|0:0,0:0:0:0:
80,288,28677,1,2,0:0:0:0:
100,252,28781,6,0,L|92:120,1,127.5,4|0,0:0|0:0,0:0:0:0:
56,60,29195,2,0,P|96:72|140:64,1,85,0|2,1:0|0:0,0:0:0:0:
208,28,29505,1,0,0:0:0:0:
208,28,29608,5,4,0:3:0:0:
320,156,29815,1,2,0:0:0:0:
204,132,30022,1,0,1:0:0:0:
356,44,30229,1,2,0:0:0:0:
256,248,30436,5,0,1:0:0:0:
376,32,30643,1,0,1:0:0:0:
256,248,30850,6,0,L|284:196,2,42.5,0|0|0,0:0|0:0|0:0,0:0:0:0:
264,264,31471,6,0,L|274:222,1,42.5,4|0,0:3|0:0,0:0:0:0:
223,331,31677,2,0,P|285:341|333:302,1,127.500004863739,4|0,1:3|0:0,0:0:0:0:
333,302,32091,5,2,1:2:0:0:
333,302,32505,6,0,L|466:315,1,127.500004863739,4|2,0:0|0:0,0:0:0:0:
408,228,33125,1,4,0:3:0:0:
452,136,33332,1,0,1:0:0:0:
352,52,33642,1,0,1:0:0:0:
352,52,33746,6,0,P|292:40|236:72,1,127.500004863739,4|2,0:3|0:0,0:0:0:0:
228,208,34367,1,4,0:3:0:0:
152,128,34573,1,0,1:0:0:0:
336,176,34884,1,0,1:0:0:0:
336,176,34987,6,0,B|416:184|416:184|464:160,1,127.500004863739,4|2,0:0|0:0,0:0:0:0:
392,88,35608,1,4,0:3:0:0:
440,256,35815,1,0,1:0:0:0:
288,340,36125,1,0,1:0:0:0:
288,340,36229,6,0,P|224:332|192:276,1,127.500004863739,4|2,0:3|0:0,0:0:0:0:
236,136,36849,1,4,0:3:0:0:
96,238,37056,1,0,1:0:0:0:
96,238,37470,5,0,1:0:0:0:
80,188,37573,1,0,1:0:0:0:
100,140,37677,1,0,1:0:0:0:
100,140,38298,6,0,P|108:100|92:56,1,85,4|0,0:0|0:0,0:0:0:0:
231,55,38711,2,0,P|214:92|221:138,1,85,0|0,1:0|0:0,0:0:0:0:
100,140,39125,5,4,0:3:0:0:
94,59,39332,1,4,0:3:0:0:
231,55,39539,1,0,1:0:0:0:
220,135,39746,1,0,1:0:0:0:
312,240,39953,6,0,P|356:248|400:232,1,85,4|0,0:3|0:0,0:0:0:0:
379,107,40366,2,0,P|335:99|291:115,1,85,0|0,1:0|0:0,0:0:0:0:
312,240,40780,5,4,0:3:0:0:
393,236,40987,1,4,0:3:0:0:
379,107,41194,1,0,1:0:0:0:
298,111,41401,1,0,1:0:0:0:
393,236,41608,6,0,P|408:196|408:172,2,56.6666666666667,4|0|0,1:2|1:0|1:0,0:0:0:0:
349,344,42021,2,0,P|334:304|334:280,2,56.6666666666667,2|0|0,1:3|0:0|0:0,0:0:0:0:
393,236,42435,1,4,1:3:0:0:
393,236,42849,5,0,0:0:0:0:
432,264,42987,2,0,P|440:296|432:328,1,56.6666666666667
349,344,43263,1,0,0:0:0:0:
310,316,43401,2,0,P|302:284|310:252,1,56.6666666666667
393,236,43676,1,4,1:3:0:0:
204,48,44090,6,0,P|192:88|204:132,1,85,4|0,0:0|0:0,0:0:0:0:
264,184,44400,1,0,0:0:0:0:
264,184,44503,1,0,1:0:0:0:
128,156,44710,1,0,0:0:0:0:
180,296,44917,2,0,P|192:256|180:212,1,85,4|0,0:3|0:0,0:0:0:0:
128,156,45227,1,0,0:0:0:0:
116,148,45331,1,0,1:0:0:0:
180,296,45538,1,0,0:0:0:0:
272,224,45745,6,0,L|360:232,1,85,4|0,0:3|0:0,0:0:0:0:
452,284,46158,2,0,P|440:244|452:200,1,85,0|0,1:0|0:0,0:0:0:0:
456,192,46469,1,0,0:0:0:0:
460,180,46572,2,0,P|472:140|460:96,1,85,4|0,0:3|0:0,0:0:0:0:
380,40,46986,2,0,L|296:52,1,85,0|0,1:0|0:0,0:0:0:0:
144,140,47400,6,0,P|188:144|236:116,1,85,4|2,0:2|0:0,0:0:0:0:
236,116,47711,1,0,0:0:0:0:
244,104,47814,1,2,1:2:0:0:
128,132,48021,1,0,0:0:0:0:
256,232,48227,6,0,P|300:236|348:208,1,85,4|2,0:3|0:0,0:0:0:0:
348,208,48538,1,2,0:0:0:0:
356,196,48641,1,0,0:0:0:0:
240,224,48848,1,2,0:0:0:0:
396,296,49055,5,4,0:3:0:0:
419,147,49262,2,0,P|384:120|344:116,1,85,2|0,0:0|1:0,0:0:0:0:
344,115,49676,1,2,0:0:0:0:
396,296,49883,5,4,0:3:0:0:
436,160,50090,2,0,P|421:132|372:104,1,85,2|0,0:0|1:0,0:0:0:0:
376,104,50504,1,2,0:0:0:0:
256,196,50710,5,6,0:2:0:0:
256,196,50814,1,2,0:0:0:0:
256,196,50917,1,2,0:0:0:0:
152,128,51124,2,0,P|136:88|144:48,1,85,0|0,1:0|0:0,0:0:0:0:
256,196,51538,6,0,P|280:244|228:308,1,127.5,2|0,0:0|0:0,0:0:0:0:
232,312,51952,6,0,B|268:320|288:296|288:296|300:304|300:304|320:280|364:284,1,127.500004863739,0|0,1:0|1:0,0:0:0:0:
140,252,52365,6,0,P|128:220|132:188,1,63.75,0|0,1:0|0:0,0:0:0:0:
236,128,52779,6,0,P|234:173|210:209,1,89.2499972763062,0|0,1:0|0:0,0:0:0:0:
180,68,53193,6,0,P|224:48|292:72,1,114.749996498108,0|0,1:0|0:0,0:0:0:0:
140,148,53607,6,0,P|102:106|116:12,1,152.999995330811,0|0,0:0|0:0,0:0:0:0:
324,144,54021,6,0,B|340:184|322:216|322:216|304:256|328:296,1,152.999995330811,4|0,0:1|0:0,0:0:0:0:
325,291,54434,1,0,1:0:0:0:
452,192,54641,1,2,0:0:0:0:
452,192,54744,1,0,0:0:0:0:
452,192,54848,2,0,P|464:144|444:96,1,101.999996887207,6|0,0:3|0:0,0:0:0:0:
384,52,55158,1,0,0:0:0:0:
384,52,55262,2,0,L|280:60,1,101.999996887207,0|0,1:0|0:0,0:0:0:0:
108,136,55676,6,0,L|212:144,1,101.999996887207,6|2,0:3|0:0,0:0:0:0:
209,143,55986,1,0,0:0:0:0:
209,143,56090,1,0,1:0:0:0:
116,252,56296,1,0,0:0:0:0:
296,184,56503,2,0,P|324:248|280:312,1,152.999995330811,6|2,0:3|0:0,0:0:0:0:
280,311,56917,2,0,P|292:249|340:225,1,101.999996887207,0|0,1:0|0:0,0:0:0:0:
396,200,57227,1,0,0:0:0:0:
396,200,57331,6,0,P|428:160|424:104,1,101.999996887207,4|2,0:0|0:0,0:0:0:0:
304,28,57745,1,0,1:0:0:0:
304,28,57848,2,0,L|172:44,1,101.999996887207,2|0,0:0|0:0,0:0:0:0:
136,84,58158,2,0,P|84:96|32:76,1,101.999996887207,6|0,0:3|0:0,0:0:0:0:
212,124,58572,2,0,P|237:171|231:226,1,101.999996887207,0|0,1:0|0:0,0:0:0:0:
208,292,58883,1,0,1:0:0:0:
200,300,58986,6,0,P|252:316|300:300,1,101.999996887207,6|2,0:3|0:0,0:0:0:0:
400,192,59400,1,0,1:0:0:0:
404,180,59503,6,0,P|398:125|364:87,1,101.999996887207,2|2,0:0|0:0,0:0:0:0:
420,108,59814,2,0,P|376:73|325:70,1,101.999996887207,6|0,0:3|0:0,0:0:0:0:
284,132,60124,1,2,0:0:0:0:
284,132,60227,1,0,1:0:0:0:
356,256,60434,1,0,1:0:0:0:
284,132,60641,6,0,P|220:104|152:144,1,152.999995330811,4|0,0:1|0:0,0:0:0:0:
152,142,61055,1,0,1:0:0:0:
297,225,61262,1,2,0:0:0:0:
297,225,61365,2,0,P|304:165|272:122,1,101.999996887207,2|0,0:0|0:0,0:0:0:0:
220,92,61676,2,0,L|332:64,1,101.999996887207,2|0,0:0|1:0,0:0:0:0:
448,28,62090,1,0,0:0:0:0:
484,164,62296,5,6,0:3:0:0:
400,112,62503,1,2,0:0:0:0:
424,302,62710,1,0,1:0:0:0:
424,302,62814,2,0,L|396:204,1,101.999996887207,2|2,0:0|2:3,0:0:0:0:
432,320,63124,6,0,B|336:276|340:368|236:320,1,203.999993774414,0|0,2:3|1:0,0:0:0:0:
136,240,63745,1,0,0:0:0:0:
216,160,63952,6,0,P|236:140|248:112,1,50.9999984436036,2|2,3:2|3:2,0:0:0:0:
228,148,64158,2,0,P|228:119|216:91,1,50.9999984436036,2|2,3:2|3:2,0:0:0:0:
144,36,64365,1,2,1:2:0:0:
72,160,64572,6,0,P|52:140|40:112,1,50.9999984436036,2|2,3:2|3:2,0:0:0:0:
60,148,64778,2,0,P|60:119|72:91,1,50.9999984436036,2|2,3:2|3:2,0:0:0:0:
144,36,64985,1,2,1:2:0:0:
148,212,65193,5,2,1:0:0:0:
144,36,65400,1,2,1:0:0:0:
328,136,65607,5,2,3:2:0:0:
328,136,65710,1,2,3:2:0:0:
328,136,65814,2,0,L|380:144,1,50.9999984436036,2|2,3:2|3:2,0:0:0:0:
464,92,66021,1,2,1:2:0:0:
352,224,66227,5,2,3:2:0:0:
352,224,66330,1,2,3:2:0:0:
352,224,66434,2,0,L|300:232,1,50.9999984436036,2|2,3:2|3:2,0:0:0:0:
216,180,66641,1,2,1:2:0:0:
412,280,66848,5,2,1:0:0:0:
378,143,67055,1,2,1:0:0:0:
348,328,67262,6,0,P|400:360|484:320,1,152.999995330811,4|0,0:1|0:0,0:0:0:0:
348,328,67676,2,0,P|300:312|252:328,1,101.999996887207,0|0,1:0|0:0,0:0:0:0:
136,244,68090,6,0,P|108:188|168:136,1,152.999995330811,6|0,0:3|0:0,0:0:0:0:
136,244,68503,2,0,P|156:288|136:340,1,101.999996887207,0|0,1:0|0:0,0:0:0:0:
167,136,68917,6,0,P|224:172|144:252,2,203.999993774414,6|0|2,0:3|1:0|0:0,0:0:0:0:
44,80,69952,1,0,1:0:0:0:
44,80,70055,1,0,1:0:0:0:
44,80,70158,2,0,L|104:72,1,50.9999984436036,0|0,1:0|1:0,0:0:0:0:
224,60,70365,1,0,1:0:0:0:
240,57,70469,1,0,1:0:0:0:
256,55,70572,5,4,0:0:0:0:
346,171,70986,1,0,1:0:0:0:
346,171,71090,2,0,P|342:151|344:130,2,42.5,2|0|2,0:0|0:0|0:0,0:0:0:0:
396,232,71400,6,0,P|336:220|280:256,1,127.5,0|0,1:0|0:0,0:0:0:0:
228,308,71814,2,0,P|188:320|144:308,1,85,0|0,1:0|0:0,0:0:0:0:
96,256,72124,1,2,0:0:0:0:
96,256,72227,6,0,L|100:172,1,85,2|0,1:2|0:0,0:0:0:0:
104,92,72538,2,0,L|108:176,1,85,2|0,1:2|0:0,0:0:0:0:
96,256,72848,1,2,1:2:0:0:
216,112,73055,5,4,1:2:0:0:
216,112,73158,2,0,L|276:116,1,42.5,0|2,0:0|0:0,0:0:0:0:
324,76,73365,1,2,0:0:0:0:
324,76,73469,2,0,P|376:68|408:80,1,85,2|2,1:2|0:0,0:0:0:0:
472,128,73779,1,2,1:2:0:0:
472,128,73883,6,0,P|476:168|472:192,3,42.5,2|2|2|2,1:2|0:0|0:0|0:0,0:0:0:0:
412,216,74296,2,0,P|408:256|412:280,2,42.5,2|2|2,1:2|0:0|0:0,0:0:0:0:
468,312,74607,2,0,B|416:284|368:308|368:308|336:320|304:304,1,170,2|0,1:2|0:0,0:0:0:0:
248,248,75124,6,0,P|244:216|256:180,1,63.75,8|0,0:0|0:0,0:0:0:0:
354,124,75538,6,0,L|312:128,1,42.5,4|0,0:0|0:0,0:0:0:0:
192,132,75745,2,0,L|149:135,1,42.5,0|0,0:0|0:0,0:0:0:0:
344,104,75952,6,0,L|300:108,1,42.5,0|0,1:0|0:0,0:0:0:0:
208,110,76159,2,0,L|164:112,1,42.5,0|0,0:0|0:0,0:0:0:0:
88,184,76365,6,0,P|72:144|84:96,1,85,4|0,0:3|0:0,0:0:0:0:
104,200,76676,2,0,P|120:240|108:288,1,85,0|0,0:0|0:0,0:0:0:0:
72,344,76986,1,0,0:0:0:0:
232,284,77193,5,4,0:3:0:0:
232,284,77296,1,0,0:0:0:0:
232,284,77400,2,0,P|256:296|280:296,1,42.5,0|0,0:0|0:0,0:0:0:0:
380,240,77607,5,0,1:0:0:0:
380,240,77710,1,0,0:0:0:0:
380,240,77814,2,0,P|354:248|337:265,1,42.5,0|0,0:0|0:0,0:0:0:0:
448,288,78021,6,0,P|460:248|448:200,1,85,4|0,0:3|0:0,0:0:0:0:
400,148,78331,2,0,P|388:108|400:60,1,85,0|0,0:0|0:0,0:0:0:0:
456,16,78641,1,0,0:0:0:0:
308,96,78848,6,0,L|256:104,2,42.5,0|0|0,1:0|0:0|0:0,0:0:0:0:
144,48,79262,6,0,P|156:88|144:128,1,85,4|0,0:3|0:0,0:0:0:0:
96,192,79572,1,0,0:0:0:0:
96,192,79675,2,0,L|108:244,1,42.5,0|0,1:0|0:0,0:0:0:0:
212,172,79882,2,0,L|200:224,1,42.5,0|0,0:0|0:0,0:0:0:0:
256,296,80089,6,0,P|296:308|340:296,1,85,4|0,0:3|0:0,0:0:0:0:
400,252,80399,2,0,L|404:164,1,85,0|0,0:0|0:0,0:0:0:0:
408,92,80710,1,0,0:0:0:0:
320,184,80917,6,0,L|312:140,3,42.5,4|4|0|0,0:3|0:3|1:0|1:0,0:0:0:0:
244,100,81330,6,0,L|252:58,3,42.5,4|4|0|0,0:3|0:3|1:0|1:0,0:0:0:0:
224,192,81744,5,4,1:2:0:0:
220,209,81847,1,0,0:0:0:0:
216,226,81950,1,0,0:0:0:0:
213,244,82054,1,0,0:0:0:0:
208,260,82158,2,0,P|152:276|96:236,1,127.5,0|0,1:0|0:0,0:0:0:0:
121,91,82572,6,0,L|106:27,2,56.6666666666667,4|0|0,1:2|1:0|1:0,0:0:0:0:
165,199,82985,2,0,L|180:135,2,56.6666666666667,2|0|0,1:3|0:0|0:0,0:0:0:0:
121,91,83399,1,4,1:3:0:0:
121,91,83813,5,0,0:0:0:0:
82,119,83951,2,0,L|82:183,1,56.6666666666667
165,199,84227,1,0,0:0:0:0:
193,163,84365,2,0,L|193:99,1,56.6666666666667
121,91,84640,1,4,1:3:0:0:
256,192,85054,5,4,1:1:0:0:
256,192,85157,12,0,89191,0:0:0:0:
