osu file format v14

[General]
AudioFilename: audio.mp3
AudioLeadIn: 0
PreviewTime: 4963
Countdown: 0
SampleSet: Normal
StackLeniency: 0.7
Mode: 1
LetterboxInBreaks: 0
WidescreenStoryboard: 0

[Editor]
Bookmarks: 1720,17936,46033,53057,60081,61691,88671
DistanceSpacing: 0.1
BeatDivisor: 4
GridSize: 32
TimelineZoom: 2

[Metadata]
Title:Curtain Call!!!!!
TitleUnicode:かーてんこーる!!!!!
Artist:Gekidan Hitotose
ArtistUnicode:劇団ひととせ
Creator:taiko_maniac1811
Version:Muzukashii
Source:ひなこのーと
Tags:Hinako Note Ending troupe 桜木 ひな子 Hinako Sakuragi M・A・O 夏川 くいな Kuina Natsukawa 富田美憂 Tomita Miyu 柊 真雪 Mayuki Hiiragi 小倉唯 Ogura Yui 荻野 千秋 Chiaki Ogino 東城日沙子 Tojo Hisako 中島 ゆあ Yua Nakajima 高野麻里佳 Kouno Marika 宮原康平 Miyahara Yasuhira
BeatmapID:1273976
BeatmapSetID:603155

[Difficulty]
HPDrainRate:8
CircleSize:5
OverallDifficulty:5
ApproachRate:5
SliderMultiplier:1.4
SliderTickRate:1

[Events]
//Background and Video events
0,0,"bg1.jpg",0,30
//Break Periods
//Storyboard Layer 0 (Background)
//Storyboard Layer 1 (Fail)
//Storyboard Layer 2 (Pass)
//Storyboard Layer 3 (Foreground)
//Storyboard Sound Samples

[TimingPoints]
1720,405.405405405405,4,1,0,85,1,0
4963,-100,4,1,0,85,0,1
11449,-100,4,1,0,85,0,0
17936,292.682926829268,4,1,0,85,1,1
27301,-100,4,1,0,85,0,0
46033,585.365853658537,4,1,0,85,1,0
53057,292.682926829268,4,1,0,85,1,0
60081,402.684563758389,4,1,0,85,1,0
60081,-74.0740740740741,4,1,0,85,0,0
61087,-86.9565217391304,4,1,0,85,0,0
61289,-90.9090909090909,4,1,0,85,0,0
61490,-95.2380952380952,4,1,0,85,0,0
61691,-100,4,1,0,85,0,1
89074,-100,4,1,0,85,0,0

[HitObjects]
256,192,1720,5,4,0:0:0:0:
256,192,1922,1,8,0:0:0:0:
256,192,2328,1,8,0:0:0:0:
256,192,2530,1,4,0:0:0:0:
256,192,2733,1,8,0:0:0:0:
256,192,3138,1,8,0:0:0:0:
256,192,3341,1,4,0:0:0:0:
256,192,3544,1,8,0:0:0:0:
256,192,3949,1,8,0:0:0:0:
256,192,4152,1,4,0:0:0:0:
256,192,4557,1,12,0:0:0:0:
256,192,4963,1,0,0:0:0:0:
256,192,5165,1,0,0:0:0:0:
256,192,5368,1,0,0:0:0:0:
256,192,5571,1,8,0:0:0:0:
256,192,5774,1,0,0:0:0:0:
256,192,6078,1,0,0:0:0:0:
256,192,6382,1,8,0:0:0:0:
256,192,6584,1,0,0:0:0:0:
256,192,6787,1,0,0:0:0:0:
256,192,6990,1,0,0:0:0:0:
256,192,7192,1,8,0:0:0:0:
256,192,7395,1,0,0:0:0:0:
256,192,7699,1,0,0:0:0:0:
256,192,8003,1,8,0:0:0:0:
256,192,8206,1,0,0:0:0:0:
256,192,8409,1,0,0:0:0:0:
256,192,8611,1,0,0:0:0:0:
256,192,8814,1,8,0:0:0:0:
256,192,9017,1,0,0:0:0:0:
256,192,9321,1,0,0:0:0:0:
256,192,9625,1,8,0:0:0:0:
256,192,9828,1,0,0:0:0:0:
256,192,10030,1,8,0:0:0:0:
256,192,10233,1,0,0:0:0:0:
256,192,10334,1,0,0:0:0:0:
256,192,10436,1,0,0:0:0:0:
256,192,10638,1,0,0:0:0:0:
256,192,11044,1,12,0:0:0:0:
256,192,11449,1,0,0:0:0:0:
256,192,11855,1,0,0:0:0:0:
256,192,12260,1,0,0:0:0:0:
256,192,12463,1,8,0:0:0:0:
256,192,12665,1,8,0:0:0:0:
256,192,13071,1,0,0:0:0:0:
256,192,13172,1,0,0:0:0:0:
256,192,13274,1,0,0:0:0:0:
256,192,13476,1,8,0:0:0:0:
256,192,13578,1,8,0:0:0:0:
256,192,13679,1,8,0:0:0:0:
256,192,13882,1,0,0:0:0:0:
256,192,13983,1,0,0:0:0:0:
256,192,14084,1,0,0:0:0:0:
256,192,14287,1,0,0:0:0:0:
256,192,14490,1,0,0:0:0:0:
256,192,14692,1,0,0:0:0:0:
256,192,15098,1,0,0:0:0:0:
256,192,15503,1,0,0:0:0:0:
256,192,15706,1,8,0:0:0:0:
256,192,15909,1,8,0:0:0:0:
256,192,16314,1,0,0:0:0:0:
256,192,16517,1,0,0:0:0:0:
256,192,16719,1,8,0:0:0:0:
256,192,16922,1,8,0:0:0:0:
256,192,17125,1,0,0:0:0:0:
256,192,17429,1,0,0:0:0:0:
256,192,17936,1,0,0:0:0:0:
256,192,18228,1,0,0:0:0:0:
256,192,18521,1,0,0:0:0:0:
256,192,18814,1,0,0:0:0:0:
256,192,18960,1,8,0:0:0:0:
256,192,19253,1,8,0:0:0:0:
256,192,19399,1,0,0:0:0:0:
256,192,19545,1,8,0:0:0:0:
256,192,19838,1,8,0:0:0:0:
256,192,19984,1,8,0:0:0:0:
256,192,20131,1,8,0:0:0:0:
256,192,20277,1,0,0:0:0:0:
256,192,20570,1,0,0:0:0:0:
256,192,20862,1,0,0:0:0:0:
256,192,21155,1,0,0:0:0:0:
256,192,21301,1,8,0:0:0:0:
256,192,21594,1,8,0:0:0:0:
256,192,21740,1,0,0:0:0:0:
256,192,21887,1,8,0:0:0:0:
256,192,22179,1,8,0:0:0:0:
256,192,22326,1,0,0:0:0:0:
256,192,22618,1,0,0:0:0:0:
256,192,22765,1,0,0:0:0:0:
256,192,22911,1,8,0:0:0:0:
256,192,23057,1,8,0:0:0:0:
256,192,23204,1,0,0:0:0:0:
256,192,23350,1,0,0:0:0:0:
256,192,23496,1,8,0:0:0:0:
256,192,23789,1,0,0:0:0:0:
256,192,23936,1,0,0:0:0:0:
256,192,24082,1,8,0:0:0:0:
256,192,24228,1,8,0:0:0:0:
256,192,24375,1,0,0:0:0:0:
256,192,24521,1,0,0:0:0:0:
256,192,24667,1,8,0:0:0:0:
256,192,24960,1,0,0:0:0:0:
256,192,25106,1,0,0:0:0:0:
256,192,25253,1,8,0:0:0:0:
256,192,25399,1,8,0:0:0:0:
256,192,25545,1,0,0:0:0:0:
256,192,25692,1,0,0:0:0:0:
256,192,25838,1,8,0:0:0:0:
256,192,26131,1,4,0:0:0:0:
256,192,26277,1,4,0:0:0:0:
256,192,26570,1,12,0:0:0:0:
256,192,27301,1,0,0:0:0:0:
256,192,27594,1,0,0:0:0:0:
256,192,27740,1,0,0:0:0:0:
256,192,27887,1,0,0:0:0:0:
256,192,28033,1,0,0:0:0:0:
256,192,28326,1,0,0:0:0:0:
256,192,28618,1,0,0:0:0:0:
256,192,28765,1,8,0:0:0:0:
256,192,29057,1,8,0:0:0:0:
256,192,29350,1,8,0:0:0:0:
256,192,29496,1,0,0:0:0:0:
256,192,29935,1,8,0:0:0:0:
256,192,30228,1,8,0:0:0:0:
256,192,30521,1,8,0:0:0:0:
256,192,30667,1,8,0:0:0:0:
256,192,30960,1,8,0:0:0:0:
256,192,31106,1,8,0:0:0:0:
256,192,31399,1,0,0:0:0:0:
256,192,31692,1,12,0:0:0:0:
256,192,31984,1,0,0:0:0:0:
256,192,32277,1,0,0:0:0:0:
256,192,32423,1,0,0:0:0:0:
256,192,32570,1,0,0:0:0:0:
256,192,32716,1,0,0:0:0:0:
256,192,33009,1,0,0:0:0:0:
256,192,33301,1,0,0:0:0:0:
256,192,33448,1,8,0:0:0:0:
256,192,33740,1,8,0:0:0:0:
256,192,33887,1,0,0:0:0:0:
256,192,34326,1,8,0:0:0:0:
256,192,34618,1,0,0:0:0:0:
256,192,34765,1,0,0:0:0:0:
256,192,35204,1,8,0:0:0:0:
256,192,35496,1,0,0:0:0:0:
256,192,35789,1,8,0:0:0:0:
256,192,35935,1,8,0:0:0:0:
256,192,36228,1,0,0:0:0:0:
256,192,36375,1,8,0:0:0:0:
256,192,36667,1,0,0:0:0:0:
256,192,36960,1,0,0:0:0:0:
256,192,37106,1,0,0:0:0:0:
256,192,37253,1,0,0:0:0:0:
256,192,37399,1,0,0:0:0:0:
256,192,37692,1,0,0:0:0:0:
256,192,37984,1,0,0:0:0:0:
256,192,38130,1,8,0:0:0:0:
256,192,38423,1,8,0:0:0:0:
256,192,38715,1,8,0:0:0:0:
256,192,38862,1,0,0:0:0:0:
256,192,39009,1,0,0:0:0:0:
256,192,39594,1,0,0:0:0:0:
256,192,40033,1,8,0:0:0:0:
256,192,40179,1,0,0:0:0:0:
256,192,40472,1,0,0:0:0:0:
256,192,40618,1,0,0:0:0:0:
256,192,40911,1,0,0:0:0:0:
256,192,41057,1,12,0:0:0:0:
256,192,41350,1,0,0:0:0:0:
256,192,41643,1,0,0:0:0:0:
256,192,41789,1,0,0:0:0:0:
256,192,41935,1,0,0:0:0:0:
256,192,42082,1,0,0:0:0:0:
256,192,42375,1,8,0:0:0:0:
256,192,42667,1,0,0:0:0:0:
256,192,42814,1,8,0:0:0:0:
256,192,43106,1,8,0:0:0:0:
256,192,43253,1,0,0:0:0:0:
256,192,43692,1,4,0:0:0:0:
256,192,43984,1,4,0:0:0:0:
256,192,44277,1,12,0:0:0:0:
256,192,44570,1,12,0:0:0:0:
256,192,44862,1,4,0:0:0:0:
256,192,45301,1,4,0:0:0:0:
256,192,46033,1,0,0:0:0:0:
256,192,46472,1,0,0:0:0:0:
256,192,46618,1,0,0:0:0:0:
256,192,46911,1,8,0:0:0:0:
256,192,47203,1,0,0:0:0:0:
256,192,47496,1,8,0:0:0:0:
256,192,47642,1,8,0:0:0:0:
256,192,47789,1,8,0:0:0:0:
256,192,48081,1,8,0:0:0:0:
256,192,48374,1,0,0:0:0:0:
256,192,48667,1,8,0:0:0:0:
256,192,48959,1,8,0:0:0:0:
256,192,49252,1,8,0:0:0:0:
256,192,49545,1,0,0:0:0:0:
256,192,49984,1,0,0:0:0:0:
256,192,50130,1,0,0:0:0:0:
256,192,50423,1,8,0:0:0:0:
256,192,50715,1,0,0:0:0:0:
256,192,51008,1,8,0:0:0:0:
256,192,51154,1,8,0:0:0:0:
256,192,51301,1,8,0:0:0:0:
256,192,51886,1,8,0:0:0:0:
256,192,52033,1,8,0:0:0:0:
256,192,52179,1,0,0:0:0:0:
256,192,53057,1,0,0:0:0:0:
256,192,53349,1,8,0:0:0:0:
256,192,53642,1,0,0:0:0:0:
256,192,53935,1,8,0:0:0:0:
256,192,54081,1,0,0:0:0:0:
256,192,54374,1,0,0:0:0:0:
256,192,54520,1,8,0:0:0:0:
256,192,54813,1,0,0:0:0:0:
256,192,55105,1,8,0:0:0:0:
256,192,55252,1,0,0:0:0:0:
256,192,55398,1,0,0:0:0:0:
256,192,55837,1,8,0:0:0:0:
256,192,55983,1,0,0:0:0:0:
256,192,56276,1,8,0:0:0:0:
256,192,56569,1,0,0:0:0:0:
256,192,56861,1,8,0:0:0:0:
256,192,57008,1,0,0:0:0:0:
256,192,57154,1,0,0:0:0:0:
256,192,57447,1,8,0:0:0:0:
256,192,57739,12,0,59788,0:0:0:0:
256,192,61087,5,4,0:0:0:0:
256,192,61289,1,4,0:0:0:0:
256,192,61490,1,4,0:0:0:0:
256,192,61691,1,12,0:0:0:0:
256,192,62094,1,8,0:0:0:0:
256,192,62295,1,0,0:0:0:0:
256,192,62497,1,8,0:0:0:0:
256,192,62799,1,8,0:0:0:0:
256,192,63101,1,8,0:0:0:0:
256,192,63302,1,0,0:0:0:0:
256,192,63503,1,0,0:0:0:0:
256,192,63705,1,8,0:0:0:0:
256,192,63906,1,0,0:0:0:0:
256,192,64107,1,0,0:0:0:0:
256,192,64309,1,8,0:0:0:0:
256,192,64409,1,8,0:0:0:0:
256,192,64913,1,0,0:0:0:0:
256,192,65114,1,0,0:0:0:0:
256,192,65315,1,8,0:0:0:0:
256,192,65517,1,0,0:0:0:0:
256,192,65718,1,0,0:0:0:0:
256,192,66020,1,0,0:0:0:0:
256,192,66322,1,0,0:0:0:0:
256,192,66523,1,12,0:0:0:0:
256,192,66926,1,12,0:0:0:0:
256,192,67329,1,12,0:0:0:0:
256,192,67732,1,12,0:0:0:0:
256,192,68134,1,8,0:0:0:0:
256,192,68537,1,8,0:0:0:0:
256,192,68738,1,0,0:0:0:0:
256,192,68940,1,8,0:0:0:0:
256,192,69242,1,8,0:0:0:0:
256,192,69544,1,8,0:0:0:0:
256,192,69745,1,0,0:0:0:0:
256,192,69946,1,0,0:0:0:0:
256,192,70148,1,8,0:0:0:0:
256,192,70349,1,0,0:0:0:0:
256,192,70550,1,0,0:0:0:0:
256,192,70752,1,8,0:0:0:0:
256,192,70852,1,8,0:0:0:0:
256,192,71356,1,0,0:0:0:0:
256,192,71758,1,8,0:0:0:0:
256,192,71960,1,0,0:0:0:0:
256,192,72161,1,8,0:0:0:0:
256,192,72362,1,0,0:0:0:0:
256,192,72463,1,8,0:0:0:0:
256,192,72765,1,8,0:0:0:0:
256,192,72966,1,4,0:0:0:0:
256,192,73369,1,12,0:0:0:0:
256,192,73772,1,4,0:0:0:0:
256,192,74174,1,12,0:0:0:0:
256,192,74577,1,0,0:0:0:0:
256,192,74778,1,0,0:0:0:0:
256,192,74980,1,0,0:0:0:0:
256,192,75181,1,8,0:0:0:0:
256,192,75383,1,0,0:0:0:0:
256,192,75685,1,0,0:0:0:0:
256,192,75987,1,8,0:0:0:0:
256,192,76188,1,0,0:0:0:0:
256,192,76389,1,0,0:0:0:0:
256,192,76591,1,0,0:0:0:0:
256,192,76792,1,8,0:0:0:0:
256,192,76993,1,0,0:0:0:0:
256,192,77295,1,0,0:0:0:0:
256,192,77597,1,8,0:0:0:0:
256,192,77799,1,0,0:0:0:0:
256,192,78000,1,0,0:0:0:0:
256,192,78201,1,0,0:0:0:0:
256,192,78403,1,8,0:0:0:0:
256,192,78604,1,0,0:0:0:0:
256,192,78906,1,0,0:0:0:0:
256,192,79208,1,8,0:0:0:0:
256,192,79409,1,0,0:0:0:0:
256,192,79611,1,8,0:0:0:0:
256,192,79812,1,0,0:0:0:0:
256,192,79913,1,0,0:0:0:0:
256,192,80013,1,0,0:0:0:0:
256,192,80215,1,0,0:0:0:0:
256,192,80617,1,12,0:0:0:0:
256,192,81020,1,4,0:0:0:0:
256,192,81221,1,8,0:0:0:0:
256,192,81624,1,8,0:0:0:0:
256,192,81825,1,4,0:0:0:0:
256,192,82027,1,8,0:0:0:0:
256,192,82429,1,8,0:0:0:0:
256,192,82631,1,4,0:0:0:0:
256,192,82832,1,8,0:0:0:0:
256,192,83235,1,8,0:0:0:0:
256,192,83436,1,4,0:0:0:0:
256,192,83839,1,4,0:0:0:0:
256,192,84040,1,4,0:0:0:0:
256,192,84242,1,4,0:0:0:0:
256,192,84443,1,8,0:0:0:0:
256,192,84846,1,8,0:0:0:0:
256,192,85047,1,4,0:0:0:0:
256,192,85248,1,8,0:0:0:0:
256,192,85651,1,8,0:0:0:0:
256,192,85852,1,4,0:0:0:0:
256,192,86054,1,8,0:0:0:0:
256,192,86456,1,8,0:0:0:0:
256,192,86658,1,4,0:0:0:0:
256,192,87463,1,4,0:0:0:0:
256,192,87664,1,8,0:0:0:0:
256,192,88067,1,8,0:0:0:0:
256,192,88268,1,4,0:0:0:0:
256,192,88671,1,4,0:0:0:0:
