osu file format v14

[General]
AudioFilename: audio.mp3
AudioLeadIn: 0
PreviewTime: 4963
Countdown: 0
SampleSet: Normal
StackLeniency: 0.7
Mode: 1
LetterboxInBreaks: 0
WidescreenStoryboard: 0

[Editor]
Bookmarks: 1720,17936,46033,53057,60081,61691,88671
DistanceSpacing: 0.1
BeatDivisor: 4
GridSize: 32
TimelineZoom: 2

[Metadata]
Title:Curtain Call!!!!!
TitleUnicode:かーてんこーる!!!!!
Artist:Gekidan Hitotose
ArtistUnicode:劇団ひととせ
Creator:taiko_maniac1811
Version:Kantan
Source:ひなこのーと
Tags:Hinako Note Ending troupe 桜木 ひな子 Hinako Sakuragi M・A・O 夏川 くいな Kuina Natsukawa 富田美憂 Tomita Miyu 柊 真雪 Mayuki Hiiragi 小倉唯 Ogura Yui 荻野 千秋 Chiaki Ogino 東城日沙子 Tojo Hisako 中島 ゆあ Yua Nakajima 高野麻里佳 Kouno Marika 宮原康平 Miyahara Yasuhira
BeatmapID:1273975
BeatmapSetID:603155

[Difficulty]
HPDrainRate:10
CircleSize:5
OverallDifficulty:4
ApproachRate:5
SliderMultiplier:1.4
SliderTickRate:1

[Events]
//Background and Video events
0,0,"bg1.jpg",0,30
//Break Periods
//Storyboard Layer 0 (Background)
//Storyboard Layer 1 (Fail)
//Storyboard Layer 2 (Pass)
//Storyboard Layer 3 (Foreground)
//Storyboard Sound Samples

[TimingPoints]
1720,405.405405405405,4,1,0,85,1,0
4963,-100,4,1,0,85,0,1
11449,-100,4,1,0,85,0,0
17936,292.682926829268,4,1,0,85,1,1
27301,-100,4,1,0,85,0,0
46033,585.365853658537,4,1,0,85,1,0
53057,292.682926829268,4,1,0,85,1,0
60081,402.684563758389,4,1,0,85,1,0
60081,-74.0740740740741,4,1,0,85,0,0
61691,-100,4,1,0,85,0,1
89074,-100,4,1,0,85,0,0

[HitObjects]
256,192,1720,5,4,0:0:0:0:
256,192,2530,1,4,0:0:0:0:
256,192,3341,1,4,0:0:0:0:
256,192,4152,1,4,0:0:0:0:
256,192,4963,1,8,0:0:0:0:
256,192,5368,1,8,0:0:0:0:
256,192,5774,1,8,0:0:0:0:
256,192,6584,1,8,0:0:0:0:
256,192,6990,1,8,0:0:0:0:
256,192,7395,1,8,0:0:0:0:
256,192,8206,1,8,0:0:0:0:
256,192,8611,1,8,0:0:0:0:
256,192,9017,1,8,0:0:0:0:
256,192,9828,1,0,0:0:0:0:
256,192,10233,1,0,0:0:0:0:
256,192,10638,1,0,0:0:0:0:
256,192,11449,1,0,0:0:0:0:
256,192,12260,1,0,0:0:0:0:
256,192,13071,1,8,0:0:0:0:
256,192,13476,1,8,0:0:0:0:
256,192,13882,1,8,0:0:0:0:
256,192,14692,5,0,0:0:0:0:
256,192,15503,1,0,0:0:0:0:
256,192,16314,12,0,17125,0:0:0:0:
256,192,17936,5,0,0:0:0:0:
256,192,18522,1,0,0:0:0:0:
256,192,19107,1,0,0:0:0:0:
256,192,20277,1,8,0:0:0:0:
256,192,20862,1,8,0:0:0:0:
256,192,21447,1,8,0:0:0:0:
256,192,22618,1,4,0:0:0:0:
256,192,23789,1,12,0:0:0:0:
256,192,24960,1,4,0:0:0:0:
256,192,26131,1,12,0:0:0:0:
256,192,27301,1,0,0:0:0:0:
256,192,27886,1,0,0:0:0:0:
256,192,28472,1,0,0:0:0:0:
256,192,29643,1,8,0:0:0:0:
256,192,30814,5,8,0:0:0:0:
256,192,31984,1,0,0:0:0:0:
256,192,32570,1,0,0:0:0:0:
256,192,33155,1,0,0:0:0:0:
256,192,34326,1,8,0:0:0:0:
256,192,35496,1,12,0:0:0:0:
256,192,36667,5,0,0:0:0:0:
256,192,37253,1,0,0:0:0:0:
256,192,37838,1,0,0:0:0:0:
256,192,39008,1,8,0:0:0:0:
256,192,40179,1,8,0:0:0:0:
256,192,41350,1,0,0:0:0:0:
256,192,41935,1,0,0:0:0:0:
256,192,42521,1,0,0:0:0:0:
256,192,43692,12,0,44862,0:0:0:0:
256,192,46033,5,0,0:0:0:0:
256,192,46618,1,0,0:0:0:0:
256,192,47203,1,0,0:0:0:0:
256,192,47496,1,0,0:0:0:0:
256,192,47789,1,0,0:0:0:0:
256,192,48374,1,0,0:0:0:0:
256,192,48959,1,8,0:0:0:0:
256,192,49545,1,0,0:0:0:0:
256,192,50130,1,0,0:0:0:0:
256,192,50423,1,0,0:0:0:0:
256,192,50715,1,0,0:0:0:0:
256,192,51301,1,8,0:0:0:0:
256,192,51886,1,8,0:0:0:0:
256,192,53057,1,0,0:0:0:0:
256,192,53642,1,0,0:0:0:0:
256,192,54227,1,8,0:0:0:0:
256,192,54813,1,8,0:0:0:0:
256,192,55398,1,0,0:0:0:0:
256,192,55983,2,0,L|544:192,1,280
256,192,57154,1,0,0:0:0:0:
256,192,57739,12,0,59788,0:0:0:0:
256,192,61691,5,4,0:0:0:0:
256,192,62497,1,0,0:0:0:0:
256,192,63302,1,0,0:0:0:0:
256,192,63705,1,0,0:0:0:0:
256,192,64107,1,0,0:0:0:0:
256,192,64913,1,8,0:0:0:0:
256,192,65718,1,8,0:0:0:0:
256,192,66523,1,4,0:0:0:0:
256,192,66926,1,4,0:0:0:0:
256,192,67329,1,4,0:0:0:0:
256,192,67732,1,4,0:0:0:0:
256,192,68134,1,4,0:0:0:0:
256,192,68940,1,0,0:0:0:0:
256,192,69745,1,0,0:0:0:0:
256,192,70148,1,0,0:0:0:0:
256,192,70550,1,0,0:0:0:0:
256,192,71356,1,8,0:0:0:0:
256,192,72161,1,8,0:0:0:0:
256,192,72966,1,4,0:0:0:0:
256,192,73369,1,4,0:0:0:0:
256,192,73772,1,4,0:0:0:0:
256,192,74577,1,8,0:0:0:0:
256,192,74980,1,8,0:0:0:0:
256,192,75383,1,8,0:0:0:0:
256,192,76188,1,8,0:0:0:0:
256,192,76591,1,8,0:0:0:0:
256,192,76993,1,8,0:0:0:0:
256,192,77799,1,8,0:0:0:0:
256,192,78201,1,8,0:0:0:0:
256,192,78604,1,8,0:0:0:0:
256,192,79409,1,0,0:0:0:0:
256,192,79812,1,0,0:0:0:0:
256,192,80215,1,0,0:0:0:0:
256,192,81020,1,4,0:0:0:0:
256,192,81825,1,4,0:0:0:0:
256,192,82631,1,4,0:0:0:0:
256,192,83436,1,4,0:0:0:0:
256,192,83839,1,4,0:0:0:0:
256,192,84242,1,4,0:0:0:0:
256,192,85047,1,4,0:0:0:0:
256,192,85852,1,4,0:0:0:0:
256,192,86255,1,4,0:0:0:0:
256,192,86658,1,4,0:0:0:0:
256,192,87463,1,4,0:0:0:0:
256,192,87866,1,4,0:0:0:0:
256,192,88268,1,4,0:0:0:0:
