osu file format v14

[General]
AudioFilename: audio.mp3
AudioLeadIn: 0
PreviewTime: 22428
Countdown: 0
SampleSet: None
StackLeniency: 0.7
Mode: 0
LetterboxInBreaks: 0
WidescreenStoryboard: 1

[Editor]
Bookmarks: 1530,4773,8016,11259,15313,17746,22428,27111,36477,45843,52867,57549,59891,61512,74397,80840,88693
DistanceSpacing: 1
BeatDivisor: 4
GridSize: 4
TimelineZoom: 4.799999

[Metadata]
Title:Curtain Call!!!!!
TitleUnicode:かーてんこーる!!!!!
Artist:Gekidan Hitotose
ArtistUnicode:劇団ひととせ
Creator:rui
Version:Finale
Source:
Tags:
BeatmapID:1275005
BeatmapSetID:603709

[Difficulty]
HPDrainRate:5
CircleSize:4.3
OverallDifficulty:8.5
ApproachRate:9.5
SliderMultiplier:1.6
SliderTickRate:1

[Events]
//Background and Video events
Video,0,"hinako end.avi"
0,0,"hinako_background.jpg",0,0
//Break Periods
//Storyboard Layer 0 (Background)
//Storyboard Layer 1 (Fail)
//Storyboard Layer 2 (Pass)
//Storyboard Layer 3 (Foreground)
//Storyboard Sound Samples

[TimingPoints]
1530,405.405405405405,4,2,1,60,1,0
1530,-50,4,2,1,60,0,0
17746,292.682926829268,4,2,1,60,1,0
17746,-90.9090909090909,4,2,1,60,0,0
45843,292.682926829268,6,2,1,60,1,0
45843,-125,6,2,1,60,0,0
52867,292.682926829268,4,2,1,60,1,0
59891,405.405405405405,4,2,1,60,1,0
61512,402.684563758389,4,2,1,60,1,1
61512,-47.61905,4,2,1,60,0,1
66344,-62.5000041015624,4,2,1,60,0,1
66545,-47.61905,4,2,1,60,0,1
66746,-62.5000041015624,4,2,1,60,0,1
66948,-47.61905,4,2,1,60,0,1
67149,-62.5000041015624,4,2,1,60,0,1
67350,-47.61905,4,2,1,60,0,1
67552,-62.5000041015624,4,2,1,60,0,1
67753,-47.61905,4,2,1,60,0,1
74397,-50,4,2,1,60,0,0
88491,-200,4,2,1,60,0,0

[HitObjects]
168,168,1530,6,0,L|252:140,1,79.9999999999999
300,28,1732,1,0,0:0:0:0:
300,28,1834,2,0,P|327:54|352:92,1,79.9999999999999
412,240,2036,1,0,0:0:0:0:
411,239,2138,2,0,P|372:228|337:209,1,79.9999999999999
217,105,2340,6,0,L|168:168,1,79.9999999999999
94,260,2543,1,0,0:0:0:0:
94,260,2644,2,0,P|54:259|16:249,1,79.9999999999999
208,280,2847,1,0,0:0:0:0:
208,280,2948,2,0,P|226:315|237:353,1,79.9999999999999
288,192,3151,6,0,L|364:220,1,79.9999999999999
465,280,3354,1,0,0:0:0:0:
467,280,3455,2,0,P|478:241|481:202,1,79.9999999999999
393,27,3658,1,0,0:0:0:0:
393,28,3759,2,0,P|407:65|413:104,1,79.9999999999999
328,288,3962,6,0,L|368:300,7,40
248,300,4367,6,0,L|256:252,1,40
208,192,4469,2,0,L|176:232,1,40
104,228,4570,2,0,L|112:180,1,40
120,108,4671,2,0,L|68:116,1,40
100,24,4773,6,0,P|144:28|180:44,1,79.9999999999999
268,72,4975,2,0,P|242:108|210:131,1,80
125,286,5178,2,0,P|87:273|55:249,1,79.9999999999999
218,243,5381,2,0,P|255:255|287:279,1,80
494,288,5584,2,0,L|416:304,1,80
312,356,5786,6,0,B|304:316|288:280,1,80
130,206,5989,2,0,B|143:167|147:128,1,80
354,122,6192,2,0,B|327:91|295:68,1,80
88,56,6394,6,0,P|70:93|65:133,1,80
55,228,6597,2,0,P|96:224|133:202,1,80
276,120,6800,2,0,P|288:148|300:196,1,80
356,332,7002,2,0,P|364:293|379:256,1,80
484,124,7205,2,0,P|453:104|410:92,1,79.9999999999999
300,43,7408,6,0,B|292:83|276:119,1,80
118,193,7611,2,0,B|131:231|135:270,1,80
342,277,7813,2,0,B|315:307|283:330,1,80
135,270,8016,6,0,P|94:266|62:244,1,79.9999999999999
98,135,8219,2,0,P|137:139|169:161,1,79.9999999999999
332,284,8421,2,0,P|348:320|343:360,1,79.9999999999999
230,378,8624,2,0,P|215:341|220:301,1,79.9999999999999
400,192,8827,2,0,L|321:208,1,79.9999999999999
189,207,9029,6,0,P|165:175|153:137,1,79.9999999999999
215,35,9232,2,0,P|254:30|295:39,1,79.9999999999999
358,139,9435,2,0,P|346:178|322:209,1,79.9999999999999
160,348,9638,6,0,B|116:341|92:313|92:313|52:329|8:325,1,160
360,36,10043,2,0,B|404:43|428:71|428:71|468:55|512:59,1,160
284,364,10448,2,0,P|245:356|220:252,1,160
284,180,10752,1,0,0:0:0:0:
372,140,10854,2,0,L|432:152,2,53.3333333333333
264,40,11057,2,0,L|180:56,1,79.9999999999999
92,32,11259,5,0,0:0:0:0:
32,108,11361,1,0,0:0:0:0:
72,196,11462,1,0,0:0:0:0:
168,188,11563,1,0,0:0:0:0:
248,136,11665,2,0,P|288:140|332:156,1,79.9999999999999
477,112,11867,2,0,P|437:108|400:96,1,79.9999999999999
216,60,12070,2,0,P|176:104|200:204,1,160
300,308,12374,2,0,P|255:311|219:307,1,80
120,256,12577,1,0,0:0:0:0:
56,328,12678,2,0,P|99:334|133:345,1,79.9999999999999
222,381,12881,5,0,0:0:0:0:
316,356,12982,1,0,0:0:0:0:
360,268,13084,1,0,0:0:0:0:
332,176,13185,1,0,0:0:0:0:
244,140,13286,1,0,0:0:0:0:
148,158,13388,1,0,0:0:0:0:
70,98,13489,1,0,0:0:0:0:
55,3,13590,1,0,0:0:0:0:
136,52,13692,5,0,0:0:0:0:
194,132,13793,1,0,0:0:0:0:
211,226,13894,1,0,0:0:0:0:
181,319,13996,1,0,0:0:0:0:
92,284,14097,1,0,0:0:0:0:
115,185,14198,1,0,0:0:0:0:
183,116,14300,1,0,0:0:0:0:
274,83,14401,1,0,0:0:0:0:
369,97,14502,6,0,P|407:78|438:43,1,80
476,217,14705,2,0,P|465:179|467:140,1,80
383,203,14908,2,0,P|347:180|301:171,1,80
119,189,15111,2,0,P|159:191|197:180,1,80
340,84,15313,2,0,B|296:76|259:95|259:95|248:60|216:28,1,160
112,8,15617,1,0,0:0:0:0:
112,8,15719,2,0,P|86:38|70:75,1,80
84,168,15921,1,0,0:0:0:0:
100,264,16023,1,0,0:0:0:0:
80,356,16124,6,0,L|159:366,1,80
443,193,16327,2,0,L|364:204,1,80
84,168,16529,2,0,L|163:178,1,80
444,332,16732,2,0,L|365:322,1,80
159,366,16935,2,0,P|147:327|143:288,1,80
292,28,17239,1,0,0:0:0:0:
216,56,17340,5,0,0:0:0:0:
251,95,17408,5,0,0:0:0:0:
304,104,17475,5,0,0:0:0:0:
353,77,17543,5,0,0:0:0:0:
401,49,17611,5,0,0:0:0:0:
454,58,17678,5,0,0:0:0:0:
489,97,17746,6,0,L|476:184,1,88.000002685547
456,324,18038,1,0,0:0:0:0:
368,164,18185,1,0,0:0:0:0:
368,164,18258,1,0,0:0:0:0:
368,164,18331,2,0,P|363:212|341:250,1,88.000002685547
200,228,18624,2,0,P|188:188|192:140,1,88.000002685547
214,11,18916,5,0,0:0:0:0:
353,45,19063,1,0,0:0:0:0:
168,140,19209,1,0,0:0:0:0:
384,144,19355,1,0,0:0:0:0:
148,272,19502,2,0,P|192:268|240:256,1,88.000002685547
383,306,19794,2,0,P|353:274|329:237,1,88.000002685547
324,56,20087,6,0,B|276:56|244:96,1,88.000002685547
148,272,20380,2,0,P|120:236|80:216,1,88.000002685547
16,144,20599,1,0,0:0:0:0:
16,144,20672,2,0,P|60:128|120:124,1,88.000002685547
260,108,20965,1,0,0:0:0:0:
108,40,21111,1,0,0:0:0:0:
232,188,21258,6,0,P|276:184|320:168,1,88.000002685547
432,88,21550,1,0,0:0:0:0:
287,25,21697,2,0,P|318:56|344:92,1,88.000002685547
428,204,21989,5,0,0:0:0:0:
440,248,22063,1,0,0:0:0:0:
428,292,22136,1,0,0:0:0:0:
392,320,22209,1,0,0:0:0:0:
348,320,22282,1,0,0:0:0:0:
312,296,22355,1,0,0:0:0:0:
300,252,22428,5,0,0:0:0:0:
340,152,22575,1,0,0:0:0:0:
196,228,22721,1,0,0:0:0:0:
176,124,22868,1,0,0:0:0:0:
232,36,23014,1,0,0:0:0:0:
100,68,23160,2,0,B|53:31|53:31|64:94|81:144,1,176.000005371094
244,340,23599,5,0,0:0:0:0:
284,240,23746,1,0,0:0:0:0:
140,316,23892,1,0,0:0:0:0:
120,212,24039,1,0,0:0:0:0:
176,124,24185,1,0,0:0:0:0:
312,160,24331,2,0,B|358:123|358:123|347:186|330:236,1,176.000005371094
228,332,24770,5,0,0:0:0:0:
124,332,24916,1,0,0:0:0:0:
20,236,25063,1,0,0:0:0:0:
112,184,25209,1,0,0:0:0:0:
216,196,25355,1,0,0:0:0:0:
352,236,25502,2,0,B|398:199|398:199|387:262|370:312,1,176.000005371094
296,360,25867,1,0,0:0:0:0:
296,360,25941,6,0,L|284:316,1,44.0000013427735
216,224,26087,2,0,P|256:196|288:168,1,88.000002685547
496,52,26380,2,0,B|410:67|410:19|322:43,1,176.000005371094
280,32,26745,1,0,0:0:0:0:
236,32,26819,1,0,0:0:0:0:
196,48,26892,1,0,0:0:0:0:
164,80,26965,1,0,0:0:0:0:
120,88,27039,1,0,0:0:0:0:
76,76,27111,6,0,P|56:116|48:164,1,88.000002685547
96,292,27404,1,0,0:0:0:0:
96,292,27477,1,0,0:0:0:0:
96,292,27550,1,0,0:0:0:0:
184,180,27697,1,0,0:0:0:0:
13,261,27843,2,0,P|56:272|95:291,1,88.000002685547
188,340,28063,1,0,0:0:0:0:
188,340,28136,2,0,P|232:328|268:304,1,88.000002685547
368,208,28428,5,0,0:0:0:0:
192,232,28575,1,0,0:0:0:0:
192,232,28648,1,0,0:0:0:0:
192,232,28721,1,0,0:0:0:0:
344,328,28867,1,0,2:0:0:0:
248,152,29014,2,0,P|204:138|157:138,1,88.000002685547
64,108,29233,1,0,0:0:0:0:
64,108,29306,2,0,P|64:152|80:200,1,88.000002685547
202,340,29599,6,0,P|224:302|236:260,1,88.000002685547
244,236,29819,1,0,0:0:0:0:
248,208,29892,1,0,0:0:0:0:
200,76,30038,1,0,0:0:0:0:
148,216,30185,1,0,0:0:0:0:
104,48,30331,1,0,0:0:0:0:
104,48,30404,1,0,0:0:0:0:
104,48,30477,1,0,0:0:0:0:
40,224,30624,1,0,0:0:0:0:
16,16,30770,6,0,P|16:60|36:104,1,88.000002685547
48,120,30989,1,0,0:0:0:0:
68,136,31063,1,0,0:0:0:0:
176,76,31209,1,0,0:0:0:0:
156,232,31355,1,0,0:0:0:0:
252,20,31502,1,0,0:0:0:0:
252,20,31575,1,0,0:0:0:0:
252,20,31648,2,0,P|264:62|260:108,1,88.000002685547
271,290,31941,5,0,0:0:0:0:
157,144,32087,1,0,0:0:0:0:
157,144,32160,1,0,0:0:0:0:
157,144,32233,1,0,0:0:0:0:
330,193,32380,1,0,0:0:0:0:
159,255,32526,1,0,0:0:0:0:
260,105,32672,1,0,0:0:0:0:
260,105,32745,1,0,0:0:0:0:
260,105,32819,2,0,P|303:100|342:80,1,88.000002685547
456,176,33111,6,0,P|416:196|372:200,1,88.000002685547
348,196,33331,1,0,0:0:0:0:
324,188,33404,1,0,0:0:0:0:
192,140,33550,1,0,0:0:0:0:
312,268,33697,1,0,0:0:0:0:
160,268,33843,1,0,0:0:0:0:
160,268,33916,1,0,0:0:0:0:
160,268,33989,1,0,0:0:0:0:
264,120,34136,6,0,P|260:76|252:32,1,88.000002685547
400,104,34428,1,0,0:0:0:0:
400,104,34502,1,0,0:0:0:0:
400,104,34575,2,0,P|384:146|376:192,1,88.000002685547
440,316,34867,1,0,0:0:0:0:
476,180,35014,1,0,0:0:0:0:
476,180,35087,1,0,0:0:0:0:
476,180,35160,1,0,0:0:0:0:
352,276,35306,6,0,L|256:264,1,88.000002685547
108,240,35599,1,0,0:0:0:0:
108,240,35672,1,0,0:0:0:0:
108,240,35745,2,0,P|155:234|203:222,1,88.000002685547
344,136,36039,1,0,0:0:0:0:
364,96,36111,1,0,0:0:0:0:
352,52,36185,1,0,0:0:0:0:
316,24,36258,1,0,0:0:0:0:
268,24,36331,1,0,0:0:0:0:
128,24,36477,6,0,P|140:68|160:108,1,88.000002685547
278,248,36770,1,0,0:0:0:0:
278,248,36843,1,0,0:0:0:0:
278,248,36916,2,0,P|234:240|194:224,1,88.000002685547
64,164,37210,1,0,0:0:0:0:
232,148,37356,1,0,0:0:0:0:
232,148,37429,1,0,0:0:0:0:
232,148,37502,1,0,0:0:0:0:
140,312,37648,1,0,0:0:0:0:
278,248,37794,6,0,P|325:257|377:259,1,88.000002685547
456,220,38014,1,0,0:0:0:0:
456,220,38087,2,0,P|425:186|384:164,1,88.000002685547
248,96,38380,1,0,0:0:0:0:
278,248,38526,1,0,0:0:0:0:
278,248,38599,1,0,0:0:0:0:
278,248,38672,1,0,0:0:0:0:
116,164,38819,5,0,0:0:0:0:
201,290,38965,2,0,P|237:266|281:246,1,88.000002685547
348,184,39185,1,0,0:0:0:0:
348,184,39258,2,0,P|364:228|372:272,1,88.000002685547
256,348,39551,1,0,0:0:0:0:
171,178,39697,1,0,0:0:0:0:
171,178,39770,1,0,0:0:0:0:
171,178,39843,2,0,P|212:163|256:156,1,88.000002685547
396,148,40136,5,0,0:0:0:0:
332,272,40282,1,0,0:0:0:0:
320,296,40355,1,0,0:0:0:0:
312,320,40428,2,0,P|268:320|228:304,1,88.000002685547
120,212,40722,1,0,0:0:0:0:
304,196,40867,1,0,0:0:0:0:
328,184,40940,1,0,0:0:0:0:
349,170,41013,2,0,P|383:197|405:234,1,88.000002685547
320,348,41306,5,0,0:0:0:0:
208,208,41453,1,0,0:0:0:0:
208,208,41526,1,0,0:0:0:0:
208,208,41599,2,0,P|220:164|228:120,1,88.000002685547
120,32,41892,1,0,0:0:0:0:
127,173,42038,1,0,0:0:0:0:
127,173,42111,1,0,0:0:0:0:
127,173,42184,2,0,P|169:194|212:209,1,88.000002685547
336,148,42478,5,0,0:0:0:0:
268,308,42624,1,0,0:0:0:0:
268,308,42697,1,0,0:0:0:0:
268,308,42770,1,0,0:0:0:0:
439,273,42916,2,0,P|401:252|368:224,1,88.000002685547
288,72,43209,1,0,0:0:0:0:
288,72,43282,1,0,0:0:0:0:
288,72,43355,1,0,0:0:0:0:
216,228,43502,6,0,P|154:217|102:258,1,132.00000402832
180,300,43794,2,0,P|241:310|293:269,1,132.00000402832
344,196,44087,2,0,P|372:228|368:320,1,132.00000402832
492,280,44380,2,0,P|464:248|468:156,1,132.00000402832
504,84,44672,5,0,0:0:0:0:
344,196,44819,1,0,0:0:0:0:
432,16,44965,1,0,0:0:0:0:
400,272,45111,2,0,B|392:340|344:360|304:336|296:304|312:272,1,176.000005371094
316,224,45477,5,0,0:0:0:0:
267,249,45550,1,0,0:0:0:0:
217,260,45624,1,0,0:0:0:0:
163,263,45697,1,0,0:0:0:0:
112,252,45770,1,0,0:0:0:0:
67,235,45843,6,0,P|32:184|96:64,1,192
218,134,46428,2,0,P|173:151|126:157,1,96
52,312,46721,2,0,B|100:316|100:316|128:276,1,96
216,248,47013,2,0,B|264:252|264:252|292:212,1,96
384,188,47306,2,0,B|432:192|432:192|460:152,1,96
428,64,47599,6,0,L|464:52,5,32
373,157,48038,2,0,L|385:193,5,32
320,64,48477,6,0,P|276:44|228:48,1,96
104,128,48769,2,0,P|151:120|197:136,1,96
316,204,49062,2,0,P|267:208|228:236,1,96
72,256,49355,6,0,B|118:272|144:304|144:304|184:344|240:344,1,192
376,268,49940,2,0,P|396:224|396:168,1,96
484,60,50233,2,0,P|435:55|393:79,1,96
288,208,50525,2,0,P|238:207|199:179,1,96
104,48,50818,2,0,P|55:52|18:83,1,96
124,204,51111,5,0,0:0:0:0:
124,204,51257,2,0,L|132:272,1,64
388,180,51550,1,0,0:0:0:0:
388,180,51696,2,0,L|396:112,1,64
104,48,51989,1,0,0:0:0:0:
104,48,52135,1,0,0:0:0:0:
332,48,52282,6,0,P|367:29|401:23,1,64
174,151,52574,2,0,P|146:136|116:128,1,64
68,272,52867,6,0,P|128:260|188:256,1,120
244,312,53159,2,0,P|282:302|317:282,1,80
432,172,53452,1,0,0:0:0:0:
248,200,53598,1,0,0:0:0:0:
448,88,53745,1,0,0:0:0:0:
317,282,53891,1,0,0:0:0:0:
264,100,54037,6,0,P|204:120|144:120,1,120
100,56,54330,2,0,P|144:48|188:52,1,80
340,64,54623,1,0,0:0:0:0:
228,212,54769,1,0,0:0:0:0:
416,28,54915,2,0,P|417:72|407:115,1,80
304,228,55208,5,0,0:0:0:0:
244,80,55354,1,0,0:0:0:0:
204,272,55501,1,0,0:0:0:0:
328,48,55647,1,0,0:0:0:0:
152,188,55793,1,0,0:0:0:0:
376,120,55940,1,0,0:0:0:0:
132,76,56086,1,0,0:0:0:0:
364,236,56232,1,0,0:0:0:0:
364,236,56306,1,0,0:0:0:0:
364,236,56379,5,0,0:0:0:0:
72,308,56525,1,0,0:0:0:0:
388,328,56671,1,0,0:0:0:0:
128,200,56818,1,0,0:0:0:0:
304,376,56964,1,0,0:0:0:0:
304,376,57037,1,0,0:0:0:0:
304,376,57110,1,0,0:0:0:0:
68,268,57257,2,0,P|28:220|8:160,1,120
8,80,57549,6,0,P|90:21|100:148,1,280
102,146,58135,2,0,P|184:87|194:214,1,280
196,212,58720,2,0,P|278:153|288:280,1,280
290,278,59306,2,0,P|372:219|382:346,1,280
308,356,59891,5,0,0:0:0:0:
184,336,60093,1,0,0:0:0:0:
120,224,60296,1,0,0:0:0:0:
176,108,60499,1,0,0:0:0:0:
80,24,60701,1,0,0:0:0:0:
24,140,60903,5,0,0:0:0:0:
16,156,61106,1,0,0:0:0:0:
12,172,61309,1,0,0:0:0:0:
8,196,61512,6,0,P|80:228|168:204,1,167.999994873047
276,80,61814,1,0,0:0:0:0:
340,144,61914,2,0,P|360:108|364:56,1,83.9999974365235
132,131,62116,2,0,P|139:171|170:213,1,83.9999974365235
220,340,62317,2,0,B|208:294|232:260|232:260|252:232|248:176,1,167.999994873047
372,267,62619,1,0,0:0:0:0:
372,267,62720,2,0,P|338:292|300:308,1,83.9999974365235
89,166,62921,2,0,P|123:190|161:206,1,83.9999974365235
352,160,63122,6,0,P|376:126|392:88,1,83.9999974365235
164,12,63324,2,0,P|164:48|176:96,1,83.9999974365235
204,257,63525,1,0,0:0:0:0:
287,295,63626,1,0,0:0:0:0:
360,241,63726,2,0,P|364:199|352:160,1,83.9999974365235
52,246,63928,2,0,P|39:286|44:328,1,83.9999974365235
278,376,64129,2,0,P|291:336|286:294,1,83.9999974365235
220,80,64330,5,0,0:0:0:0:
360,4,64432,1,0,0:0:0:0:
277,144,64532,1,0,0:0:0:0:
417,68,64632,1,0,0:0:0:0:
336,204,64733,6,0,B|299:232|259:224|259:224|223:256|179:252,1,167.999994873047
20,196,65035,1,0,0:0:0:0:
2,105,65135,1,0,0:0:0:0:
83,60,65236,1,0,0:0:0:0:
150,123,65337,2,0,P|188:107|229:95,1,83.9999974365235
361,260,65538,6,0,P|322:276|282:287,1,83.9999974365235
99,264,65740,1,0,0:0:0:0:
25,207,65840,1,0,0:0:0:0:
57,120,65941,1,0,0:0:0:0:
150,123,66042,1,0,0:0:0:0:
175,212,66142,2,0,P|187:251|185:294,1,83.9999974365235
340,368,66344,6,0,L|348:300,1,63.9999960937502
472,120,66545,2,0,L|480:204,1,83.9999974365235
219,317,66746,6,0,P|236:292|251:252,1,63.9999960937502
476,152,66948,2,0,P|460:193|436:231,1,83.9999974365235
144,222,67149,6,0,P|174:204|196:172,1,63.9999960937502
480,184,67350,2,0,P|447:219|407:234,1,83.9999974365235
122,110,67552,6,0,P|157:108|181:88,1,63.9999960937502
484,216,67753,2,0,P|450:237|398:231,1,83.9999974365235
125,26,67954,6,0,B|93:42|57:50|57:50|29:94|40:143,1,167.999994873047
64,308,68256,1,0,0:0:0:0:
136,364,68357,2,0,P|148:320|144:272,1,83.9999974365235
328,236,68558,2,0,P|347:277|381:311,1,83.9999974365235
236,248,68760,2,0,B|240:208|255:177|255:177|244:136|244:136|254:85,1,167.999994873047
92,140,69062,1,0,0:0:0:0:
91,139,69163,2,0,P|125:165|166:171,1,83.9999974365235
428,123,69364,2,0,P|386:117|348:132,1,83.9999974365235
148,256,69565,6,0,P|144:300|160:336,1,83.9999974365235
372,326,69767,2,0,P|388:288|384:247,1,83.9999974365235
292,24,69968,1,0,0:0:0:0:
203,48,70069,1,0,0:0:0:0:
160,128,70169,2,0,P|174:168|200:206,1,83.9999974365235
258,291,70371,2,0,P|286:258|305:221,1,83.9999974365235
350,126,70572,2,0,P|308:117|266:121,1,83.9999974365235
50,133,70773,1,0,0:0:0:0:
10,285,70873,1,0,0:0:0:0:
138,189,70974,1,0,0:0:0:0:
94,345,71075,1,0,0:0:0:0:
250,307,71176,6,0,B|304:320|346:281|346:281|378:305|414:309,1,167.999994873047
508,184,71478,1,0,0:0:0:0:
456,108,71579,2,0,P|464:64|480:24,2,83.9999974365235
403,307,71881,1,0,0:0:0:0:
327,360,71981,2,0,P|309:321|312:280,1,83.9999974365235
376,132,72183,1,0,0:0:0:0:
356,44,72283,1,0,0:0:0:0:
268,20,72384,2,0,P|244:57|231:100,1,83.9999974365235
237,318,72585,2,0,P|278:303|315:277,1,83.9999974365235
484,32,72787,6,0,P|408:68|324:60,1,167.999994873047
24,192,73189,2,0,P|107:185|176:136,1,167.999994873047
484,352,73592,2,0,P|414:304|379:227,1,167.999994873047
77,12,73995,6,0,L|64:52,7,41.9999987182618
144,60,74397,6,0,P|132:96|100:124,1,80
40,200,74599,2,0,P|76:216|124:216,1,80
292,140,74800,2,0,P|308:172|316:224,1,80
268,355,75001,2,0,P|290:322|321:296,1,80
492,152,75203,6,0,P|413:151|356:92,1,160
192,24,75505,1,0,0:0:0:0:
192,24,75605,2,0,P|204:64|224:100,1,80
136,144,75807,2,0,P|166:172|201:193,1,80
401,277,76008,6,0,P|363:291|324:296,1,80
260,368,76209,2,0,P|240:336|228:295,1,80
208,104,76411,2,0,P|244:119|277:143,1,80
372,134,76612,2,0,P|364:171|345:208,1,80
135,179,76814,6,0,P|104:108|124:32,1,160
320,46,77116,1,0,0:0:0:0:
320,46,77216,2,0,P|292:78|272:122,1,80
372,134,77418,2,0,P|371:176|384:223,1,80
208,300,77619,6,0,P|212:339|197:375,1,79.9999999999999
84,357,77820,2,0,P|79:317|95:281,1,79.9999999999999
313,232,78022,2,0,P|340:260|377:272,1,79.9999999999999
436,173,78223,2,0,P|408:144|371:133,1,79.9999999999999
159,45,78424,6,0,P|152:124|192:192,1,160
331,309,78726,1,0,0:0:0:0:
331,309,78827,2,0,P|319:269|311:209,1,80
405,241,79028,2,0,P|412:201|425:164,1,80
159,45,79230,6,0,B|115:52|91:80|91:80|51:64|7:68,1,160
353,339,79632,2,0,B|397:332|421:304|421:304|461:320|505:316,1,160
296,24,80035,2,0,P|232:68|248:140,1,160
312,208,80337,1,0,0:0:0:0:
404,248,80438,2,0,L|460:232,2,53.3333333333333
280,328,80639,2,0,L|196:316,1,80
56,196,80840,6,0,P|140:184|204:144,1,160
312,102,81142,2,0,P|304:64|292:6,2,80
292,204,81444,2,0,P|278:241|258:276,1,80
448,372,81646,6,0,P|398:309|406:229,1,160
468,140,81948,2,0,P|456:96|440:60,2,80
372,140,82250,2,0,P|332:144|288:156,1,80
228,244,82451,6,0,P|148:244|72:200,1,160
12,116,82753,2,0,P|20:76|36:40,2,80
108,108,83055,2,0,P|148:100|192:84,1,80
240,164,83256,6,0,P|320:160|404:192,1,160
440,328,83558,1,0,0:0:0:0:
440,328,83659,2,0,P|448:288|460:236,1,80
472,72,83860,2,0,P|480:112|492:164,1,80
368,268,84062,6,0,P|292:292|212:280,1,160
48,212,84364,1,0,0:0:0:0:
96,148,84465,1,0,0:0:0:0:
176,144,84565,1,0,0:0:0:0:
240,192,84666,2,0,P|280:180|332:184,1,80
512,72,84867,6,0,P|436:48|356:60,1,160
176,144,85169,1,0,0:0:0:0:
224,208,85270,1,0,0:0:0:0:
304,212,85370,1,0,0:0:0:0:
368,164,85471,2,0,P|408:176|460:172,1,80
384,345,85673,6,0,B|356:315|350:273|350:273|312:250|303:211,1,160
280,60,85975,1,0,0:0:0:0:
280,60,86075,2,0,P|264:96|256:136,1,80
260,312,86277,2,0,P|228:288|201:258,1,80
96,56,86478,1,0,0:0:0:0:
96,56,87283,6,0,B|112:84|128:92|128:92|120:120|120:136|120:136|148:164|160:196,1,160
232,332,87585,1,0,0:0:0:0:
232,332,87686,2,0,P|232:296|252:240,1,80
224,40,87887,2,0,P|224:76|204:132,1,80
415,309,88089,2,0,B|399:281|400:263|400:263|372:256|359:248|359:248|349:209|332:188,1,160
504,344,88491,6,0,P|507:367|515:395,1,40
