osu file format v14

[General]
AudioFilename: audio.mp3
AudioLeadIn: 0
PreviewTime: 61401
Countdown: 0
SampleSet: None
StackLeniency: 0.7
Mode: 3
LetterboxInBreaks: 0
SpecialStyle: 0
WidescreenStoryboard: 0

[Editor]
DistanceSpacing: 1.2
BeatDivisor: 4
GridSize: 32
TimelineZoom: 1.4

[Metadata]
Title:Curtain Call!!!!!
TitleUnicode:かーてんこーる!!!!!
Artist:Gekidan Hitotose
ArtistUnicode:劇団ひととせ
Creator:Tofu1222
Version:Easy
Source:ひなこのーと
Tags:hinako note Amiichii Ending 市道 真央 M・A・O Ichimichi Mao 富田 美憂 Tomita Miyu 小倉 唯 Ogura Yui 東城日沙子 Hisako Tojo 高野 麻里佳 Marika Kouno 桜木ひな子 Sakuragi Hinako 夏川くいな Natsukawa Kuina 柊 真雪 Hiiragi Mayuki 萩野千秋 Ogino Chiaki 中島ゆあ Nakajima Yua
BeatmapID:1291027
BeatmapSetID:611200

[Difficulty]
HPDrainRate:6.5
CircleSize:4
OverallDifficulty:7
ApproachRate:5
SliderMultiplier:1.4
SliderTickRate:1

[Events]
//Background and Video events
Video,0,"video.avi"
0,0,"bg.jpg",0,0
//Break Periods
//Storyboard Layer 0 (Background)
//Storyboard Layer 1 (Fail)
//Storyboard Layer 2 (Pass)
//Storyboard Layer 3 (Foreground)
//Storyboard Sound Samples
Sample,5168,0,"cymbal light.wav",70
Sample,5574,0,"cymbal light.wav",70
Sample,5979,0,"cymbal light.wav",70
Sample,6790,0,"cymbal light.wav",70
Sample,7195,0,"cymbal light.wav",70
Sample,7601,0,"cymbal light.wav",70
Sample,8411,0,"cymbal light.wav",70
Sample,8817,0,"cymbal light.wav",70
Sample,9222,0,"cymbal light.wav",70
Sample,18028,0,"cymbal light.wav",70
Sample,18321,0,"cymbal light.wav",70
Sample,18614,0,"cymbal light.wav",70
Sample,19199,0,"cymbal light.wav",70
Sample,19492,0,"cymbal light.wav",70
Sample,19784,0,"cymbal light.wav",70
Sample,20370,0,"cymbal light.wav",70
Sample,20662,0,"cymbal light.wav",70
Sample,20955,0,"cymbal light.wav",70
Sample,21540,0,"cymbal light.wav",70
Sample,27248,0,"cymbal light.wav",70
Sample,27540,0,"cymbal light.wav",70
Sample,27833,0,"cymbal light.wav",70
Sample,28126,0,"cymbal light.wav",70
Sample,28418,0,"cymbal light.wav",70
Sample,28711,0,"cymbal light.wav",70
Sample,29004,0,"cymbal light.wav",70
Sample,29296,0,"cymbal light.wav",70
Sample,29589,0,"cymbal light.wav",70
Sample,29882,0,"cymbal light.wav",70
Sample,30175,0,"cymbal light.wav",70
Sample,30467,0,"cymbal light.wav",70
Sample,30760,0,"cymbal light.wav",70
Sample,31053,0,"cymbal light.wav",70
Sample,31345,0,"cymbal light.wav",70
Sample,31638,0,"cymbal light.wav",70
Sample,31931,0,"cymbal light.wav",70
Sample,32223,0,"cymbal light.wav",70
Sample,32516,0,"cymbal light.wav",70
Sample,32809,0,"cymbal light.wav",70
Sample,33101,0,"cymbal light.wav",70
Sample,33394,0,"cymbal light.wav",70
Sample,33687,0,"cymbal light.wav",70
Sample,33979,0,"cymbal light.wav",70
Sample,34272,0,"cymbal light.wav",70
Sample,34565,0,"cymbal light.wav",70
Sample,34857,0,"cymbal light.wav",70
Sample,35150,0,"cymbal light.wav",70
Sample,36614,0,"cymbal light.wav",70
Sample,36906,0,"cymbal light.wav",70
Sample,37199,0,"cymbal light.wav",70
Sample,37492,0,"cymbal light.wav",70
Sample,37784,0,"cymbal light.wav",70
Sample,38077,0,"cymbal light.wav",70
Sample,38370,0,"cymbal light.wav",70
Sample,38662,0,"cymbal light.wav",70
Sample,38955,0,"cymbal light.wav",70
Sample,39248,0,"cymbal light.wav",70
Sample,39540,0,"cymbal light.wav",70
Sample,39833,0,"cymbal light.wav",70
Sample,40126,0,"cymbal light.wav",70
Sample,40418,0,"cymbal light.wav",70
Sample,40711,0,"cymbal light.wav",70
Sample,41004,0,"cymbal light.wav",70
Sample,41296,0,"cymbal light.wav",70
Sample,41589,0,"cymbal light.wav",70
Sample,41882,0,"cymbal light.wav",70
Sample,42175,0,"cymbal light.wav",70
Sample,42467,0,"cymbal light.wav",70
Sample,42760,0,"cymbal light.wav",70
Sample,43053,0,"cymbal light.wav",70
Sample,43345,0,"cymbal light.wav",70
Sample,61904,0,"cymbal light.wav",70
Sample,62307,0,"cymbal light.wav",70
Sample,62710,0,"cymbal light.wav",70
Sample,63515,0,"cymbal light.wav",70
Sample,63918,0,"cymbal light.wav",70
Sample,64320,0,"cymbal light.wav",70
Sample,65126,0,"cymbal light.wav",70
Sample,65528,0,"cymbal light.wav",70
Sample,65931,0,"cymbal light.wav",70
Sample,66535,0,"cymbal light.wav",70
Sample,66938,0,"cymbal light.wav",70
Sample,67340,0,"cymbal light.wav",70
Sample,67743,0,"cymbal light.wav",70
Sample,68347,0,"cymbal light.wav",70
Sample,68750,0,"cymbal light.wav",70
Sample,69153,0,"cymbal light.wav",70
Sample,69958,0,"cymbal light.wav",70
Sample,70361,0,"cymbal light.wav",70
Sample,70763,0,"cymbal light.wav",70
Sample,71569,0,"cymbal light.wav",70
Sample,71971,0,"cymbal light.wav",70
Sample,72374,0,"cymbal light.wav",70
Sample,74790,0,"cymbal light.wav",70
Sample,75193,0,"cymbal light.wav",70
Sample,75595,0,"cymbal light.wav",70
Sample,76401,0,"cymbal light.wav",70
Sample,76804,0,"cymbal light.wav",70
Sample,77206,0,"cymbal light.wav",70
Sample,78012,0,"cymbal light.wav",70
Sample,78414,0,"cymbal light.wav",70
Sample,78817,0,"cymbal light.wav",70
Sample,81233,0,"cymbal light.wav",70
Sample,81636,0,"cymbal light.wav",70
Sample,82038,0,"cymbal light.wav",70
Sample,82441,0,"cymbal light.wav",70
Sample,82844,0,"cymbal light.wav",70
Sample,83246,0,"cymbal light.wav",70
Sample,83649,0,"cymbal light.wav",70
Sample,84455,0,"cymbal light.wav",70
Sample,84857,0,"cymbal light.wav",70
Sample,85260,0,"cymbal light.wav",70

[TimingPoints]
1520,202.702702702703,4,3,1,80,1,0
1520,-144.927536231884,4,3,1,80,0,0
17736,292.682926829268,4,3,1,80,1,0
17736,-100,4,3,1,80,0,0
45833,292.682926829268,3,3,1,80,1,0
45833,-100,3,3,1,80,0,0
52857,292.682926829268,4,3,1,80,1,0
52857,-100,4,3,1,80,0,0
59881,202.702702702703,4,3,1,30,1,0
59881,-144.927536231884,4,3,1,30,0,0
61502,201.342281879195,4,3,1,80,1,0
61502,-144.927536231884,4,3,1,80,0,1
74387,-144.927536231884,4,3,1,80,0,0

[HitObjects]
64,192,1520,5,8,0:0:0:0:
448,192,1520,1,0,0:0:0:0:
64,192,2330,1,8,0:0:0:0:
448,192,2330,1,0,0:0:0:0:
64,192,3141,1,8,0:0:0:0:
448,192,3141,1,0,0:0:0:0:
64,192,3952,128,8,4763:0:0:0:0:
448,192,3952,1,0,0:0:0:0:
448,192,4763,1,2,0:0:0:0:
320,192,4763,1,0,0:0:0:70:cymbal light.wav
192,192,5168,1,2,0:0:0:0:
320,192,5574,1,2,0:0:0:0:
64,192,5979,1,2,0:0:0:0:
320,192,6384,1,2,0:0:0:0:
448,192,6384,1,0,0:0:0:70:cymbal light.wav
192,192,6790,1,2,0:0:0:0:
320,192,7195,1,2,0:0:0:0:
64,192,7601,1,2,0:0:0:0:
448,192,8006,1,2,0:0:0:0:
192,192,8006,1,0,0:0:0:70:cymbal light.wav
320,192,8411,1,2,0:0:0:0:
64,192,8817,1,2,0:0:0:0:
192,192,9222,1,2,0:0:0:0:
320,192,9628,1,0,0:0:0:70:cymbal whistle.wav
448,192,9628,1,0,0:0:0:0:
192,192,10033,1,0,0:0:0:70:cymbal finish.wav
64,192,10033,1,0,0:0:0:0:
320,192,10438,1,0,0:0:0:70:cymbal whistle.wav
448,192,10438,1,0,0:0:0:0:
192,192,10844,128,8,11249:0:0:0:0:
64,192,11249,1,0,0:0:0:70:cymbal light.wav
448,192,11249,1,0,0:0:0:0:
320,192,11655,1,0,0:0:0:70:cymbal light.wav
192,192,12060,1,0,0:0:0:70:cymbal light.wav
64,192,12465,1,0,0:0:0:70:cymbal light.wav
448,192,12871,1,0,0:0:0:70:cymbal light.wav
320,192,12871,1,0,0:0:0:0:
192,192,13276,1,0,0:0:0:70:cymbal light.wav
320,192,13682,1,0,0:0:0:70:cymbal light.wav
192,192,14087,1,0,0:0:0:70:cymbal light.wav
448,192,14492,1,0,0:0:0:70:cymbal whistle.wav
64,192,14492,1,0,0:0:0:0:
192,192,14898,1,0,0:0:0:70:cymbal light.wav
320,192,15303,1,0,0:0:0:70:cymbal light.wav
448,192,15709,1,0,0:0:0:70:cymbal light.wav
64,192,16114,1,2,0:0:0:0:
192,192,16114,1,0,0:0:0:0:
448,192,16520,1,2,0:0:0:0:
320,192,16520,1,0,0:0:0:0:
192,192,16925,1,8,0:0:0:0:
320,192,16925,1,0,0:0:0:0:
64,192,17229,1,4,0:0:0:0:
448,192,17229,1,0,0:0:0:0:
192,192,17736,1,8,0:0:0:0:
448,192,17736,1,0,0:0:0:70:cymbal light.wav
320,192,18028,1,8,0:0:0:0:
64,192,18321,1,8,0:0:0:0:
192,192,18614,1,8,0:0:0:0:
320,192,18906,1,8,0:0:0:0:
448,192,18906,1,0,0:0:0:70:cymbal light.wav
192,192,19199,1,8,0:0:0:0:
320,192,19492,1,8,0:0:0:0:
64,192,19784,1,8,0:0:0:0:
192,192,20077,1,8,0:0:0:0:
448,192,20077,1,0,0:0:0:70:cymbal light.wav
320,192,20370,1,8,0:0:0:0:
64,192,20662,1,8,0:0:0:0:
192,192,20955,1,8,0:0:0:0:
448,192,21248,1,8,0:0:0:0:
320,192,21248,1,0,0:0:0:70:cymbal light.wav
64,192,21540,1,8,0:0:0:0:
448,192,21687,1,4,0:0:0:0:
64,192,21979,1,8,0:0:0:0:
192,192,22126,1,8,0:0:0:0:
448,192,22272,1,8,0:0:0:0:
64,192,22418,1,8,0:0:0:0:
320,192,22418,1,0,0:0:0:0:
448,192,23150,1,8,0:0:0:0:
192,192,23150,128,0,23589:0:0:0:0:
64,192,23589,1,2,0:0:0:0:
448,192,23589,1,0,0:0:0:0:
64,192,24321,1,8,0:0:0:0:
320,192,24321,128,0,24760:0:0:0:0:
64,192,24760,1,2,0:0:0:0:
448,192,24760,1,0,0:0:0:0:
192,192,25492,128,8,25931:0:0:0:0:
448,192,25492,1,0,0:0:0:0:
64,192,25931,1,8,0:0:0:0:
448,192,25931,1,0,0:0:0:0:
320,192,26077,1,8,0:0:0:0:
192,192,26077,1,0,0:0:0:0:
64,192,26370,1,8,0:0:0:0:
448,192,26370,1,0,0:0:0:0:
64,192,27101,1,2,0:0:0:0:
448,192,27101,1,0,0:0:0:0:
320,192,27394,1,2,0:0:0:0:
192,192,27687,1,2,0:0:0:0:
448,192,27979,1,2,0:0:0:0:
64,192,28272,1,2,0:0:0:0:
320,192,28272,1,0,0:0:0:0:
192,192,28565,1,2,0:0:0:0:
448,192,28857,1,2,0:0:0:0:
64,192,29150,1,2,0:0:0:0:
320,192,29443,1,2,0:0:0:0:
192,192,29443,1,0,0:0:0:0:
448,192,29735,1,2,0:0:0:0:
64,192,30028,1,2,0:0:0:0:
192,192,30321,1,2,0:0:0:0:
448,192,30614,1,2,0:0:0:0:
320,192,30614,1,0,0:0:0:0:
192,192,30906,1,2,0:0:0:0:
64,192,31199,1,2,0:0:0:0:
320,192,31492,1,2,0:0:0:0:
64,192,31784,1,2,0:0:0:0:
448,192,31784,1,0,0:0:0:0:
192,192,32077,1,2,0:0:0:0:
320,192,32370,1,2,0:0:0:0:
64,192,32662,1,2,0:0:0:0:
192,192,32955,1,2,0:0:0:0:
448,192,32955,1,0,0:0:0:0:
320,192,33248,1,2,0:0:0:0:
64,192,33540,1,2,0:0:0:0:
448,192,33833,1,2,0:0:0:0:
320,192,34126,1,2,0:0:0:0:
192,192,34126,1,0,0:0:0:0:
64,192,34418,1,2,0:0:0:0:
448,192,34711,1,2,0:0:0:0:
320,192,35004,1,2,0:0:0:0:
192,192,35296,1,2,0:0:0:0:
64,192,35296,1,0,0:0:0:0:
320,192,35589,1,2,0:0:0:0:
448,192,35882,1,2,0:0:0:0:
64,192,36175,1,2,0:0:0:0:
192,192,36467,1,2,0:0:0:0:
448,192,36467,1,0,0:0:0:0:
320,192,36760,1,2,0:0:0:0:
64,192,37053,1,2,0:0:0:0:
448,192,37345,1,2,0:0:0:0:
320,192,37638,1,2,0:0:0:0:
192,192,37638,1,0,0:0:0:0:
64,192,37931,1,2,0:0:0:0:
448,192,38223,1,2,0:0:0:0:
192,192,38516,1,2,0:0:0:0:
64,192,38809,1,2,0:0:0:0:
448,192,38809,1,0,0:0:0:0:
320,192,39101,1,2,0:0:0:0:
192,192,39394,1,2,0:0:0:0:
448,192,39687,1,2,0:0:0:0:
320,192,39979,1,2,0:0:0:0:
64,192,39979,1,0,0:0:0:0:
192,192,40272,1,2,0:0:0:0:
448,192,40565,1,2,0:0:0:0:
320,192,40857,1,2,0:0:0:0:
64,192,41150,1,2,0:0:0:0:
448,192,41150,1,0,0:0:0:0:
192,192,41443,1,2,0:0:0:0:
320,192,41735,1,2,0:0:0:0:
64,192,42028,1,2,0:0:0:0:
192,192,42321,1,2,0:0:0:0:
320,192,42321,1,0,0:0:0:0:
448,192,42614,1,2,0:0:0:0:
192,192,42906,1,2,0:0:0:0:
320,192,43199,1,2,0:0:0:0:
448,192,43492,1,2,0:0:0:0:
64,192,43492,1,0,0:0:0:0:
192,192,43784,1,2,0:0:0:0:
320,192,44077,1,2,0:0:0:0:
64,192,44370,1,2,0:0:0:0:
320,192,44662,1,2,0:0:0:0:
192,192,44662,1,0,0:0:0:0:
448,192,45101,1,4,0:0:0:0:
64,192,45101,1,0,0:0:0:0:
64,192,45833,1,2,0:0:0:0:
448,192,45833,1,0,0:0:0:0:
448,192,46418,1,2,0:0:0:0:
64,192,46711,1,8,0:0:0:0:
320,192,46711,1,0,0:0:0:0:
192,192,47003,1,2,0:0:0:0:
320,192,47296,1,8,0:0:0:0:
64,192,47589,1,2,0:0:0:0:
448,192,47589,1,0,0:0:0:0:
320,192,47881,1,0,0:0:0:0:
192,192,48174,1,2,0:0:0:0:
64,192,48467,1,8,0:0:0:0:
448,192,48467,1,0,0:0:0:0:
320,192,48759,1,2,0:0:0:0:
192,192,49052,1,8,0:0:0:0:
320,192,49345,1,2,0:0:0:0:
448,192,49345,1,0,0:0:0:0:
64,192,49930,1,2,0:0:0:0:
192,192,50223,1,8,0:0:0:0:
448,192,50223,1,0,0:0:0:0:
320,192,50515,1,0,0:0:0:0:
192,192,50808,1,2,0:0:0:0:
64,192,51101,1,8,0:0:0:0:
448,192,51101,1,0,0:0:0:0:
192,192,51393,1,0,0:0:0:0:
320,192,51686,1,2,0:0:0:0:
64,192,51979,1,8,0:0:0:0:
448,192,51979,1,0,0:0:0:0:
192,192,52272,1,0,0:0:0:0:
192,192,52564,1,0,0:0:0:0:
448,192,52857,1,2,0:0:0:0:
320,192,52857,1,0,0:0:0:0:
64,192,53149,1,8,0:0:0:0:
192,192,53442,1,0,0:0:0:0:
320,192,53735,1,8,0:0:0:0:
448,192,54027,1,2,0:0:0:0:
64,192,54027,1,0,0:0:0:0:
192,192,54320,1,8,0:0:0:0:
320,192,54613,1,2,0:0:0:0:
64,192,54905,1,8,0:0:0:0:
192,192,55198,1,2,0:0:0:0:
448,192,55198,1,0,0:0:0:0:
320,192,55491,1,8,0:0:0:0:
64,192,55783,1,0,0:0:0:0:
192,192,56076,1,8,0:0:0:0:
320,192,56369,1,0,0:0:0:0:
192,192,56661,1,0,0:0:0:0:
448,192,56954,1,0,0:0:0:0:
64,192,57247,1,0,0:0:0:0:
192,192,57539,1,0,0:0:0:0:
192,192,58125,1,0,0:0:0:0:
320,192,58417,1,0,0:0:0:0:
448,192,58710,1,0,0:0:0:0:
64,192,59296,1,0,0:0:0:0:
192,192,59588,1,0,0:0:0:0:
320,192,59881,128,0,61097:0:0:0:0:
64,192,61502,1,2,0:0:0:0:
448,192,61502,1,0,0:0:0:70:cymbal light.wav
192,192,61904,1,2,0:0:0:0:
320,192,62307,1,2,0:0:0:0:
64,192,62710,1,2,0:0:0:0:
192,192,63112,1,2,0:0:0:0:
448,192,63112,1,0,0:0:0:70:cymbal light.wav
320,192,63515,1,2,0:0:0:0:
64,192,63918,1,2,0:0:0:0:
192,192,64320,1,2,0:0:0:0:
320,192,64723,1,2,0:0:0:0:
448,192,64723,1,0,0:0:0:70:cymbal light.wav
64,192,65126,1,2,0:0:0:0:
320,192,65528,1,2,0:0:0:0:
192,192,65931,1,2,0:0:0:0:
320,192,66334,1,0,0:0:0:0:
64,192,66535,1,8,0:0:0:0:
448,192,66938,1,8,0:0:0:0:
192,192,67340,1,8,0:0:0:0:
320,192,67743,1,8,0:0:0:0:
64,192,67944,1,2,0:0:0:0:
448,192,67944,1,0,0:0:0:70:cymbal light.wav
320,192,68347,1,2,0:0:0:0:
192,192,68750,1,2,0:0:0:0:
448,192,69153,1,2,0:0:0:0:
64,192,69555,1,2,0:0:0:0:
320,192,69555,1,0,0:0:0:70:cymbal light.wav
192,192,69958,1,2,0:0:0:0:
448,192,70361,1,2,0:0:0:0:
320,192,70763,1,2,0:0:0:0:
64,192,71166,1,2,0:0:0:0:
192,192,71166,1,0,0:0:0:70:cymbal light.wav
320,192,71569,1,2,0:0:0:0:
64,192,71971,1,2,0:0:0:0:
192,192,72374,1,2,0:0:0:0:
320,192,72777,1,0,0:0:0:70:cymbal whistle.wav
448,192,72777,1,0,0:0:0:0:
192,192,73179,1,0,0:0:0:70:cymbal finish.wav
64,192,73179,1,0,0:0:0:0:
320,192,73582,1,0,0:0:0:70:cymbal whistle.wav
448,192,73582,1,0,0:0:0:0:
64,192,73985,128,4,74387:0:0:0:0:
192,192,73985,1,0,0:0:0:0:
448,192,74387,1,2,0:0:0:0:
320,192,74387,1,0,0:0:0:70:cymbal light.wav
192,192,74790,1,2,0:0:0:0:
320,192,75193,1,2,0:0:0:0:
64,192,75595,1,2,0:0:0:0:
192,192,75998,1,2,0:0:0:0:
448,192,75998,1,0,0:0:0:70:cymbal light.wav
320,192,76401,1,2,0:0:0:0:
64,192,76804,1,2,0:0:0:0:
192,192,77206,1,2,0:0:0:0:
448,192,77609,1,2,0:0:0:0:
320,192,77609,1,0,0:0:0:70:cymbal light.wav
192,192,78012,1,2,0:0:0:0:
320,192,78414,1,2,0:0:0:0:
64,192,78817,1,2,0:0:0:0:
320,192,79220,1,0,0:0:0:70:cymbal whistle.wav
448,192,79220,1,0,0:0:0:0:
64,192,79622,1,0,0:0:0:70:cymbal finish.wav
192,192,79622,1,0,0:0:0:0:
320,192,80025,1,0,0:0:0:70:cymbal whistle.wav
448,192,80025,1,0,0:0:0:0:
192,192,80428,128,8,80830:0:0:0:0:
64,192,80830,1,2,0:0:0:0:
448,192,80830,1,0,0:0:0:70:cymbal light.wav
320,192,81233,1,2,0:0:0:0:
64,192,81636,1,2,0:0:0:0:
320,192,82038,1,2,0:0:0:0:
192,192,82441,1,2,0:0:0:0:
448,192,82844,1,2,0:0:0:0:
192,192,83246,1,2,0:0:0:0:
320,192,83649,1,2,0:0:0:0:
192,192,83850,1,8,0:0:0:0:
64,192,84052,1,2,0:0:0:0:
448,192,84052,1,0,0:0:0:70:cymbal light.wav
192,192,84455,1,2,0:0:0:0:
448,192,84857,1,2,0:0:0:0:
192,192,85260,1,2,0:0:0:0:
320,192,85663,1,0,0:0:0:70:cymbal whistle.wav
448,192,85663,1,0,0:0:0:0:
64,192,86065,1,0,0:0:0:70:cymbal finish.wav
192,192,86065,1,0,0:0:0:0:
64,192,86468,1,0,0:0:0:70:cymbal whistle.wav
448,192,86468,1,0,0:0:0:0:
64,192,87273,1,0,0:0:0:70:cymbal whistle.wav
448,192,87273,1,0,0:0:0:0:
192,192,87676,1,0,0:0:0:70:cymbal finish.wav
320,192,87676,1,0,0:0:0:0:
64,192,88079,1,0,0:0:0:70:cymbal whistle.wav
448,192,88079,1,0,0:0:0:0:
320,192,88481,128,0,88884:0:0:0:0:
