osu file format v14

[General]
AudioFilename: audio.mp3
AudioLeadIn: 0
PreviewTime: 61401
Countdown: 0
SampleSet: None
StackLeniency: 0.7
Mode: 3
LetterboxInBreaks: 0
SpecialStyle: 0
WidescreenStoryboard: 0

[Editor]
DistanceSpacing: 1.2
BeatDivisor: 4
GridSize: 32
TimelineZoom: 2.3

[Metadata]
Title:Curtain Call!!!!!
TitleUnicode:かーてんこーる!!!!!
Artist:Gekidan Hitotose
ArtistUnicode:劇団ひととせ
Creator:Tofu1222
Version:Amii's Normal
Source:ひなこのーと
Tags:hinako note Amiichii Ending 市道 真央 M・A・O Ichimichi Mao 富田 美憂 Tomita Miyu 小倉 唯 Ogura Yui 東城日沙子 Hisako Tojo 高野 麻里佳 Marika Kouno 桜木ひな子 Sakuragi Hinako 夏川くいな Natsukawa Kuina 柊 真雪 Hiiragi Mayuki 萩野千秋 Ogino Chiaki 中島ゆあ Nakajima Yua
BeatmapID:1291079
BeatmapSetID:611200

[Difficulty]
HPDrainRate:7
CircleSize:4
OverallDifficulty:7
ApproachRate:5
SliderMultiplier:1.4
SliderTickRate:1

[Events]
//Background and Video events
Video,0,"video.avi"
0,0,"bg.jpg",0,0
//Break Periods
//Storyboard Layer 0 (Background)
//Storyboard Layer 1 (Fail)
//Storyboard Layer 2 (Pass)
//Storyboard Layer 3 (Foreground)
//Storyboard Sound Samples
Sample,12465,0,"cymbal light.wav",70
Sample,15709,0,"cymbal light.wav",70
Sample,27248,0,"cymbal light.wav",70
Sample,27540,0,"cymbal light.wav",70
Sample,27833,0,"cymbal light.wav",70
Sample,28126,0,"cymbal light.wav",70
Sample,28418,0,"cymbal light.wav",70
Sample,28711,0,"cymbal light.wav",70
Sample,29004,0,"cymbal light.wav",70
Sample,29296,0,"cymbal light.wav",70
Sample,29589,0,"cymbal light.wav",70
Sample,29882,0,"cymbal light.wav",70
Sample,30175,0,"cymbal light.wav",70
Sample,30467,0,"cymbal light.wav",70
Sample,30760,0,"cymbal light.wav",70
Sample,31053,0,"cymbal light.wav",70
Sample,31345,0,"cymbal light.wav",70
Sample,31638,0,"cymbal light.wav",70
Sample,31931,0,"cymbal light.wav",70
Sample,32223,0,"cymbal light.wav",70
Sample,32516,0,"cymbal light.wav",70
Sample,32809,0,"cymbal light.wav",70
Sample,33101,0,"cymbal light.wav",70
Sample,33394,0,"cymbal light.wav",70
Sample,33687,0,"cymbal light.wav",70
Sample,33979,0,"cymbal light.wav",70
Sample,34272,0,"cymbal light.wav",70
Sample,34565,0,"cymbal light.wav",70
Sample,34857,0,"cymbal light.wav",70
Sample,35150,0,"cymbal light.wav",70
Sample,36906,0,"cymbal light.wav",70
Sample,37199,0,"cymbal light.wav",70
Sample,37492,0,"cymbal light.wav",70
Sample,37784,0,"cymbal light.wav",70
Sample,38077,0,"cymbal light.wav",70
Sample,38370,0,"cymbal light.wav",70
Sample,38662,0,"cymbal light.wav",70
Sample,38955,0,"cymbal light.wav",70
Sample,39248,0,"cymbal light.wav",70
Sample,39540,0,"cymbal light.wav",70
Sample,39833,0,"cymbal light.wav",70
Sample,40126,0,"cymbal light.wav",70
Sample,40418,0,"cymbal light.wav",70
Sample,40711,0,"cymbal light.wav",70
Sample,41004,0,"cymbal light.wav",70
Sample,41296,0,"cymbal light.wav",70
Sample,41589,0,"cymbal light.wav",70
Sample,41882,0,"cymbal light.wav",70
Sample,42175,0,"cymbal light.wav",70
Sample,42467,0,"cymbal light.wav",70
Sample,42760,0,"cymbal light.wav",70
Sample,43053,0,"cymbal light.wav",70
Sample,43345,0,"cymbal light.wav",70
Sample,61904,0,"cymbal light.wav",70
Sample,62710,0,"cymbal light.wav",70
Sample,63515,0,"cymbal light.wav",70
Sample,64320,0,"cymbal light.wav",70
Sample,65126,0,"cymbal light.wav",70
Sample,65528,0,"cymbal light.wav",70
Sample,65931,0,"cymbal light.wav",70
Sample,68347,0,"cymbal light.wav",70
Sample,69153,0,"cymbal light.wav",70
Sample,69958,0,"cymbal light.wav",70
Sample,70763,0,"cymbal light.wav",70
Sample,71569,0,"cymbal light.wav",70
Sample,71971,0,"cymbal light.wav",70
Sample,72374,0,"cymbal light.wav",70
Sample,81636,0,"cymbal light.wav",70
Sample,82441,0,"cymbal light.wav",70
Sample,83246,0,"cymbal light.wav",70
Sample,83649,0,"cymbal light.wav",70
Sample,84857,0,"cymbal light.wav",70

[TimingPoints]
1520,202.702702702703,4,3,1,80,1,0
1520,-144.927536231884,4,3,1,80,0,0
17736,292.682926829268,4,3,1,80,1,0
17736,-100,4,3,1,80,0,0
45833,292.682926829268,3,3,1,80,1,0
45833,-100,3,3,1,80,0,0
52857,292.682926829268,4,3,1,80,1,0
52857,-100,4,3,1,80,0,0
59881,202.702702702703,4,3,1,30,1,0
59881,-144.927536231884,4,3,1,30,0,0
61502,201.342281879195,4,3,1,80,1,0
61502,-144.927536231884,4,3,1,80,0,1
74387,-144.927536231884,4,3,1,80,0,0

[HitObjects]
64,192,1520,5,8,0:0:0:0:
448,192,1520,1,0,0:0:0:0:
192,192,1722,1,0,0:0:0:0:
320,192,1824,1,0,0:0:0:0:
192,192,2026,1,0,0:0:0:0:
320,192,2128,1,2,0:0:0:0:
192,192,2330,1,8,0:0:0:0:
64,192,2330,1,0,0:0:0:0:
448,192,2533,1,0,0:0:0:0:
64,192,2634,1,0,0:0:0:0:
448,192,2837,1,0,0:0:0:0:
64,192,2938,1,2,0:0:0:0:
320,192,3141,1,8,0:0:0:0:
448,192,3141,1,0,0:0:0:0:
64,192,3344,1,0,0:0:0:0:
320,192,3445,1,0,0:0:0:0:
64,192,3648,1,0,0:0:0:0:
320,192,3749,128,0,3952:0:0:0:0:
192,192,3952,1,8,0:0:0:0:
64,192,3952,1,0,0:0:0:0:
448,192,4155,1,0,0:0:0:0:
192,192,4357,128,0,4763:0:0:0:0:
448,192,4560,128,0,4763:0:0:0:0:
320,192,4763,1,2,0:0:0:0:
64,192,4763,1,0,0:0:0:70:cymbal light.wav
448,192,4965,1,8,0:0:0:0:
320,192,5168,1,2,0:0:0:0:
192,192,5168,1,0,0:0:0:70:cymbal light.wav
64,192,5371,1,8,0:0:0:0:
192,192,5574,1,2,0:0:0:0:
448,192,5574,1,0,0:0:0:70:cymbal light.wav
320,192,5776,1,8,0:0:0:0:
64,192,5979,1,2,0:0:0:0:
448,192,5979,1,0,0:0:0:70:cymbal light.wav
320,192,6384,1,2,0:0:0:0:
192,192,6384,1,0,0:0:0:70:cymbal light.wav
64,192,6587,1,8,0:0:0:0:
192,192,6790,1,2,0:0:0:0:
320,192,6790,1,0,0:0:0:70:cymbal light.wav
448,192,6992,1,8,0:0:0:0:
64,192,7195,1,2,0:0:0:0:
320,192,7195,1,0,0:0:0:70:cymbal light.wav
192,192,7398,1,8,0:0:0:0:
448,192,7601,1,2,0:0:0:0:
64,192,7601,1,0,0:0:0:70:cymbal light.wav
192,192,8006,1,2,0:0:0:0:
448,192,8006,1,0,0:0:0:70:cymbal light.wav
320,192,8209,1,8,0:0:0:0:
64,192,8411,1,2,0:0:0:0:
192,192,8411,1,0,0:0:0:70:cymbal light.wav
320,192,8614,1,8,0:0:0:0:
448,192,8817,1,2,0:0:0:0:
64,192,8817,1,0,0:0:0:70:cymbal light.wav
192,192,9020,1,8,0:0:0:0:
320,192,9222,1,2,0:0:0:0:
64,192,9222,1,0,0:0:0:70:cymbal light.wav
448,192,9628,1,0,0:0:0:70:cymbal whistle.wav
320,192,9628,1,0,0:0:0:0:
320,192,10033,1,0,0:0:0:70:cymbal finish.wav
192,192,10033,1,0,0:0:0:0:
192,192,10438,1,0,0:0:0:70:cymbal whistle.wav
64,192,10438,1,0,0:0:0:0:
320,192,10641,1,8,0:0:0:0:
192,192,10742,1,8,0:0:0:0:
448,192,10844,128,8,11249:0:0:0:0:
64,192,11249,1,0,0:0:0:70:cymbal light.wav
192,192,11249,1,0,0:0:0:0:
320,192,11351,1,0,0:0:0:0:
192,192,11452,1,0,0:0:0:0:
64,192,11553,1,0,0:0:0:0:
448,192,11655,1,0,0:0:0:70:cymbal light.wav
192,192,11857,1,8,0:0:0:0:
448,192,12060,1,0,0:0:0:70:cymbal light.wav
64,192,12263,1,8,0:0:0:0:
320,192,12364,1,0,0:0:0:0:
448,192,12668,1,8,0:0:0:0:
64,192,12770,1,0,0:0:0:0:
448,192,12871,1,0,0:0:0:70:cymbal light.wav
320,192,12972,1,0,0:0:0:0:
192,192,13074,1,8,0:0:0:0:
64,192,13175,1,0,0:0:0:0:
320,192,13276,1,0,0:0:0:70:cymbal light.wav
192,192,13378,1,0,0:0:0:0:
448,192,13479,1,8,0:0:0:0:
320,192,13580,1,0,0:0:0:0:
192,192,13682,1,0,0:0:0:70:cymbal light.wav
320,192,13783,1,0,0:0:0:0:
64,192,13884,1,8,0:0:0:0:
192,192,13986,1,0,0:0:0:0:
448,192,14087,1,0,0:0:0:70:cymbal light.wav
320,192,14188,1,0,0:0:0:0:
64,192,14290,1,8,0:0:0:0:
192,192,14391,1,0,0:0:0:0:
448,192,14492,1,0,0:0:0:70:cymbal whistle.wav
320,192,14492,1,0,0:0:0:0:
192,192,14594,1,0,0:0:0:0:
64,192,14695,1,8,0:0:0:0:
448,192,14797,1,0,0:0:0:0:
64,192,14898,1,0,0:0:0:70:cymbal light.wav
448,192,15101,1,8,0:0:0:0:
192,192,15303,1,0,0:0:0:70:cymbal light.wav
448,192,15506,1,8,0:0:0:0:
64,192,15607,1,0,0:0:0:0:
192,192,15911,1,8,0:0:0:0:
320,192,16013,1,0,0:0:0:0:
448,192,16114,1,2,0:0:0:0:
64,192,16317,1,0,0:0:0:0:
448,192,16520,1,2,0:0:0:0:
64,192,16722,1,0,0:0:0:0:
192,192,16925,1,8,0:0:0:0:
448,192,17026,1,0,0:0:0:0:
320,192,17229,1,4,0:0:0:0:
64,192,17229,128,0,17736:0:0:0:0:
448,192,17736,1,8,0:0:0:0:
320,192,17736,1,0,0:0:0:70:cymbal light.wav
192,192,18028,1,8,0:0:0:0:
64,192,18028,1,0,0:0:0:70:cymbal light.wav
448,192,18321,1,8,0:0:0:0:
192,192,18321,1,0,0:0:0:70:cymbal light.wav
64,192,18614,1,8,0:0:0:0:
320,192,18614,1,0,0:0:0:70:cymbal light.wav
448,192,18906,1,8,0:0:0:0:
320,192,18906,1,0,0:0:0:70:cymbal light.wav
64,192,19199,1,8,0:0:0:0:
448,192,19199,1,0,0:0:0:70:cymbal light.wav
192,192,19492,1,8,0:0:0:0:
320,192,19492,1,0,0:0:0:70:cymbal light.wav
192,192,19784,1,8,0:0:0:0:
448,192,19784,1,0,0:0:0:70:cymbal light.wav
64,192,20077,1,8,0:0:0:0:
320,192,20077,1,0,0:0:0:70:cymbal light.wav
192,192,20370,1,8,0:0:0:0:
320,192,20370,1,0,0:0:0:70:cymbal light.wav
448,192,20662,1,8,0:0:0:0:
64,192,20662,1,0,0:0:0:70:cymbal light.wav
320,192,20955,1,8,0:0:0:0:
448,192,20955,1,0,0:0:0:70:cymbal light.wav
64,192,21248,1,8,0:0:0:0:
192,192,21248,1,0,0:0:0:70:cymbal light.wav
64,192,21540,1,8,0:0:0:0:
320,192,21540,1,0,0:0:0:70:cymbal light.wav
192,192,21687,1,4,0:0:0:0:
448,192,21687,1,0,0:0:0:0:
320,192,21979,128,8,22126:0:0:0:0:
64,192,22126,1,8,0:0:0:0:
448,192,22272,128,8,22418:0:0:0:0:
192,192,22418,1,8,0:0:0:0:
64,192,22418,1,0,0:0:0:0:
320,192,22565,1,0,0:0:0:0:
448,192,22711,1,0,0:0:0:0:
64,192,22857,1,0,0:0:0:0:
320,192,23004,1,0,0:0:0:0:
192,192,23150,1,8,0:0:0:0:
64,192,23150,1,0,0:0:0:0:
448,192,23296,1,0,0:0:0:0:
64,192,23443,1,0,0:0:0:0:
320,192,23589,1,2,0:0:0:0:
448,192,23589,1,0,0:0:0:0:
192,192,23735,1,0,0:0:0:0:
320,192,23882,1,0,0:0:0:0:
448,192,24028,1,0,0:0:0:0:
64,192,24175,1,0,0:0:0:0:
448,192,24321,1,8,0:0:0:0:
192,192,24321,1,0,0:0:0:0:
320,192,24467,1,0,0:0:0:0:
192,192,24614,1,0,0:0:0:0:
64,192,24760,1,2,0:0:0:0:
448,192,24760,1,0,0:0:0:0:
320,192,24906,1,0,0:0:0:0:
192,192,25053,1,0,0:0:0:0:
64,192,25199,1,0,0:0:0:0:
320,192,25345,1,0,0:0:0:0:
192,192,25492,1,8,0:0:0:0:
64,192,25492,1,0,0:0:0:0:
448,192,25638,1,0,0:0:0:0:
320,192,25784,1,0,0:0:0:0:
192,192,25931,1,8,0:0:0:0:
64,192,25931,1,0,0:0:0:0:
320,192,26077,1,8,0:0:0:0:
448,192,26077,1,0,0:0:0:0:
192,192,26370,1,8,0:0:0:0:
320,192,26370,1,0,0:0:0:0:
64,192,26662,1,0,0:0:0:0:
448,192,26809,1,0,0:0:0:0:
192,192,26955,1,2,0:0:0:0:
320,192,27101,1,2,0:0:0:0:
448,192,27101,1,0,0:0:0:0:
64,192,27248,1,8,0:0:0:0:
448,192,27394,1,2,0:0:0:0:
192,192,27540,1,8,0:0:0:0:
320,192,27687,1,2,0:0:0:0:
64,192,27833,128,8,28126:0:0:0:0:
448,192,28126,128,8,28565:0:0:0:0:
64,192,28565,1,2,0:0:0:0:
320,192,28857,1,2,0:0:0:0:
192,192,29150,1,2,0:0:0:0:
320,192,29296,1,8,0:0:0:0:
448,192,29589,1,8,0:0:0:0:
192,192,29735,1,2,0:0:0:0:
320,192,29882,1,8,0:0:0:0:
64,192,30028,1,2,0:0:0:0:
448,192,30175,1,8,0:0:0:0:
64,192,30321,1,2,0:0:0:0:
448,192,30467,1,8,0:0:0:0:
192,192,30760,1,8,0:0:0:0:
320,192,30906,1,2,0:0:0:0:
448,192,31053,1,8,0:0:0:0:
64,192,31199,128,2,31492:0:0:0:0:
448,192,31492,128,2,31784:0:0:0:0:
64,192,31784,1,2,0:0:0:0:
192,192,31931,1,8,0:0:0:0:
320,192,32077,1,2,0:0:0:0:
192,192,32223,1,8,0:0:0:0:
320,192,32370,1,2,0:0:0:0:
448,192,32516,128,8,32809:0:0:0:0:
64,192,32809,128,8,33248:0:0:0:0:
320,192,33248,128,2,33540:0:0:0:0:
448,192,33540,1,2,0:0:0:0:
64,192,33687,1,8,0:0:0:0:
448,192,33979,1,8,0:0:0:0:
64,192,34126,1,2,0:0:0:0:
192,192,34126,128,0,34418:0:0:0:0:
320,192,34418,1,2,0:0:0:0:
64,192,34565,128,8,34857:0:0:0:0:
320,192,34857,1,8,0:0:0:0:
192,192,35150,1,8,0:0:0:0:
320,192,35296,1,2,0:0:0:0:
448,192,35296,1,0,0:0:0:0:
64,192,35443,1,8,0:0:0:0:
448,192,35589,1,2,0:0:0:0:
192,192,35735,1,8,0:0:0:0:
64,192,36028,1,8,0:0:0:0:
320,192,36175,1,2,0:0:0:0:
192,192,36467,1,2,0:0:0:0:
448,192,36614,1,8,0:0:0:0:
64,192,36760,1,2,0:0:0:0:
320,192,36906,1,8,0:0:0:0:
192,192,37053,1,2,0:0:0:0:
448,192,37199,1,8,0:0:0:0:
320,192,37492,128,8,37931:0:0:0:0:
192,192,37931,1,2,0:0:0:0:
64,192,38223,1,2,0:0:0:0:
192,192,38516,1,2,0:0:0:0:
320,192,38662,1,8,0:0:0:0:
448,192,38809,128,2,39248:0:0:0:0:
64,192,39394,128,2,39687:0:0:0:0:
448,192,39833,1,8,0:0:0:0:
192,192,39979,1,2,0:0:0:0:
320,192,40126,1,8,0:0:0:0:
64,192,40272,1,2,0:0:0:0:
448,192,40418,1,8,0:0:0:0:
192,192,40711,1,8,0:0:0:0:
64,192,40857,1,2,0:0:0:0:
320,192,41150,1,2,0:0:0:0:
64,192,41296,1,8,0:0:0:0:
448,192,41443,1,2,0:0:0:0:
192,192,41589,1,8,0:0:0:0:
320,192,41735,1,2,0:0:0:0:
64,192,41882,1,8,0:0:0:0:
448,192,42175,128,8,42614:0:0:0:0:
192,192,42614,1,2,0:0:0:0:
64,192,42906,1,2,0:0:0:0:
448,192,43053,1,8,0:0:0:0:
64,192,43345,1,8,0:0:0:0:
320,192,43492,1,2,0:0:0:0:
448,192,43492,1,0,0:0:0:0:
192,192,43784,1,2,0:0:0:0:
64,192,43784,1,0,0:0:0:0:
320,192,44077,1,2,0:0:0:0:
192,192,44077,1,0,0:0:0:0:
320,192,44370,1,2,0:0:0:0:
448,192,44370,1,0,0:0:0:0:
64,192,44662,128,2,44955:0:0:0:0:
448,192,44662,128,0,44955:0:0:0:0:
64,192,45101,128,4,45833:0:0:0:0:
192,192,45101,128,0,45833:0:0:0:0:
320,192,45833,1,2,0:0:0:0:
448,192,45833,1,0,0:0:0:0:
192,192,46418,1,2,0:0:0:0:
448,192,46711,1,8,0:0:0:0:
64,192,47003,1,2,0:0:0:0:
192,192,47296,1,8,0:0:0:0:
448,192,47589,1,2,0:0:0:0:
320,192,47881,1,0,0:0:0:0:
64,192,48174,1,2,0:0:0:0:
448,192,48467,1,8,0:0:0:0:
320,192,48759,1,2,0:0:0:0:
64,192,49052,1,8,0:0:0:0:
192,192,49345,1,2,0:0:0:0:
448,192,49637,1,0,0:0:0:0:
320,192,49930,1,2,0:0:0:0:
192,192,50223,1,8,0:0:0:0:
320,192,50515,1,0,0:0:0:0:
64,192,50808,1,2,0:0:0:0:
448,192,51101,1,8,0:0:0:0:
192,192,51247,1,0,0:0:0:0:
448,192,51540,1,0,0:0:0:0:
192,192,51686,1,2,0:0:0:0:
448,192,51979,1,8,0:0:0:0:
192,192,52125,1,0,0:0:0:0:
64,192,52272,128,0,52418:0:0:0:0:
448,192,52418,1,0,0:0:0:0:
192,192,52564,128,0,52711:0:0:0:0:
320,192,52857,1,2,0:0:0:0:
448,192,52857,1,0,0:0:0:0:
192,192,53149,1,8,0:0:0:0:
64,192,53149,1,0,0:0:0:0:
320,192,53296,1,0,0:0:0:0:
192,192,53588,1,2,0:0:0:0:
320,192,53735,1,8,0:0:0:0:
448,192,53735,1,0,0:0:0:0:
192,192,54027,1,2,0:0:0:0:
320,192,54027,1,0,0:0:0:0:
64,192,54320,1,8,0:0:0:0:
448,192,54320,1,0,0:0:0:0:
192,192,54613,1,2,0:0:0:0:
320,192,54759,1,2,0:0:0:0:
64,192,54905,1,8,0:0:0:0:
192,192,54905,1,0,0:0:0:0:
448,192,55198,1,2,0:0:0:0:
64,192,55491,1,8,0:0:0:0:
320,192,55491,1,0,0:0:0:0:
192,192,55637,1,0,0:0:0:0:
320,192,55930,1,2,0:0:0:0:
192,192,56076,1,8,0:0:0:0:
448,192,56076,1,0,0:0:0:0:
64,192,56222,128,0,56369:0:0:0:0:
320,192,56515,1,2,0:0:0:0:
192,192,56661,1,0,0:0:0:0:
448,192,56808,1,8,0:0:0:0:
320,192,56808,1,0,0:0:0:0:
64,192,56954,1,0,0:0:0:0:
448,192,57100,1,0,0:0:0:0:
192,192,57247,1,0,0:0:0:0:
320,192,57539,128,0,58417:0:0:0:0:
64,192,58417,128,0,58710:0:0:0:0:
448,192,58710,128,0,59296:0:0:0:0:
320,192,59296,128,0,59588:0:0:0:0:
64,192,59588,128,0,59881:0:0:0:0:
192,192,59881,128,0,61097:0:0:0:0:
64,192,61502,1,2,0:0:0:0:
448,192,61502,1,0,0:0:0:70:cymbal light.wav
320,192,61703,1,8,0:0:0:0:
192,192,62106,1,8,0:0:0:0:
320,192,62307,1,2,0:0:0:0:
448,192,62307,1,0,0:0:0:70:cymbal light.wav
64,192,62508,1,8,0:0:0:0:
192,192,62911,1,8,0:0:0:0:
448,192,63112,1,2,0:0:0:0:
64,192,63112,1,0,0:0:0:70:cymbal light.wav
320,192,63314,1,8,0:0:0:0:
192,192,63716,1,8,0:0:0:0:
64,192,63918,1,2,0:0:0:0:
320,192,63918,1,0,0:0:0:70:cymbal light.wav
448,192,64119,1,8,0:0:0:0:
192,192,64522,1,8,0:0:0:0:
448,192,64723,1,2,0:0:0:0:
64,192,64723,1,0,0:0:0:70:cymbal light.wav
320,192,64924,1,8,0:0:0:0:
192,192,65126,1,2,0:0:0:0:
320,192,65327,1,8,0:0:0:0:
448,192,65528,1,2,0:0:0:0:
64,192,65730,1,8,0:0:0:0:
448,192,65830,1,0,0:0:0:0:
192,192,66132,1,8,0:0:0:0:
320,192,66334,1,0,0:0:0:0:
192,192,66535,1,8,0:0:0:0:
64,192,66535,1,0,0:0:0:70:cymbal light.wav
320,192,66938,1,8,0:0:0:0:
192,192,66938,1,0,0:0:0:70:cymbal light.wav
448,192,67340,1,8,0:0:0:0:
320,192,67340,1,0,0:0:0:70:cymbal light.wav
192,192,67743,1,8,0:0:0:0:
64,192,67743,1,0,0:0:0:70:cymbal light.wav
320,192,67944,1,2,0:0:0:0:
448,192,67944,1,0,0:0:0:70:cymbal light.wav
64,192,68146,1,8,0:0:0:0:
320,192,68548,1,8,0:0:0:0:
448,192,68750,1,2,0:0:0:0:
192,192,68750,1,0,0:0:0:70:cymbal light.wav
64,192,68951,1,8,0:0:0:0:
448,192,69354,1,8,0:0:0:0:
320,192,69555,1,2,0:0:0:0:
64,192,69555,1,0,0:0:0:70:cymbal light.wav
192,192,69757,1,8,0:0:0:0:
320,192,70159,1,8,0:0:0:0:
448,192,70361,1,2,0:0:0:0:
64,192,70361,1,0,0:0:0:70:cymbal light.wav
192,192,70562,1,8,0:0:0:0:
320,192,70965,1,8,0:0:0:0:
64,192,71166,1,2,0:0:0:0:
192,192,71166,1,0,0:0:0:70:cymbal light.wav
448,192,71367,1,8,0:0:0:0:
64,192,71569,1,2,0:0:0:0:
320,192,71770,1,8,0:0:0:0:
192,192,71971,1,2,0:0:0:0:
448,192,72173,1,8,0:0:0:0:
64,192,72273,1,0,0:0:0:0:
320,192,72575,1,8,0:0:0:0:
192,192,72777,1,0,0:0:0:70:cymbal whistle.wav
64,192,72777,1,0,0:0:0:0:
192,192,73179,1,0,0:0:0:70:cymbal finish.wav
320,192,73179,1,0,0:0:0:0:
320,192,73582,1,0,0:0:0:70:cymbal whistle.wav
448,192,73582,1,0,0:0:0:0:
64,192,73985,128,4,74387:0:0:0:0:
192,192,73985,128,0,74387:0:0:0:0:
320,192,74387,1,2,0:0:0:0:
448,192,74387,1,0,0:0:0:70:cymbal light.wav
192,192,74589,1,8,0:0:0:0:
448,192,74790,1,2,0:0:0:0:
64,192,74790,1,0,0:0:0:70:cymbal light.wav
320,192,74991,1,8,0:0:0:0:
192,192,75193,1,2,0:0:0:0:
64,192,75193,1,0,0:0:0:70:cymbal light.wav
320,192,75394,1,8,0:0:0:0:
192,192,75595,1,2,0:0:0:0:
448,192,75595,1,0,0:0:0:70:cymbal light.wav
64,192,75998,1,2,0:0:0:0:
192,192,75998,1,0,0:0:0:70:cymbal light.wav
320,192,76199,1,8,0:0:0:0:
448,192,76401,1,2,0:0:0:0:
64,192,76401,1,0,0:0:0:70:cymbal light.wav
192,192,76602,1,8,0:0:0:0:
448,192,76804,1,2,0:0:0:0:
320,192,76804,1,0,0:0:0:70:cymbal light.wav
192,192,77005,1,8,0:0:0:0:
448,192,77206,1,2,0:0:0:0:
64,192,77206,1,0,0:0:0:70:cymbal light.wav
320,192,77609,1,2,0:0:0:0:
64,192,77609,1,0,0:0:0:70:cymbal light.wav
192,192,77810,1,8,0:0:0:0:
448,192,78012,1,2,0:0:0:0:
64,192,78012,1,0,0:0:0:70:cymbal light.wav
320,192,78213,1,8,0:0:0:0:
192,192,78414,1,2,0:0:0:0:
448,192,78414,1,0,0:0:0:70:cymbal light.wav
64,192,78616,1,8,0:0:0:0:
448,192,78817,1,2,0:0:0:0:
320,192,78817,1,0,0:0:0:70:cymbal light.wav
64,192,79220,1,0,0:0:0:70:cymbal whistle.wav
448,192,79220,1,0,0:0:0:0:
192,192,79622,1,0,0:0:0:70:cymbal finish.wav
320,192,79622,1,0,0:0:0:0:
320,192,80025,1,0,0:0:0:70:cymbal whistle.wav
64,192,80025,1,0,0:0:0:0:
192,192,80226,1,8,0:0:0:0:
320,192,80327,1,8,0:0:0:0:
448,192,80428,128,8,80830:0:0:0:0:
64,192,80830,1,2,0:0:0:0:
192,192,80830,1,0,0:0:0:70:cymbal light.wav
320,192,81032,1,8,0:0:0:0:
64,192,81233,1,2,0:0:0:0:
448,192,81233,1,0,0:0:0:70:cymbal light.wav
192,192,81434,1,8,0:0:0:0:
320,192,81636,1,2,0:0:0:0:
192,192,81837,1,8,0:0:0:0:
64,192,82038,1,2,0:0:0:0:
320,192,82038,1,0,0:0:0:70:cymbal light.wav
448,192,82240,1,8,0:0:0:0:
192,192,82441,1,2,0:0:0:0:
448,192,82642,1,8,0:0:0:0:
64,192,82844,1,2,0:0:0:0:
192,192,82844,1,0,0:0:0:70:cymbal light.wav
448,192,83045,1,8,0:0:0:0:
320,192,83246,128,2,83649:0:0:0:0:
192,192,83448,1,8,0:0:0:0:
64,192,83649,128,2,83850:0:0:0:0:
448,192,83850,128,8,84052:0:0:0:0:
192,192,84052,1,2,0:0:0:0:
320,192,84052,1,0,0:0:0:70:cymbal light.wav
64,192,84253,1,8,0:0:0:0:
192,192,84455,1,2,0:0:0:0:
448,192,84455,1,0,0:0:0:70:cymbal light.wav
320,192,84656,1,8,0:0:0:0:
64,192,84857,1,2,0:0:0:0:
448,192,85059,1,8,0:0:0:0:
320,192,85260,1,2,0:0:0:0:
64,192,85260,1,2,0:0:0:70:cymbal light.wav
192,192,85461,1,8,0:0:0:0:
448,192,85663,1,0,0:0:0:70:cymbal whistle.wav
64,192,85663,1,0,0:0:0:0:
320,192,86065,1,0,0:0:0:70:cymbal finish.wav
64,192,86065,1,0,0:0:0:0:
192,192,86468,1,0,0:0:0:70:cymbal whistle.wav
448,192,86468,1,0,0:0:0:0:
64,192,87273,1,0,0:0:0:70:cymbal whistle.wav
448,192,87273,1,0,0:0:0:0:
192,192,87676,1,0,0:0:0:70:cymbal finish.wav
448,192,87676,1,0,0:0:0:0:
320,192,88079,1,0,0:0:0:70:cymbal whistle.wav
64,192,88079,1,0,0:0:0:0:
448,192,88481,1,0,0:0:0:0:
