osu file format v14

[General]
AudioFilename: audio.mp3
AudioLeadIn: 0
PreviewTime: 61463
Countdown: 0
SampleSet: Soft
StackLeniency: 0.4
Mode: 0
LetterboxInBreaks: 0
WidescreenStoryboard: 0

[Editor]
DistanceSpacing: 2.2
BeatDivisor: 4
GridSize: 8
TimelineZoom: 2.464908

[Metadata]
Title:Curtain Call!!!!! (TV Size)
TitleUnicode:かーてんこーる!!!!! (TV Size)
Artist:Gekidan Hitotose
ArtistUnicode:劇団ひととせ
Creator:My Angel RangE
Version:Insane!!!!!
Source:ひなこのーと
Tags:M・A・O Miyu Tomita Yui Ogura Hisako Tojo Marika Kouno 高野麻里佳 東城日沙子 小倉 唯 富田美憂 市道真央 Mao Ichimichi ending Hinako Note Kohei Miyahara KushitaMine 宮原康平 久下真音 ed Beomsan
BeatmapID:1314261
BeatmapSetID:623539

[Difficulty]
HPDrainRate:5
CircleSize:4
OverallDifficulty:7
ApproachRate:9
SliderMultiplier:1.41
SliderTickRate:1

[Events]
//Background and Video events
Video,-130,"874.avi"
0,0,"1.png",0,0
//Break Periods
//Storyboard Layer 0 (Background)
//Storyboard Layer 1 (Fail)
//Storyboard Layer 2 (Pass)
//Storyboard Layer 3 (Foreground)
//Storyboard Sound Samples

[TimingPoints]
1532,202.702702702703,4,2,3,90,1,0
1532,-125,4,2,3,90,0,0
3761,-125,4,2,3,90,0,0
3863,-125,4,2,3,5,0,0
3964,-125,4,2,3,90,0,0
4015,-125,4,2,2,60,0,0
4775,-125,4,2,2,60,0,0
17748,292.682926829268,4,2,2,50,1,0
27113,-90.9090909090909,4,2,2,50,0,0
45845,292.682926829268,6,2,2,50,1,0
45845,-125,6,2,2,50,0,0
52869,292.682926829268,4,2,2,50,1,0
57551,-100,4,2,2,30,0,0
59893,202.702702702703,4,2,2,40,1,0
60703,-142.857142857143,4,2,2,50,0,0
61514,201.342281879195,4,2,2,50,1,1
61514,-90.9090909090909,4,2,2,50,0,1
66497,-90.9090909090909,4,2,2,5,0,1
66547,-90.9090909090909,4,2,2,50,0,1
66648,-90.9090909090909,4,2,2,5,0,1
66698,-90.9090909090909,4,2,2,50,0,1
66899,-90.9090909090909,4,2,2,5,0,1
66950,-90.9090909090909,4,2,2,50,0,1
67050,-90.9090909090909,4,2,2,5,0,1
67101,-90.9090909090909,4,2,2,50,0,1
67302,-90.9090909090909,4,2,2,5,0,1
67352,-90.9090909090909,4,2,2,50,0,1
67453,-90.9090909090909,4,2,2,5,0,1
67503,-90.9090909090909,4,2,2,50,0,1
67705,-90.9090909090909,4,2,2,5,0,1
67755,-90.9090909090909,4,2,2,50,0,1
67856,-90.9090909090909,4,2,2,5,0,1
67906,-90.9090909090909,4,2,2,50,0,1
67956,-90.9090909090909,4,2,3,50,0,1
68007,-90.9090909090909,4,2,2,50,0,1
73594,-125,4,2,2,50,0,1
74399,-100,4,2,2,50,0,0
86480,-125,4,2,2,50,0,0
88091,-166.666666666667,4,2,2,50,0,0
88493,-200,4,2,2,50,0,0

[Colours]
Combo1 : 255,255,91
Combo2 : 255,9,132
Combo3 : 0,99,219
Combo4 : 187,187,255

[HitObjects]
46,335,1532,6,0,P|98:352|169:331,1,112.8,2|2,0:0|0:0,0:0:0:0:
161,194,1836,2,0,P|109:177|38:198,1,112.8,2|2,0:0|0:0,0:0:0:0:
104,264,2140,1,2,0:0:0:0:
177,116,2342,6,0,P|184:56|160:-1,1,112.8,2|2,0:0|0:0,0:0:0:0:
43,80,2646,2,0,P|35:135|53:188,1,112.8,2|2,0:0|0:0,0:0:0:0:
104,264,2950,1,2,0:0:0:0:
268,173,3153,6,0,P|324:160|398:177,1,112.8,2|2,0:0|0:0,0:0:0:0:
390,331,3457,2,0,P|334:344|260:327,1,112.8,2|2,0:0|0:0,0:0:0:0:
330,251,3761,2,0,L|408:244,1,56.4,2|0,0:0|0:0,0:0:0:0:
268,173,3964,6,0,L|137:171,1,112.8
58,262,4268,1,0,0:0:0:0:
58,262,4369,2,0,L|247:251,1,169.2
286,147,4775,6,0,P|293:90|276:18,1,112.8,0|8,0:0|0:0,0:0:0:0:
394,132,5079,1,0,0:0:0:0:
394,132,5180,2,0,L|407:198,1,56.4
479,79,5383,2,0,L|485:8,1,56.4,8|0,0:0|0:0,0:0:0:0:
473,303,5586,6,0,B|437:285|437:285|343:299,1,112.8,0|8,0:0|0:0,0:0:0:0:
309,368,5890,2,0,B|345:386|345:386|436:372,1,112.8
268,288,6194,2,0,L|189:288,1,56.4,8|0,0:0|0:0,0:0:0:0:
133,366,6396,6,0,B|142:335|142:335|123:233,1,112.8,0|8,0:0|0:0,0:0:0:0:
220,90,6700,1,0,0:0:0:0:
220,90,6802,2,0,B|211:121|211:121|230:223,1,112.8,0|8,0:0|0:0,0:0:0:0:
220,335,7106,1,0,0:0:0:0:
220,335,7207,6,0,L|341:325,1,112.8,0|8,0:0|0:0,0:0:0:0:
223,219,7511,2,0,L|102:209,1,112.8
190,97,7815,2,0,L|263:90,1,56.4,8|0,0:0|0:0,0:0:0:0:
349,154,8018,6,0,L|339:286,1,112.8,0|8,0:0|0:0,0:0:0:0:
403,335,8322,1,0,0:0:0:0:
403,335,8423,2,0,L|466:330,1,56.4
259,226,8626,2,0,L|198:219,1,56.4,8|0,0:0|0:0,0:0:0:0:
187,354,8829,6,0,B|224:340|224:340|296:348,1,112.8,0|8,0:0|0:0,0:0:0:0:
149,288,9133,2,0,B|112:302|112:302|39:293,1,112.8
81,179,9437,2,0,L|155:175,1,56.4,8|0,0:0|0:0,0:0:0:0:
258,25,9640,6,0,L|247:163,1,112.8,8|0,0:0|0:0,0:0:0:0:
346,204,9944,1,0,0:0:0:0:
346,204,10045,2,0,L|413:199,1,56.4,8|0,0:0|0:0,0:0:0:0:
286,286,10248,2,0,L|346:299,1,56.4
227,368,10450,6,0,B|184:356|184:356|110:369,1,112.8,8|0,0:0|0:0,0:0:0:0:
197,160,10754,1,0,0:0:0:0:
197,160,10856,2,0,L|186:288,1,112.8,8|0,0:0|0:0,0:0:0:0:
61,184,11160,1,0,0:0:0:0:
187,272,11261,6,0,P|234:272|264:289,1,56.4
61,184,11464,2,0,P|14:184|-16:201,1,56.4,8|0,0:0|0:0,0:0:0:0:
136,96,11667,2,0,L|248:87,1,112.8,0|8,0:0|0:0,0:0:0:0:
179,191,11971,1,0,0:0:0:0:
179,191,12072,6,0,L|300:182,1,112.8,0|8,0:0|0:0,0:0:0:0:
215,312,12376,2,0,L|94:303,1,112.8
200,165,12680,2,0,L|279:158,1,56.4,8|0,0:0|0:0,0:0:0:0:
357,246,12883,6,0,P|358:293|349:318,1,56.4
409,126,13086,2,0,P|404:98|407:70,1,56.4,8|0,0:0|0:0,0:0:0:0:
378,229,13288,2,0,P|379:276|370:301,1,56.4
432,135,13491,2,0,P|427:107|430:79,1,56.4,8|0,0:0|0:0,0:0:0:0:
437,260,13694,5,0,0:0:0:0:
410,238,13795,1,0,0:0:0:0:
378,229,13896,1,8,0:0:0:0:
345,232,13998,1,0,0:0:0:0:
318,255,14099,2,0,L|332:309,1,56.4,8|0,0:0|0:0,0:0:0:0:
215,197,14302,2,0,L|230:143,1,56.4,8|8,0:0|0:0,0:0:0:0:
139,297,14504,6,0,B|184:281|184:281|247:294,1,112.8,4|8,0:0|0:0,0:0:0:0:
194,382,14809,1,0,0:0:0:0:
121,193,14910,2,0,L|130:120,1,56.4
34,301,15113,2,0,L|40:356,1,56.4,8|0,0:0|0:0,0:0:0:0:
11,190,15315,6,0,B|51:201|51:201|122:193,1,112.8,0|8,0:0|0:0,0:0:0:0:
48,41,15619,1,0,0:0:0:0:
48,41,15721,2,0,L|56:113,1,56.4
116,250,15923,2,0,L|122:193,1,56.4,8|0,0:0|0:0,0:0:0:0:
269,71,16126,6,0,B|221:61|221:61|159:74,1,112.8,8|0,0:0|0:0,0:0:0:0:
350,206,16430,1,0,0:0:0:0:
290,44,16532,2,0,B|242:34|242:34|180:46,1,112.8,8|0,0:0|0:0,0:0:0:0:
370,183,16836,1,0,0:0:0:0:
314,20,16937,6,0,L|234:3,1,56.4,8|0,0:0|0:0,0:0:0:0:
333,231,17241,1,8,0:0:0:0:
102,126,17748,6,0,P|91:83|101:37,1,70.5
207,107,18040,2,0,P|208:142|198:175,1,70.5,8|0,0:0|0:0,0:0:0:0:
279,23,18333,1,0,0:0:0:0:
279,23,18479,1,0,0:0:0:0:
353,104,18626,2,0,L|449:99,1,70.5,8|0,0:0|0:0,0:0:0:0:
268,179,18918,6,0,L|172:174,1,70.5
354,249,19211,1,8,0:0:0:0:
354,249,19357,1,0,0:0:0:0:
264,304,19504,2,0,L|268:375,1,70.5
197,175,19796,2,0,L|201:105,1,70.5,8|0,0:0|0:0,0:0:0:0:
130,307,20089,6,0,B|197:283|197:283|264:304,1,141,0|8,0:0|0:0,0:0:0:0:
170,179,20528,1,0,0:0:0:0:
53,338,20674,2,0,P|49:284|64:252,1,70.5
177,98,20967,2,0,P|184:132|177:166,1,70.5,8|0,0:0|0:0,0:0:0:0:
103,0,21260,5,0,0:0:0:0:
103,0,21406,1,0,0:0:0:0:
20,127,21552,2,0,L|90:136,1,70.5,8|0,0:0|0:0,0:0:0:0:
274,241,21845,2,0,L|204:249,1,70.5
107,363,22138,1,8,0:0:0:0:
107,363,22284,1,0,0:0:0:0:
17,242,22430,6,0,B|4:194|4:194|30:87,1,141,0|8,0:0|0:0,0:0:0:0:
113,184,22869,1,0,0:0:0:0:
175,33,23016,2,0,L|186:126,1,70.5
105,254,23308,2,0,L|113:183,1,70.5,8|0,0:0|0:0,0:0:0:0:
168,336,23601,6,0,P|238:314|323:344,1,141,0|8,0:0|0:0,0:0:0:0:
350,199,24040,1,0,0:0:0:0:
473,300,24187,2,0,L|403:295,1,70.5
279,204,24479,2,0,L|349:198,1,70.5,8|0,0:0|0:0,0:0:0:0:
453,92,24772,6,0,L|292:86,1,141,0|8,0:0|0:0,0:0:0:0:
216,0,25211,1,0,0:0:0:0:
158,142,25357,2,0,P|188:125|213:100,1,70.5
63,21,25650,2,0,P|59:57|86:106,1,70.5,8|0,0:0|0:0,0:0:0:0:
247,241,25943,5,0,0:0:0:0:
247,241,26089,2,0,L|177:237,1,70.5
48,339,26382,2,0,B|95:355|95:355|193:336,1,141
118,142,26821,1,8,0:0:0:0:
118,142,26967,1,0,0:0:0:0:
198,262,27113,6,0,L|185:338,1,77.5500023666383
272,124,27406,2,0,L|259:47,1,77.5500023666383,8|0,0:0|0:0,0:0:0:0:
403,114,27699,1,0,0:0:0:0:
306,236,27845,2,0,P|267:244|210:223,1,77.5500023666383,0|8,0:0|0:0,0:0:0:0:
113,48,28138,6,0,P|191:25|264:51,1,155.100004733277
180,189,28577,2,0,L|187:112,1,77.5500023666383,8|0,0:0|0:0,0:0:0:0:
96,230,28869,1,0,0:0:0:0:
96,230,29016,1,0,0:0:0:0:
23,63,29162,2,0,L|29:161,1,77.5500023666383,8|0,0:0|0:0,0:0:0:0:
90,384,29455,6,0,L|96:223,1,155.100004733277,0|8,0:0|0:0,0:0:0:0:
199,327,29894,1,0,0:0:0:0:
240,121,30040,2,0,L|234:224,1,77.5500023666383
362,347,30333,2,0,L|352:269,1,77.5500023666383,8|0,0:0|0:0,0:0:0:0:
423,150,30626,5,0,0:0:0:0:
423,150,30772,1,0,0:0:0:0:
474,315,30918,2,0,L|391:303,1,77.5500023666383,8|0,0:0|0:0,0:0:0:0:
162,194,31211,2,0,B|240:176|240:176|302:217,1,155.100004733277,0|8,0:0|0:0,0:0:0:0:
215,304,31650,1,0,0:0:0:0:
90,146,31796,6,0,P|74:193|98:245,1,77.5500023666383
152,346,32089,2,0,P|154:292|136:260,1,77.5500023666383,8|0,0:0|0:0,0:0:0:0:
54,321,32382,1,0,0:0:0:0:
179,194,32528,1,0,0:0:0:0:
179,194,32674,1,8,0:0:0:0:
267,350,32821,6,0,B|309:364|349:356|349:356|395:348|423:356,1,155.100004733277
361,258,33260,2,0,P|322:263|268:242,1,77.5500023666383,8|0,0:0|0:0,0:0:0:0:
150,105,33552,2,0,P|189:100|243:121,1,77.5500023666383
118,1,33845,1,8,0:0:0:0:
118,1,33991,1,0,0:0:0:0:
28,133,34138,6,0,B|13:180|13:180|31:303,1,155.100004733277,0|8,0:0|0:0,0:0:0:0:
177,347,34577,1,0,0:0:0:0:
219,193,34723,2,0,L|119:192,1,77.5500023666383
191,333,35016,2,0,L|291:332,1,77.5500023666383,8|0,0:0|0:0,0:0:0:0:
328,161,35308,6,0,L|158:160,1,155.100004733277,0|8,0:0|0:0,0:0:0:0:
299,78,35747,1,0,0:0:0:0:
384,233,35894,2,0,L|374:326,1,77.5500023666383
458,127,36187,2,0,L|447:50,1,77.5500023666383,8|0,0:0|0:0,0:0:0:0:
384,233,36479,6,0,B|312:211|312:211|212:236,1,155.100004733277,0|8,0:0|0:0,0:0:0:0:
308,315,36918,1,0,0:0:0:0:
357,124,37065,2,0,L|350:18,1,77.5500023666383
384,233,37357,1,8,0:0:0:0:
137,125,37504,6,0,P|201:83|277:89,1,155.100004733277
173,209,37943,2,0,P|116:214|75:191,1,77.5500023666383,8|0,0:0|0:0,0:0:0:0:
135,334,38235,1,0,0:0:0:0:
135,334,38382,1,0,0:0:0:0:
14,224,38528,2,0,P|28:156|55:139,1,77.5500023666383,8|0,0:0|0:0,0:0:0:0:
152,76,38821,6,0,B|106:89|106:89|-22:73,1,155.100004733277,0|8,0:0|0:0,0:0:0:0:
143,175,39260,1,0,0:0:0:0:
234,46,39406,2,0,P|239:84|227:121,1,77.5500023666383
150,250,39699,2,0,P|136:213|143:176,1,77.5500023666383,8|0,0:0|0:0,0:0:0:0:
243,314,39991,6,0,L|415:306,1,155.100004733277,0|8,0:0|0:0,0:0:0:0:
303,197,40430,1,0,0:0:0:0:
160,347,40577,2,0,P|161:285|183:256,1,77.5500023666383
295,122,40869,2,0,P|308:158|302:196,1,77.5500023666383,8|0,0:0|0:0,0:0:0:0:
178,35,41162,6,0,B|233:51|233:51|351:30,1,155.100004733277,0|8,0:0|0:0,0:0:0:0:
226,183,41601,1,0,0:0:0:0:
226,183,41747,1,0,0:0:0:0:
100,38,41894,2,0,L|200:34,1,77.5500023666383,0|8,0:0|0:0,0:0:0:0:
226,183,42187,6,0,L|58:180,1,155.100004733277
147,344,42626,2,0,P|159:283|145:249,1,77.5500023666383,8|0,0:0|0:0,0:0:0:0:
62,105,42918,2,0,P|57:143|70:179,1,77.5500023666383
171,0,43211,1,8,0:0:0:0:
171,0,43357,1,0,0:0:0:0:
287,110,43504,6,0,P|211:100|142:133,1,155.100004733277,0|8,0:0|0:0,0:0:0:0:
233,227,43943,1,0,0:0:0:0:
362,76,44089,2,0,P|368:116|350:164,1,77.5500023666383
461,305,44382,2,0,P|450:267|457:229,1,77.5500023666383,8|0,0:0|0:0,0:0:0:0:
309,284,44674,6,0,P|231:320|157:288,1,155.100004733277,0|8,0:0|0:0,0:0:0:0:
156,172,45113,2,0,P|234:136|308:168,1,155.100004733277
382,303,45552,2,0,P|346:300|287:264,1,77.5500023666383,8|0,0:0|0:0,0:0:0:0:
195,333,45845,6,0,P|140:328|76:367,1,112.8
144,232,46284,1,0,0:0:0:0:
21,184,46430,2,0,L|29:239,1,56.4,8|0,0:0|0:0,0:0:0:0:
113,130,46723,2,0,B|124:96|124:96|105:1,2,112.8,0|8|0,0:0|0:0|0:0,0:0:0:0:
192,200,47454,1,0,0:0:0:0:
355,59,47601,6,0,L|243:66,1,112.8,0|8,0:0|0:0,0:0:0:0:
322,174,48040,1,0,0:0:0:0:
439,36,48186,2,0,P|442:70|431:96,1,56.4
478,236,48479,2,0,P|469:210|468:182,1,56.4,8|0,0:0|0:0,0:0:0:0:
372,272,48771,2,0,P|371:300|362:326,1,56.4,8|0,0:0|0:0,0:0:0:0:
307,167,49064,2,0,P|325:146|351:134,1,56.4,8|0,0:0|0:0,0:0:0:0:
252,281,49357,6,0,B|223:294|194:286|194:286|158:294|120:278,1,112.8,0|8,0:0|0:0,0:0:0:0:
169,185,49796,2,0,P|206:180|242:193,1,56.4
98,101,50088,1,0,0:0:0:0:
40,193,50235,2,0,L|44:270,1,56.4,8|0,0:0|0:0,0:0:0:0:
137,379,50527,2,0,B|146:346|146:346|131:268,1,112.8,0|8,0:0|0:0,0:0:0:0:
45,358,50966,1,0,0:0:0:0:
236,368,51113,6,0,L|364:359,1,112.8,2|2,0:0|0:0,0:0:0:0:
422,274,51552,1,0,0:0:0:0:
251,228,51698,2,0,L|312:230,1,56.4,2|2,0:0|0:0,0:0:0:0:
192,146,51991,1,2,0:0:0:0:
192,146,52137,1,0,0:0:0:0:
137,236,52284,2,0,L|150:312,1,56.4,2|0,0:0|0:0,0:0:0:0:
83,120,52576,2,0,L|92:64,1,56.4,2|0,0:0|0:0,0:0:0:0:
24,218,52869,6,0,L|49:363,1,141,0|8,0:0|0:0,0:0:0:0:
142,150,53308,1,0,0:0:0:0:
263,243,53454,2,0,P|194:242|146:291,1,141,0|8,0:0|0:0,0:0:0:0:
348,148,53893,6,0,L|337:0,1,141
457,171,54332,1,8,0:0:0:0:
457,171,54478,1,0,0:0:0:0:
308,258,54625,2,0,L|220:236,1,70.5
386,336,54917,2,0,L|457:328,1,70.5,8|0,0:0|0:0,0:0:0:0:
342,226,55210,6,0,L|172:228,1,141,0|8,0:0|0:0,0:0:0:0:
64,67,55649,1,0,0:0:0:0:
121,284,55795,2,0,P|109:231|118:192,1,70.5
247,55,56088,2,0,P|247:90|236:123,1,70.5,8|0,0:0|0:0,0:0:0:0:
25,84,56381,6,0,L|166:77,1,141,0|8,0:0|0:0,0:0:0:0:
14,0,56820,1,0,0:0:0:0:
68,189,56966,2,0,L|78:272,1,70.5
166,77,57259,2,0,L|174:7,1,70.5,8|0,0:0|0:0,0:0:0:0:
232,183,57551,6,0,B|146:178,1,70.5
313,284,57844,2,0,B|243:289,1,70.5
409,172,58137,2,0,P|415:207|405:241,1,70.5
316,86,58429,2,0,P|310:120|319:153,1,70.5
350,3,58722,6,0,L|182:-1,1,141
274,79,59161,1,0,0:0:0:0:
191,136,59308,2,0,L|94:121,1,70.5
249,214,59600,1,4,0:0:0:0:
365,295,59893,5,0,0:0:0:0:
305,128,60095,1,8,0:0:0:0:
248,314,60298,1,0,0:0:0:0:
189,136,60501,1,8,0:0:0:0:
148,276,60703,1,0,0:0:0:0:
80,134,60906,6,0,L|68:193,1,49.3499984939576,8|0,0:0|0:0,0:0:0:0:
148,276,61109,2,0,L|157:324,1,49.3499984939576,8|0,0:0|0:0,0:0:0:0:
100,154,61312,2,0,L|90:202,1,49.3499984939576,8|0,0:0|0:0,0:0:0:0:
44,76,61514,6,0,P|123:61|191:120,1,155.100004733277,4|8,0:0|0:0,0:0:0:0:
148,276,61816,2,0,P|69:291|1:232,1,155.100004733277
181,101,62118,2,0,L|176:179,1,77.5500023666383,8|0,0:0|0:0,0:0:0:0:
283,270,62319,6,0,L|279:95,1,155.100004733277,0|8,0:0|0:0,0:0:0:0:
264,10,62621,1,0,0:0:0:0:
374,53,62722,2,0,L|450:67,1,77.5500023666383
363,179,62923,2,0,L|475:158,1,77.5500023666383,8|0,0:0|0:0,0:0:0:0:
187,30,63124,6,0,B|159:82|159:82|177:189,1,155.100004733277,0|8,0:0|0:0,0:0:0:0:
254,107,63426,1,0,0:0:0:0:
88,37,63527,2,0,P|74:90|90:139,1,77.5500023666383
186,252,63728,2,0,P|188:213|175:177,1,77.5500023666383,8|0,0:0|0:0,0:0:0:0:
88,345,63930,6,0,B|142:330|142:330|255:345,1,155.100004733277,0|8,0:0|0:0,0:0:0:0:
339,251,64232,2,0,B|285:266|285:266|172:251,1,155.100004733277
281,105,64534,2,0,L|278:201,1,77.5500023666383,8|0,0:0|0:0,0:0:0:0:
191,77,64735,6,0,L|184:-1,1,77.5500023666383
281,105,64936,2,0,L|373:101,1,77.5500023666383,8|0,0:0|0:0,0:0:0:0:
181,167,65138,2,0,P|124:161|78:173,1,77.5500023666383
276,225,65339,2,0,P|334:209|383:214,1,77.5500023666383,8|0,0:0|0:0,0:0:0:0:
279,341,65540,6,0,B|229:359|229:359|122:339,1,155.100004733277,0|8,0:0|0:0,0:0:0:0:
50,246,65842,1,0,0:0:0:0:
50,246,65943,2,0,B|100:228|100:228|207:248,1,155.100004733277,0|8,0:0|0:0,0:0:0:0:
165,141,66245,1,0,0:0:0:0:
165,141,66346,6,0,P|169:43|160:23,1,116.325003549957
175,37,66547,2,0,L|277:32,1,77.5500023666383,4|0,0:0|0:0,0:0:0:0:
438,109,66748,6,0,L|291:104,1,116.325003549957
314,90,66950,2,0,P|305:119|315:180,1,77.5500023666383,4|0,0:0|0:0,0:0:0:0:
433,362,67151,6,0,P|445:309|408:225,1,116.325003549957
438,240,67352,2,0,L|345:239,1,77.5500023666383,4|0,0:0|0:0,0:0:0:0:
163,345,67554,6,0,L|301:340,1,116.325003549957
277,354,67755,2,0,P|287:316|275:255,1,77.5500023666383,4|0,0:0|0:0,0:0:0:0:
178,103,67956,6,0,L|198:281,1,155.100004733277,4|8,0:0|0:0,0:0:0:0:
278,168,68258,2,0,L|295:13,1,155.100004733277,0|0,0:0|0:0,0:0:0:0:
84,75,68560,2,0,P|82:121|97:164,1,77.5500023666383,8|0,0:0|0:0,0:0:0:0:
4,67,68762,6,0,P|0:141|45:220,1,155.100004733277,0|8,0:0|0:0,0:0:0:0:
178,103,69064,1,0,0:0:0:0:
170,304,69165,2,0,L|172:212,1,77.5500023666383
71,343,69366,1,8,0:0:0:0:
71,343,69467,1,0,0:0:0:0:
265,253,69567,6,0,P|307:242|368:258,1,77.5500023666383
346,353,69769,2,0,P|304:364|243:348,1,77.5500023666383,8|0,0:0|0:0,0:0:0:0:
171,226,69970,2,0,L|180:302,1,77.5500023666383
252,130,70171,1,8,0:0:0:0:
252,130,70272,1,0,0:0:0:0:
148,28,70373,6,0,B|194:45|194:45|317:28,1,155.100004733277,0|8,0:0|0:0,0:0:0:0:
404,133,70675,2,0,B|358:116|358:116|235:133,1,155.100004733277
171,226,70977,2,0,L|256:215,1,77.5500023666383,8|0,0:0|0:0,0:0:0:0:
81,45,71178,6,0,B|60:96|60:96|75:211,1,155.100004733277,0|8,0:0|0:0,0:0:0:0:
151,122,71480,1,0,0:0:0:0:
151,122,71581,2,0,L|159:211,1,77.5500023666383
227,63,71782,2,0,L|233:140,1,77.5500023666383,8|0,0:0|0:0,0:0:0:0:
384,204,71983,6,0,P|309:193|250:240,1,155.100004733277,0|8,0:0|0:0,0:0:0:0:
274,335,72285,2,0,P|348:345|408:299,1,155.100004733277
243,162,72587,2,0,L|251:258,1,77.5500023666383,8|0,0:0|0:0,0:0:0:0:
384,204,72789,6,0,L|362:34,1,155.100004733277,0|8,0:0|0:0,0:0:0:0:
218,150,73091,1,0,0:0:0:0:
218,150,73191,2,0,L|195:336,1,155.100004733277,0|8,0:0|0:0,0:0:0:0:
65,86,73594,6,0,L|-2:71,1,56.4
132,162,73795,2,0,L|196:153,1,56.4,8|0,0:0|0:0,0:0:0:0:
270,78,73997,2,0,P|275:52|273:35,6,28.2,0|0|0|0|8|0|0,0:0|0:0|0:0|0:0|0:0|0:0|0:0,0:0:0:0:
272,215,74399,6,0,L|287:317,1,70.5,4|0,0:0|0:0,0:0:0:0:
370,144,74601,2,0,L|380:74,1,70.5,8|0,0:0|0:0,0:0:0:0:
258,199,74802,2,0,L|273:301,1,70.5
356,128,75003,2,0,L|366:58,1,70.5,8|0,0:0|0:0,0:0:0:0:
418,278,75205,6,0,B|378:296|378:296|277:284,1,141,0|8,0:0|0:0,0:0:0:0:
210,160,75507,2,0,B|250:142|250:142|351:154,1,141
134,196,75809,2,0,P|126:161|134:127,1,70.5,8|0,0:0|0:0,0:0:0:0:
246,49,76010,6,0,L|165:45,1,70.5
64,131,76211,2,0,L|145:127,1,70.5,8|0,0:0|0:0,0:0:0:0:
254,60,76413,2,0,L|173:56,1,70.5
72,142,76614,2,0,L|153:138,1,70.5,8|0,0:0|0:0,0:0:0:0:
251,317,76816,6,0,B|270:280|270:280|247:153,1,141,0|8,0:0|0:0,0:0:0:0:
142,138,77118,2,0,B|123:175|123:175|146:302,1,141
240,348,77420,2,0,L|332:338,1,70.5,8|0,0:0|0:0,0:0:0:0:
432,235,77621,6,0,L|423:321,1,70.5
317,148,77822,2,0,L|326:234,1,70.5,8|0,0:0|0:0,0:0:0:0:
448,254,78024,2,0,L|439:340,1,70.5
333,167,78225,2,0,L|342:253,1,70.5,8|0,0:0|0:0,0:0:0:0:
237,197,78426,6,0,B|183:181|183:181|90:200,1,141,0|8,0:0|0:0,0:0:0:0:
283,299,78728,2,0,B|337:315|337:315|430:296,1,141
338,96,79030,2,0,L|331:191,1,70.5,8|0,0:0|0:0,0:0:0:0:
424,140,79232,6,0,P|429:67|383:11,1,141,8|0,0:0|0:0,0:0:0:0:
338,96,79534,1,0,0:0:0:0:
258,24,79634,2,0,L|253:126,1,70.5,8|0,0:0|0:0,0:0:0:0:
179,201,79836,2,0,L|175:130,1,70.5
97,19,80037,6,0,L|85:182,1,141,8|0,0:0|0:0,0:0:0:0:
86,329,80339,1,0,0:0:0:0:
52,250,80440,2,0,P|89:241|139:264,1,70.5,8|0,0:0|0:0,0:0:0:0:
250,167,80641,2,0,P|213:158|163:181,1,70.5,8|0,0:0|0:0,0:0:0:0:
182,323,80842,6,0,B|228:348|228:348|339:338,1,141,0|8,0:0|0:0,0:0:0:0:
253,266,81144,2,0,B|207:241|207:241|96:251,1,141
28,333,81446,2,0,L|119:327,1,70.5,8|0,0:0|0:0,0:0:0:0:
215,164,81648,6,0,P|232:114|196:25,1,141,0|8,0:0|0:0,0:0:0:0:
99,46,81950,2,0,P|82:96|118:185,1,141
182,272,82252,2,0,L|263:265,1,70.5,8|0,0:0|0:0,0:0:0:0:
215,164,82453,6,0,P|157:131|109:179,1,141,0|8,0:0|0:0,0:0:0:0:
111,279,82755,2,0,L|252:265,1,141
138,375,83057,2,0,L|38:368,1,70.5,8|0,0:0|0:0,0:0:0:0:
259,124,83258,6,0,L|251:281,1,141,0|8,0:0|0:0,0:0:0:0:
312,355,83560,1,0,0:0:0:0:
355,265,83661,2,0,P|394:291|409:326,1,70.5
402,182,83862,2,0,P|441:180|489:197,1,70.5,8|0,0:0|0:0,0:0:0:0:
341,107,84064,6,0,B|300:125|300:125|196:117,1,141,0|8,0:0|0:0,0:0:0:0:
275,29,84366,2,0,B|316:11|316:11|420:19,1,141
348,177,84668,2,0,L|338:81,1,70.5,8|0,0:0|0:0,0:0:0:0:
254,205,84869,6,0,L|250:373,1,141,0|8,0:0|0:0,0:0:0:0:
156,249,85171,2,0,L|152:108,1,141
46,202,85473,2,0,L|58:286,1,70.5,8|0,0:0|0:0,0:0:0:0:
15,101,85675,6,0,B|55:118|55:118|169:106,1,141,0|8,0:0|0:0,0:0:0:0:
232,27,85977,2,0,B|192:10|192:10|78:22,1,141
81,145,86279,2,0,L|166:135,1,70.5,8|0,0:0|0:0,0:0:0:0:
312,245,86480,6,0,P|204:214|276:341,1,338.4,4|0,0:0|0:0,0:0:0:0:
232,131,87285,6,0,L|97:147,1,112.8,4|8,0:0|0:0,0:0:0:0:
321,103,87587,2,0,P|296:59|238:36,1,112.8,4|0,0:0|0:0,0:0:0:0:
118,237,87889,2,0,L|177:227,1,56.4,12|0,0:0|0:0,0:0:0:0:
330,209,88091,6,0,B|349:256|349:256|331:330,1,126.899996127319,4|0,0:0|0:0,0:0:0:0:
244,160,88493,5,0,0:0:0:0:
