osu file format v14

[General]
AudioFilename: audio.mp3
AudioLeadIn: 0
PreviewTime: 61463
Countdown: 0
SampleSet: Normal
StackLeniency: 0.4
Mode: 0
LetterboxInBreaks: 0
WidescreenStoryboard: 1

[Editor]
DistanceSpacing: 0.7
BeatDivisor: 4
GridSize: 4
TimelineZoom: 2.464908

[Metadata]
Title:Curtain Call!!!!! (TV Size)
TitleUnicode:かーてんこーる!!!!! (TV Size)
Artist:Gekidan Hitotose
ArtistUnicode:劇団ひととせ
Creator:My Angel RangE
Version:Beom's Encore stage!!!!!
Source:ひなこのーと
Tags:M・A・O Miyu Tomita Yui Ogura Hisako Tojo Marika Kouno 高野麻里佳 東城日沙子 小倉 唯 富田美憂 市道真央 Mao Ichimichi ending Hinako Note Kohei Miyahara KushitaMine 宮原康平 久下真音 ed Beomsan
BeatmapID:1350704
BeatmapSetID:623539

[Difficulty]
HPDrainRate:6
CircleSize:4.2
OverallDifficulty:9
ApproachRate:9.4
SliderMultiplier:1.67
SliderTickRate:1

[Events]
//Background and Video events
Video,-130,"874.avi"
0,0,"2.png",0,0
//Break Periods
//Storyboard Layer 0 (Background)
//Storyboard Layer 1 (Fail)
//Storyboard Layer 2 (Pass)
//Storyboard Layer 3 (Foreground)
//Storyboard Sound Samples

[TimingPoints]
1532,202.702702702703,4,1,99,60,1,0
4775,-114.942528735632,4,1,99,60,0,0
11211,-114.942528735632,4,1,99,5,0,0
11261,-126.582278481013,4,1,99,90,0,0
17748,292.682926829268,4,1,99,60,1,0
17748,-125,4,1,99,60,0,0
22430,-113.636363636364,4,1,99,60,0,0
26382,-100,4,1,99,60,0,0
27113,-113.636363636364,4,1,99,60,0,0
42333,-83.3333333333333,4,1,99,60,0,0
42552,-83.3333333333333,4,1,99,5,0,0
42626,-83.3333333333333,4,1,99,60,0,0
42845,-83.3333333333333,4,1,99,5,0,0
42918,-113.636363636364,4,1,99,60,0,0
43504,-83.3333333333333,4,1,99,60,0,0
45845,292.682926829268,6,2,99,60,1,0
45845,-166.666666666667,6,2,99,60,0,0
52869,292.682926829268,4,1,99,60,1,0
52869,-125,4,1,99,60,0,0
57551,-125,4,2,99,60,0,0
59893,202.702702702703,4,1,99,40,1,0
60906,-166.666666666667,4,1,99,40,0,0
61514,201.342281879195,4,1,99,60,1,1
73997,-100,4,1,99,60,0,0
74399,-100,4,1,99,60,0,1
86480,-200,4,1,99,60,0,0
87285,-100,4,1,99,60,0,1
88091,-200,4,1,99,60,0,0

[Colours]
Combo1 : 255,255,91
Combo2 : 255,9,132
Combo3 : 0,99,219
Combo4 : 187,187,255

[HitObjects]
389,115,1532,6,0,L|211:137,1,167,2|2,0:0|0:0,0:0:0:0:
77,227,1836,2,0,L|255:249,1,167,2|2,0:0|0:0,0:0:0:0:
396,326,2140,2,0,L|312:338,1,83.5,2|0,0:0|0:0,0:0:0:0:
223,135,2342,6,0,P|190:76|236:-4,1,167,2|2,0:0|0:0,0:0:0:0:
362,113,2646,2,0,P|395:172|349:252,1,167,2|2,0:0|0:0,0:0:0:0:
200,336,2950,2,2,L|116:348,1,83.5
35,125,3153,6,0,L|213:147,1,167,2|2,0:0|0:0,0:0:0:0:
375,331,3457,2,0,L|197:353,1,167,2|2,0:0|0:0,0:0:0:0:
188,133,3761,2,0,L|326:117,1,125.25,2|0,0:0|0:0,0:0:0:0:
367,55,3964,6,0,L|400:24,3,41.75,2|0|0|0,0:0|0:0|0:0|0:0,0:0:0:0:
399,140,4167,2,0,L|442:153,3,41.75
338,201,4369,6,0,L|348:245,3,41.75
249,186,4572,2,0,L|215:216,3,41.75
223,298,4775,6,0,L|138:290,1,72.6450006096611,6|0,0:0|0:0,0:0:0:0:
23,175,4977,2,0,L|108:183,1,72.6450006096611
151,306,5180,2,0,L|66:314,1,72.6450006096611,2|0,0:0|0:0,0:0:0:0:
164,112,5383,2,0,L|249:104,1,72.6450006096611
383,223,5586,6,0,B|319:188|319:188|248:221,1,145.290001219322,2|0,0:0|0:0,0:0:0:0:
316,286,5890,1,2,0:0:0:0:
390,135,5991,2,0,L|387:55,1,72.6450006096611
233,32,6194,2,0,L|236:112,1,72.6450006096611
139,220,6396,6,0,P|116:190|83:177,1,72.6450006096611,2|0,0:0|0:0,0:0:0:0:
233,179,6599,2,0,P|265:174|296:149,1,72.6450006096611
221,280,6802,2,0,P|206:314|210:349,1,72.6450006096611,2|0,0:0|0:0,0:0:0:0:
72,251,7004,2,0,L|-13:252,1,72.6450006096611
283,324,7207,6,0,L|435:321,1,145.290001219322,2|0,0:0|0:0,0:0:0:0:
512,119,7511,2,0,L|360:122,1,145.290001219322,2|0,0:0|0:0,0:0:0:0:
325,221,7815,2,0,L|403:220,1,72.6450006096611
261,172,8018,6,0,P|247:203|249:249,1,72.6450006096611,2|0,0:0|0:0,0:0:0:0:
458,274,8221,2,0,P|472:243|470:197,1,72.6450006096611
344,303,8423,2,0,L|354:378,1,72.6450006096611,2|0,0:0|0:0,0:0:0:0:
371,140,8626,2,0,L|361:65,1,72.6450006096611
499,32,8829,6,0,B|443:39|443:39|416:58|416:58|360:68,1,145.290001219322,2|0,0:0|0:0,0:0:0:0:
270,42,9133,1,2,0:0:0:0:
200,103,9234,2,0,B|180:70|180:70|179:29,1,72.6450006096611
285,133,9437,2,0,B|266:166|266:166|231:188,1,72.6450006096611
5,223,9640,6,0,L|160:230,1,145.290001219322,6|0,0:0|0:0,0:0:0:0:
231,278,9944,1,0,0:0:0:0:
93,365,10045,2,0,L|19:368,2,72.6450006096611,6|0|0,0:0|0:0|0:0,0:0:0:0:
303,275,10450,6,0,L|229:278,1,72.6450006096611,6|0,0:0|0:0,0:0:0:0:
160,138,10653,2,0,L|234:135,1,72.6450006096611
471,144,10856,6,0,B|363:75|342:208|232:135,1,254.257502133814
232,135,11261,6,0,P|222:97|196:73,1,65.9650016104737,6|2,0:0|0:0,0:0:0:0:
87,139,11464,2,0,P|97:177|123:201,1,65.9650016104737
232,255,11667,2,0,L|364:246,1,131.930003220947,2|2,0:0|0:0,0:0:0:0:
432,296,11971,1,0,0:0:0:0:
375,362,12072,6,0,P|343:303|363:246,1,131.930003220947,2|2,0:0|0:0,0:0:0:0:
428,95,12376,2,0,P|460:154|440:211,1,131.930003220947,2|0,0:0|0:0,0:0:0:0:
432,296,12680,2,0,L|500:300,1,65.9650016104737,2|0,0:0|0:0,0:0:0:0:
377,158,12883,6,0,L|311:161,3,65.9650016104737,8|0|0|0,0:0|0:0|0:0|0:0,0:0:0:0:
182,116,13288,2,0,L|247:112,3,65.9650016104737,8|0|0|0,0:0|0:0|0:0|0:0,0:0:0:0:
311,161,13694,5,0,0:0:0:0:
360,224,13795,1,8,0:0:0:0:
349,302,13896,1,0,0:0:0:0:
287,352,13998,1,0,0:0:0:0:
207,340,14099,5,8,0:0:0:0:
177,265,14200,1,0,0:0:0:0:
103,236,14302,1,8,0:0:0:0:
30,266,14403,1,8,0:0:0:0:
43,188,14504,6,0,L|36:122,1,65.9650016104737,6|2,0:0|0:0,0:0:0:0:
107,316,14707,2,0,L|99:240,1,65.9650016104737
244,210,14910,2,0,P|290:256|354:245,1,131.930003220947,2|2,0:0|0:0,0:0:0:0:
400,177,15214,1,0,0:0:0:0:
389,45,15315,6,0,L|400:187,1,131.930003220947,2|2,0:0|0:0,0:0:0:0:
351,246,15619,1,2,0:0:0:0:
303,132,15721,2,0,P|296:99|304:68,1,65.9650016104737
482,87,15923,2,0,P|488:119|480:150,1,65.9650016104737,2|2,0:0|0:0,0:0:0:0:
263,217,16126,6,0,L|125:210,1,131.930003220947,2|2,0:0|0:0,0:0:0:0:
199,125,16430,1,0,0:0:0:0:
135,225,16532,6,0,L|-3:218,1,131.930003220947,2|2,0:0|0:0,0:0:0:0:
207,113,16836,1,0,0:0:0:0:
168,299,16937,5,2,0:0:0:0:
141,67,17038,2,0,P|185:34|260:52,1,131.930003220947,2|2,0:0|0:0,0:0:0:0:
304,259,17342,6,0,P|297:197|295:121,1,131.930003220947
295,128,17748,5,0,0:0:0:0:
475,75,18040,1,8,0:0:0:0:
447,198,18187,1,0,0:0:0:0:
449,213,18260,1,0,0:0:0:0:
451,228,18333,1,0,0:0:0:0:
375,107,18479,2,0,P|368:73|376:36,1,66.8,0|8,0:0|0:0,0:0:0:0:
454,243,18772,1,0,0:0:0:0:
239,301,18918,5,0,0:0:0:0:
361,348,19065,1,0,0:0:0:0:
133,358,19211,1,8,0:0:0:0:
251,311,19357,1,0,0:0:0:0:
156,225,19504,1,0,0:0:0:0:
254,144,19650,2,0,P|268:116|269:74,2,66.8,0|8|0,0:0|0:0|0:0,0:0:0:0:
71,66,20089,5,0,0:0:0:0:
194,252,20382,1,8,0:0:0:0:
84,213,20528,1,0,0:0:0:0:
69,214,20601,1,0,0:0:0:0:
54,216,20674,1,0,0:0:0:0:
183,259,20821,1,0,0:0:0:0:
282,45,20967,1,8,0:0:0:0:
150,102,21113,1,0,0:0:0:0:
300,191,21260,6,0,L|376:184,2,66.8,0|0|8,0:0|0:0|0:0,0:0:0:0:
512,359,21699,2,0,P|482:302|415:293,1,133.6,4|0,0:0|0:0,0:0:0:0:
406,302,22065,1,0,0:0:0:0:
396,313,22138,2,0,L|389:359,3,33.4,8|0|0|0,0:0|0:0|0:0|0:0,0:0:0:0:
481,202,22430,6,0,L|469:123,1,73.4800022424317,12|0,0:0|0:0,0:0:0:0:
399,66,22723,2,0,P|414:38|414:-4,2,73.4800022424317
218,178,23162,5,12,0:0:0:0:
310,159,23308,2,0,L|387:162,1,73.4800022424317
282,320,23601,6,0,P|272:289|279:248,1,73.4800022424317,12|0,0:0|0:0,0:0:0:0:
218,178,23894,2,0,P|225:142|214:107,2,73.4800022424317
90,348,24333,5,12,0:0:0:0:
34,273,24479,2,0,L|41:190,1,73.4800022424317
149,55,24772,5,12,0:0:0:0:
4,116,24918,1,0,0:0:0:0:
126,218,25065,1,0,0:0:0:0:
256,129,25211,1,0,0:0:0:0:
161,46,25357,1,0,0:0:0:0:
235,264,25504,5,12,0:0:0:0:
260,112,25650,2,0,L|258:60,2,36.7400011212159
120,201,25943,5,12,0:0:0:0:
246,270,26089,2,0,L|324:263,1,73.4800022424317,12|0,0:0|0:0,0:0:0:0:
512,384,26382,6,0,P|461:328|363:367,1,167,12|0,0:0|0:0,0:0:0:0:
319,263,26821,2,0,P|336:229|329:182,1,83.5
246,158,27113,5,0,0:0:0:0:
390,90,27260,1,0,0:0:0:0:
293,0,27406,2,0,L|288:80,1,73.4800022424317,8|0,0:0|0:0,0:0:0:0:
292,86,27626,1,0,0:0:0:0:
297,98,27699,1,0,0:0:0:0:
396,76,27845,1,0,0:0:0:0:
204,33,27991,2,0,L|162:35,2,36.7400011212159,8|0|0,0:0|0:0|0:0,0:0:0:0:
337,173,28284,5,0,0:0:0:0:
254,270,28430,2,0,L|259:350,1,73.4800022424317,0|8,0:0|0:0,0:0:0:0:
255,356,28650,1,0,0:0:0:0:
250,368,28723,1,0,0:0:0:0:
193,187,28869,1,0,0:0:0:0:
342,308,29016,1,0,0:0:0:0:
160,367,29162,2,0,L|117:363,2,36.7400011212159,8|0|0,0:0|0:0|0:0,0:0:0:0:
350,319,29455,5,0,0:0:0:0:
151,274,29601,1,2,0:0:0:0:
304,214,29747,1,10,0:0:0:0:
235,355,29894,1,0,0:0:0:0:
202,177,30040,1,2,0:0:0:0:
316,201,30187,1,2,0:0:0:0:
137,279,30333,2,0,L|94:275,2,36.7400011212159,8|0|2,0:0|0:0|0:0,0:0:0:0:
327,189,30626,5,0,0:0:0:0:
161,94,30772,1,2,0:0:0:0:
155,81,30845,1,0,0:0:0:0:
151,67,30918,2,0,L|155:25,2,36.7400011212159,10|0|0,0:0|0:0|0:0,0:0:0:0:
340,176,31211,2,0,L|377:175,2,36.7400011212159,2|0|0,0:0|0:0|0:0,0:0:0:0:
120,289,31504,2,0,L|83:290,2,36.7400011212159,10|0|0,0:0|0:0|0:0,0:0:0:0:
333,355,31796,5,0,0:0:0:0:
257,210,31943,1,0,0:0:0:0:
208,329,32089,2,0,L|203:368,2,36.7400011212159,8|0|0,0:0|0:0|0:0,0:0:0:0:
356,156,32382,2,0,P|344:124|354:76,1,73.4800022424317
359,78,32601,1,0,0:0:0:0:
370,71,32674,2,0,L|409:67,2,36.7400011212159,8|0|0,0:0|0:0|0:0,0:0:0:0:
425,247,32967,6,0,L|352:256,1,73.4800022424317
165,185,33260,2,0,L|129:177,2,36.7400011212159,8|0|0,0:0|0:0|0:0,0:0:0:0:
334,269,33552,1,0,0:0:0:0:
139,304,33699,1,0,0:0:0:0:
257,194,33845,2,0,L|253:149,2,36.7400011212159,8|0|0,0:0|0:0|0:0,0:0:0:0:
10,67,34138,6,0,P|33:33|147:40,1,146.960004484863,0|8,0:0|0:0,0:0:0:0:
143,36,34504,1,0,0:0:0:0:
154,47,34577,1,0,0:0:0:0:
252,132,34723,2,0,L|331:124,1,73.4800022424317
150,150,35016,2,0,L|142:197,2,36.7400011212159,8|0|0,0:0|0:0|0:0,0:0:0:0:
305,29,35308,5,2,0:0:0:0:
85,91,35455,1,2,0:0:0:0:
223,212,35601,1,8,0:0:0:0:
223,212,35674,1,0,0:0:0:0:
223,212,35747,1,2,0:0:0:0:
221,9,35894,1,0,0:0:0:0:
115,202,36040,1,0,0:0:0:0:
111,219,36113,1,0,0:0:0:0:
108,237,36187,2,0,L|112:281,2,36.7400011212159,10|0|0,0:0|0:0|0:0,0:0:0:0:
307,286,36479,5,0,0:0:0:0:
476,236,36626,1,0,0:0:0:0:
397,136,36772,2,0,L|399:95,2,36.7400011212159,8|0|0,0:0|0:0|0:0,0:0:0:0:
414,325,37065,1,0,0:0:0:0:
297,179,37211,1,0,0:0:0:0:
470,223,37357,1,8,0:0:0:0:
303,294,37504,1,0,0:0:0:0:
294,88,37650,6,0,L|302:170,1,73.4800022424317
209,286,37943,1,8,0:0:0:0:
213,270,38016,1,0,0:0:0:0:
218,254,38089,1,0,0:0:0:0:
303,294,38235,1,0,0:0:0:0:
251,370,38382,1,0,0:0:0:0:
131,236,38528,2,0,P|129:198|124:152,1,73.4800022424317,8|0,0:0|0:0,0:0:0:0:
265,33,38821,6,0,P|261:69|259:106,1,73.4800022424317,2|0,0:0|0:0,0:0:0:0:
125,162,39113,2,0,L|83:155,2,36.7400011212159,8|0|0,0:0|0:0|0:0,0:0:0:0:
219,252,39406,1,2,0:0:0:0:
163,66,39552,1,0,0:0:0:0:
89,247,39699,1,8,0:0:0:0:
87,266,39772,1,0,0:0:0:0:
86,285,39845,1,2,0:0:0:0:
211,169,39991,5,2,0:0:0:0:
0,263,40138,1,0,0:0:0:0:
173,347,40284,1,10,0:0:0:0:
173,347,40357,1,0,0:0:0:0:
173,347,40430,1,2,0:0:0:0:
117,153,40577,1,0,0:0:0:0:
252,256,40723,1,2,0:0:0:0:
88,366,40869,2,0,L|92:330,2,36.7400011212159,10|0|0,0:0|0:0|0:0,0:0:0:0:
260,241,41162,6,0,L|255:162,1,73.4800022424317
334,67,41455,1,8,0:0:0:0:
348,57,41528,1,0,0:0:0:0:
357,43,41601,1,0,0:0:0:0:
231,68,41747,1,0,0:0:0:0:
379,187,41894,1,0,0:0:0:0:
252,256,42040,1,8,0:0:0:0:
238,266,42113,1,0,0:0:0:0:
229,280,42187,2,0,L|222:334,1,36.7400011212159
122,375,42333,6,0,B|79:331|107:266|107:266|135:294,1,150.299995413208
0,228,42626,2,0,B|35:234|66:205|66:205|108:180|147:206,1,150.299995413208,8|0,0:0|0:0,0:0:0:0:
307,244,42918,2,0,P|282:247|264:252,1,36.7400011212159
154,210,43065,1,0,0:0:0:0:
346,91,43211,1,8,0:0:0:0:
365,94,43284,1,0,0:0:0:0:
384,97,43357,1,0,0:0:0:0:
165,219,43504,6,0,P|115:218|78:249,1,100.199996942139,6|0,0:0|0:0,0:0:0:0:
289,217,43796,6,0,P|312:259|362:276,1,100.199996942139,14|0,0:0|0:0,0:0:0:0:
222,112,44089,6,0,P|247:71|237:18,1,100.199996942139,6|0,0:0|0:0,0:0:0:0:
165,219,44382,5,8,0:0:0:0:
289,217,44528,1,0,0:0:0:0:
239,21,44674,6,0,L|33:39,1,200.399993884278,6|0,0:0|0:0,0:0:0:0:
182,304,45113,6,0,L|388:286,1,200.399993884278,6|0,0:0|0:0,0:0:0:0:
447,358,45552,2,0,L|498:372,3,50.0999984710694
447,358,45845,6,0,P|468:315|452:260,1,100.199996942139,2|0,0:0|0:0,0:0:0:0:
404,209,46284,1,2,0:0:0:0:
389,206,46430,1,2,0:0:0:0:
374,202,46723,6,0,L|432:187,1,50.0999984710694,2|0,0:0|0:0,0:0:0:0:
467,120,47015,2,0,L|409:105,1,50.0999984710694,2|0,0:0|0:0,0:0:0:0:
369,41,47308,2,0,L|427:26,1,50.0999984710694,2|0,0:0|0:0,0:0:0:0:
315,118,47601,6,0,P|300:86|229:79,1,100.199996942139,2|2,0:0|0:0,0:0:0:0:
180,121,48040,1,0,0:0:0:0:
174,136,48186,1,2,0:0:0:0:
169,151,48332,1,0,0:0:0:0:
207,218,48479,6,0,L|227:265,1,50.0999984710694,2|0,0:1|0:0,0:0:0:0:
126,221,48771,2,0,L|95:261,1,50.0999984710694,2|0,0:1|0:0,0:0:0:0:
93,151,49064,2,0,L|42:144,1,50.0999984710694,2|0,0:1|0:0,0:0:0:0:
59,341,49357,6,0,P|93:311|153:325,1,100.199996942139,2|0,0:0|0:0,0:0:0:0:
207,363,49796,1,2,0:0:0:0:
222,360,49942,1,2,0:0:0:0:
237,356,50235,6,0,L|290:364,1,50.0999984710694,2|0,0:0|0:0,0:0:0:0:
400,305,50527,2,0,L|350:312,1,50.0999984710694,2|0,0:0|0:0,0:0:0:0:
237,254,50820,2,0,L|286:261,1,50.0999984710694,2|0,0:0|0:0,0:0:0:0:
480,350,51113,5,2,0:1:0:0:
480,350,51259,2,0,L|487:290,1,50.0999984710694,2|0,0:1|0:0,0:0:0:0:
409,88,51552,1,2,0:1:0:0:
409,88,51698,2,0,L|415:138,1,50.0999984710694,2|0,0:1|0:0,0:0:0:0:
504,200,51991,5,2,0:1:0:0:
504,200,52137,1,2,0:1:0:0:
429,227,52284,2,0,L|376:224,1,50.0999984710694,2|0,0:1|0:0,0:0:0:0:
387,0,52576,2,0,L|440:3,1,50.0999984710694,2|0,0:1|0:0,0:0:0:0:
361,229,52869,6,0,L|222:244,1,133.6,0|8,0:0|0:0,0:0:0:0:
151,205,53308,1,0,0:0:0:0:
177,124,53454,2,0,P|178:89|165:57,2,66.8,0|0|8,0:0|0:0|0:0,0:0:0:0:
36,265,53893,6,0,B|105:251|99:302|165:287,1,133.6
286,257,54332,2,0,P|261:281|247:313,1,66.8,8|0,0:0|0:0,0:0:0:0:
319,359,54625,2,0,P|344:335|358:303,1,66.8
284,161,54917,1,8,0:0:0:0:
284,161,55064,1,0,0:0:0:0:
471,175,55210,5,0,0:0:0:0:
445,50,55356,1,0,0:0:0:0:
361,222,55503,5,8,0:0:0:0:
306,71,55649,1,0,0:0:0:0:
481,188,55795,5,0,0:0:0:0:
278,246,55942,2,0,L|211:241,1,66.8,0|8,0:0|0:0,0:0:0:0:
31,184,56234,1,8,0:3:0:0:
52,179,56308,1,4,0:3:0:0:
72,171,56381,5,0,0:0:0:0:
127,96,56527,1,4,0:3:0:0:
13,33,56673,5,8,0:3:0:0:
155,175,56820,1,4,0:3:0:0:
62,286,56966,6,0,L|63:365,2,66.8,0|0|8,0:0|0:0|0:0,0:0:0:0:
62,286,57551,5,0,0:0:0:0:
228,193,57698,1,0,0:0:0:0:
309,242,57844,1,0,0:0:0:0:
227,289,57990,1,0,0:0:0:0:
312,145,58137,5,0,0:0:0:0:
309,339,58283,1,0,0:0:0:0:
145,240,58429,1,0,0:0:0:0:
228,193,58576,1,0,0:0:0:0:
227,289,58722,5,0,0:0:0:0:
146,143,58868,1,0,0:0:0:0:
309,242,59015,1,0,0:0:0:0:
144,336,59161,1,0,0:0:0:0:
302,93,59308,6,0,L|314:227,1,133.6
183,61,59893,5,8,0:0:0:0:
328,322,60095,1,8,0:0:0:0:
178,320,60298,5,8,0:0:0:0:
333,63,60500,1,8,0:0:0:0:
183,61,60703,5,8,0:0:0:0:
351,152,60906,6,0,L|396:124,1,50.0999984710694
311,230,61109,6,0,L|362:242,1,50.0999984710694
229,257,61311,6,0,L|257:302,1,50.0999984710694
142,277,61514,6,0,P|108:209|134:127,1,167,6|8,0:0|0:0,0:0:0:0:
210,56,61816,1,2,0:0:0:0:
210,56,61916,2,0,L|311:58,1,83.5
375,241,62118,2,0,L|274:239,1,83.5,10|0,0:0|0:0,0:0:0:0:
241,149,62319,6,0,L|415:154,1,167,2|8,0:0|0:0,0:0:0:0:
418,329,62621,2,0,L|244:324,1,167,2|0,0:0|0:0,0:0:0:0:
171,198,62923,1,8,0:0:0:0:
171,198,63024,1,0,0:0:0:0:
171,198,63124,6,0,P|159:159|167:112,1,83.5,2|0,0:0|0:0,0:0:0:0:
350,180,63326,2,0,P|369:216|371:257,1,83.5,10|0,0:0|0:0,0:0:0:0:
149,304,63527,2,0,L|8:296,1,125.25,2|0,0:0|0:0,0:0:0:0:
23,296,63728,2,0,P|64:288|94:258,1,83.5,8|0,0:0|0:0,0:0:0:0:
43,50,63930,6,0,L|30:219,1,167,2|10,0:0|0:0,0:0:0:0:
195,161,64232,1,2,0:0:0:0:
195,161,64332,2,0,P|165:132|125:123,1,83.5
254,261,64534,2,0,P|243:300|255:340,1,83.5,8|0,0:0|0:0,0:0:0:0:
309,161,64735,6,0,L|304:58,1,83.5,2|0,0:0|0:0,0:0:0:0:
128,202,64936,2,0,L|133:305,1,83.5,10|0,0:0|0:0,0:0:0:0:
258,277,65138,2,0,L|361:272,1,83.5,2|0,0:0|0:0,0:0:0:0:
217,96,65339,2,0,L|114:101,1,83.5,10|0,0:0|0:0,0:0:0:0:
263,294,65540,6,0,B|333:291|333:291|362:311|362:311|433:309,1,167,2|8,0:0|0:0,0:0:0:0:
488,198,65842,1,2,0:0:0:0:
409,93,65943,2,0,B|401:51|401:51|416:11,2,83.5,0|0|10,0:0|0:0|0:0,0:0:0:0:
488,198,66245,1,0,0:0:0:0:
486,64,66346,5,0,0:0:0:0:
486,64,66446,1,0,0:0:0:0:
351,198,66547,2,0,L|348:285,1,83.5,10|0,0:0|0:0,0:0:0:0:
486,64,66748,5,0,0:0:0:0:
486,64,66848,1,0,0:0:0:0:
338,212,66950,2,0,L|335:299,1,83.5,10|0,0:0|0:0,0:0:0:0:
486,64,67151,5,0,0:0:0:0:
486,64,67251,1,0,0:0:0:0:
327,227,67352,2,0,L|324:314,1,83.5,10|0,0:0|0:0,0:0:0:0:
486,64,67554,5,0,0:0:0:0:
486,64,67654,1,0,0:0:0:0:
317,244,67755,2,0,L|314:331,1,83.5,10|0,0:0|0:0,0:0:0:0:
128,161,67956,6,0,P|100:74|148:14,1,167,2|8,0:0|0:0,0:0:0:0:
242,3,68258,1,2,0:0:0:0:
242,3,68359,2,0,L|327:7,1,83.5
263,97,68560,2,0,L|178:93,1,83.5,10|0,0:0|0:0,0:0:0:0:
2,216,68762,6,0,B|64:219|64:219|93:249|93:249|161:253,1,167,2|8,0:0|0:0,0:0:0:0:
283,208,69064,2,0,B|221:205|221:205|191:174|191:174|124:171,1,167,2|0,0:0|0:0,0:0:0:0:
27,297,69366,1,8,0:0:0:0:
27,297,69467,1,0,0:0:0:0:
27,297,69567,6,0,L|28:385,1,83.5,2|0,0:0|0:0,0:0:0:0:
129,171,69769,2,0,L|128:83,1,83.5,10|0,0:0|0:0,0:0:0:0:
38,28,69970,2,0,P|66:79|130:86,1,125.25,2|0,0:0|0:0,0:0:0:0:
128,86,70171,2,0,P|81:101|53:131,1,83.5,10|0,0:0|0:0,0:0:0:0:
91,259,70373,6,0,L|262:264,1,167,2|10,0:0|0:0,0:0:0:0:
427,368,70675,1,2,0:0:0:0:
427,368,70775,2,0,P|396:340|356:330,1,83.5
187,302,70977,2,0,P|227:291|257:264,1,83.5,8|0,0:0|0:0,0:0:0:0:
342,57,71178,6,0,L|355:230,1,167,2|8,0:0|0:0,0:0:0:0:
265,152,71480,1,0,0:0:0:0:
265,152,71581,2,0,L|259:65,1,83.5,2|0,0:0|0:0,0:0:0:0:
430,130,71782,2,0,L|436:217,1,83.5,10|0,0:0|0:0,0:0:0:0:
256,263,71983,6,0,P|190:222|102:233,1,167,2|10,0:0|0:0,0:0:0:0:
134,325,72285,1,2,0:0:0:0:
48,301,72386,2,0,P|22:266|17:216,1,83.5
104,231,72587,5,10,0:0:0:0:
72,384,72688,1,0,0:0:0:0:
62,147,72789,6,0,B|142:121|146:178|230:155,1,167,6|0,0:0|0:0,0:0:0:0:
318,27,73091,5,0,0:0:0:0:
318,27,73191,2,0,B|306:151|306:151|304:123|286:102,1,167,6|0,0:0|0:0,0:0:0:0:
273,361,73493,5,0,0:0:0:0:
273,361,73594,2,0,P|231:287|272:224,1,167,6|0,0:0|0:0,0:0:0:0:
355,227,73896,5,0,0:0:0:0:
135,257,73997,2,0,L|75:253,5,55.6666666666667,6|0|0|0|0|0,0:0|0:0|0:0|0:0|0:0|0:0,0:0:0:0:
24,303,74399,6,0,P|7:261|16:218,1,83.5,6|0,0:0|0:0,0:0:0:0:
194,207,74601,2,0,P|211:249|202:292,1,83.5,8|0,0:0|0:0,0:0:0:0:
74,177,74802,2,0,L|82:87,1,83.5,2|0,0:0|0:0,0:0:0:0:
198,301,75003,2,0,L|190:391,1,83.5,8|0,0:0|0:0,0:0:0:0:
159,125,75205,6,0,B|223:128|223:128|257:153|257:153|324:157,1,167,2|8,0:0|0:0,0:0:0:0:
194,207,75507,1,2,0:0:0:0:
288,72,75607,2,0,L|378:77,1,83.5
357,243,75809,2,0,L|267:238,1,83.5,8|0,0:0|0:0,0:0:0:0:
435,29,76010,6,0,P|450:67|444:114,1,83.5,2|0,0:0|0:0,0:0:0:0:
357,243,76211,2,0,P|382:211|426:192,1,83.5,8|0,0:0|0:0,0:0:0:0:
511,307,76413,2,0,P|470:300|432:272,1,83.5,2|0,0:0|0:0,0:0:0:0:
446,108,76614,2,0,L|534:113,1,83.5,8|0,0:0|0:0,0:0:0:0:
368,332,76816,6,0,L|201:321,1,167,2|8,0:0|0:0,0:0:0:0:
76,138,77118,2,0,L|242:148,1,167,2|0,0:0|0:0,0:0:0:0:
220,236,77420,2,0,L|135:230,1,83.5,8|0,0:0|0:0,0:0:0:0:
15,194,77621,6,0,P|-4:155|2:110,1,83.5,2|0,0:0|0:0,0:0:0:0:
304,96,77822,2,0,P|323:135|317:180,1,83.5,8|0,0:0|0:0,0:0:0:0:
76,138,78024,2,0,P|79:94|106:58,1,83.5,2|0,0:0|0:0,0:0:0:0:
242,148,78225,2,0,P|238:191|211:227,1,83.5,8|0,0:0|0:0,0:0:0:0:
92,313,78426,6,0,B|171:281|177:347|261:311,1,167,2|8,0:0|0:0,0:0:0:0:
344,350,78728,1,2,0:0:0:0:
409,278,78829,2,0,L|395:191,1,83.5
470,133,79030,2,0,L|484:220,1,83.5,8|0,0:0|0:0,0:0:0:0:
377,100,79232,6,0,P|422:46|523:54,1,167,6|8,0:0|0:0,0:0:0:0:
470,133,79534,1,0,0:0:0:0:
279,170,79634,2,0,L|191:161,2,83.5,6|0|8,0:0|0:0|0:0,0:0:0:0:
134,30,80037,5,6,0:0:0:0:
202,78,80138,1,0,0:0:0:0:
195,161,80238,1,8,0:0:0:0:
120,197,80339,1,0,0:0:0:0:
51,149,80440,6,0,L|59:80,2,55.6666666666667
120,197,80641,2,0,L|109:280,1,83.5,8|0,0:0|0:0,0:0:0:0:
28,349,80842,6,0,P|70:313|176:328,1,167,2|10,0:0|0:0,0:0:0:0:
257,335,81144,1,2,0:0:0:0:
257,335,81245,2,0,L|162:325,1,83.5,0|2,0:0|0:0,0:0:0:0:
211,251,81446,2,0,L|306:261,1,83.5,8|0,0:0|0:0,0:0:0:0:
340,330,81648,6,0,L|328:154,1,167,2|10,0:0|0:0,0:0:0:0:
403,116,81950,1,2,0:0:0:0:
403,116,82050,2,0,L|409:200,1,83.5,0|2,0:0|0:0,0:0:0:0:
328,163,82252,2,0,L|322:79,1,83.5,8|0,0:0|0:0,0:0:0:0:
375,17,82453,6,0,P|333:53|227:38,1,167,2|10,0:0|0:0,0:0:0:0:
157,0,82755,1,2,0:0:0:0:
157,0,82856,2,0,L|155:89,1,83.5,0|2,0:0|0:0,0:0:0:0:
226,122,83057,2,0,L|228:33,1,83.5,8|0,0:0|0:0,0:0:0:0:
85,27,83258,6,0,B|85:100|85:100|101:131|101:131|102:203,1,167,2|8,0:0|0:0,0:0:0:0:
50,254,83560,1,0,0:0:0:0:
180,189,83661,2,0,B|141:175|141:175|97:191,1,83.5,2|2,0:0|0:0,0:0:0:0:
104,321,83862,2,0,B|143:335|143:335|187:319,1,83.5,8|0,0:0|0:0,0:0:0:0:
405,258,84064,6,0,L|233:255,1,167,2|10,0:0|0:0,0:0:0:0:
273,343,84366,1,2,0:0:0:0:
377,170,84467,2,0,L|293:169,1,83.5,0|2,0:0|0:0,0:0:0:0:
273,343,84668,2,0,L|357:344,1,83.5,8|0,0:0|0:0,0:0:0:0:
447,160,84869,6,0,L|275:157,1,167,2|10,0:0|0:0,0:0:0:0:
228,78,85171,1,2,0:0:0:0:
292,8,85272,2,0,L|378:10,1,83.5,0|2,0:0|0:0,0:0:0:0:
193,158,85473,2,0,L|107:156,1,83.5,8|0,0:0|0:0,0:0:0:0:
25,353,85675,6,0,P|-8:286|34:208,1,167,2|10,0:0|0:0,0:0:0:0:
113,244,85977,1,0,0:0:0:0:
18,108,86077,2,0,L|25:22,2,83.5,2|0|10,0:0|0:0|0:0,0:0:0:0:
340,142,86480,6,0,B|223:91|215:202|99:148,1,250.5,6|0,0:0|0:0,0:0:0:0:
401,210,87285,6,0,P|431:140|390:63,1,167,2|10,0:0|0:0,0:0:0:0:
340,142,87587,1,2,0:0:0:0:
401,210,87688,2,0,L|490:200,2,83.5,0|0|10,0:0|0:0|0:0,0:0:0:0:
238,288,88091,6,0,P|319:271|373:326,1,167,6|0,0:0|0:0,0:0:0:0:
