osu file format v14

[General]
AudioFilename: audio.mp3
AudioLeadIn: 0
PreviewTime: 60805
Countdown: 0
SampleSet: Soft
StackLeniency: 0.4
Mode: 0
LetterboxInBreaks: 0
WidescreenStoryboard: 0

[Editor]
DistanceSpacing: 0.9
BeatDivisor: 4
GridSize: 4
TimelineZoom: 1.3

[Metadata]
Title:Curtain Call!!!!!
TitleUnicode:かーてんこーる!!!!!
Artist:Gekidan Hitotose
ArtistUnicode:劇団ひととせ
Creator:Left
Version:fieryrage & Left's Ex
Source:ひなこのーと
Tags:Hinako Note ED Ending fieryrage Crystal Akitoshi
BeatmapID:1344836
BeatmapSetID:633693

[Difficulty]
HPDrainRate:6
CircleSize:4.2
OverallDifficulty:9
ApproachRate:9.7
SliderMultiplier:1.76
SliderTickRate:1

[Events]
//Background and Video events
0,0,"hinakoBG.jpg",0,0
Video,-221,"vid.avi"
//Break Periods
//Storyboard Layer 0 (Background)
//Storyboard Layer 1 (Fail)
//Storyboard Layer 2 (Pass)
//Storyboard Layer 3 (Foreground)
//Storyboard Sound Samples

[TimingPoints]
1532,202.702702702703,4,2,1,73,1,0
1532,-83.3333333333333,4,2,1,73,0,0
2342,-68.9655172413793,4,2,1,73,0,0
3153,-58.8235294117647,4,2,1,73,0,0
3761,-58.8235294117647,4,2,1,73,0,0
3964,-83.3333333333333,4,2,1,73,0,0
4015,-83.3333333333333,4,2,1,65,0,0
4369,-350,4,2,1,65,0,0
4724,-350,4,2,1,5,0,0
4775,-100,4,2,1,65,0,0
5586,-76.9230769230769,4,2,1,65,0,0
5738,-76.9230769230769,4,2,1,5,0,0
5788,-125,4,2,1,65,0,0
5991,-100,4,2,1,65,0,0
6194,-83.3333333333333,4,2,1,65,0,0
6396,-100,4,2,1,65,0,0
7207,-76.9230769230769,4,2,1,65,0,0
7359,-76.9230769230769,4,2,1,5,0,0
7410,-83.3333333333333,4,2,1,65,0,0
7613,-100,4,2,1,65,0,0
7815,-125,4,2,1,65,0,0
8018,-100,4,2,1,65,0,0
8829,-76.9230769230769,4,2,1,65,0,0
8981,-76.9230769230769,4,2,1,5,0,0
9032,-125,4,2,1,65,0,0
9234,-100,4,2,1,65,0,0
9437,-83.3333333333333,4,2,1,65,0,0
9640,-64.5161290322581,4,2,1,65,0,0
10045,-57.1428571428571,4,2,1,65,0,0
10450,-166.666666666667,4,2,1,65,0,0
10856,-54.054054054054,4,2,1,65,0,0
11160,-54.054054054054,4,2,1,5,0,0
11261,-100,4,2,1,65,0,0
16126,-66.6666666666667,4,2,1,65,0,0
16278,-66.6666666666667,4,2,1,5,0,0
16329,-166.666666666667,4,2,1,65,0,0
16481,-166.666666666667,4,2,1,5,0,0
16532,-66.6666666666667,4,2,1,65,0,0
16684,-66.6666666666667,4,2,1,5,0,0
16734,-166.666666666667,4,2,1,65,0,0
16886,-166.666666666667,4,2,1,5,0,0
16937,-58.8235294117647,4,2,1,65,0,0
17342,-350,4,2,1,65,0,0
17748,292.682926829268,4,2,1,65,1,0
21699,-66.6666666666667,4,2,1,65,0,0
21772,-66.6666666666667,4,2,1,5,0,0
21991,-100,4,2,1,65,0,0
26382,-74.0740740740741,4,2,1,65,0,0
26821,-100,4,2,1,65,0,0
27113,-125,4,2,1,65,0,0
45845,292.682926829268,6,2,1,53,1,0
45845,-200,6,2,1,53,0,0
52284,-100,6,2,1,53,0,0
52869,292.682926829268,4,2,1,65,1,0
52869,-125,4,2,1,65,0,0
57551,-200,4,2,1,40,0,0
59893,202.702702702703,4,2,1,40,1,0
60501,-100,4,2,1,50,0,0
60906,-100,4,2,1,55,0,0
61109,-100,4,2,1,60,0,0
61311,-100,4,2,1,66,0,0
61514,201.342281879195,4,2,1,78,1,1
61514,-76.9230769230769,4,2,1,78,0,1
61816,-90.9090909090909,4,2,1,78,0,1
61967,-90.9090909090909,4,2,1,5,0,1
62017,-90.9090909090909,4,2,1,78,0,1
62319,-76.9230769230769,4,2,1,78,0,1
62621,-90.9090909090909,4,2,1,78,0,1
63930,-76.9230769230769,4,2,1,78,0,1
64131,-90.9090909090909,4,2,1,78,0,1
64735,-200,4,2,1,78,0,1
64886,-200,4,2,1,5,0,1
64936,-111.111111111111,4,2,1,78,0,1
65087,-111.111111111111,4,2,1,5,0,1
65138,-76.9230769230769,4,2,1,78,0,1
65289,-76.9230769230769,4,2,1,5,0,1
65339,-58.8235294117647,4,2,1,78,0,1
65490,-58.8235294117647,4,2,1,5,0,1
65540,-50,4,2,1,78,0,1
65842,-66.6666666666667,4,2,1,78,0,1
66144,-100,4,2,1,78,0,1
66346,-200,4,2,1,78,0,1
66497,-200,4,2,1,5,0,1
66547,-40,4,2,1,78,0,1
66698,-40,4,2,1,5,0,1
66748,-200,4,2,1,78,0,1
66899,-200,4,2,1,5,0,1
66950,-40,4,2,1,78,0,1
67101,-40,4,2,1,5,0,1
67151,-200,4,2,1,78,0,1
67302,-200,4,2,1,5,0,1
67352,-40,4,2,1,78,0,1
67503,-40,4,2,1,5,0,1
67554,-200,4,2,1,78,0,1
67705,-200,4,2,1,5,0,1
67755,-40,4,2,1,78,0,1
67906,-40,4,2,1,5,0,1
67956,-66.6666666666667,4,2,1,78,0,1
68258,-90.9090909090909,4,2,1,78,0,1
68409,-90.9090909090909,4,2,1,5,0,1
68460,-90.9090909090909,4,2,1,78,0,1
68762,-76.9230769230769,4,2,1,78,0,1
69064,-90.9090909090909,4,2,1,78,0,1
69769,-105.263157894737,4,2,1,78,0,1
69970,-125,4,2,1,78,0,1
70171,-153.846153846154,4,2,1,78,0,1
70373,-76.9230769230769,4,2,1,78,0,1
70675,-90.9090909090909,4,2,1,78,0,1
71983,-76.9230769230769,4,2,1,78,0,1
72134,-76.9230769230769,4,2,1,5,0,1
72185,-90.9090909090909,4,2,1,78,0,1
72386,-76.9230769230769,4,2,1,78,0,1
72537,-76.9230769230769,4,2,1,5,0,1
72587,-90.9090909090909,4,2,1,78,0,1
72789,-200,4,2,1,78,0,1
72990,-200,4,2,1,5,0,1
73191,-100,4,2,1,78,0,1
73393,-100,4,2,1,5,0,1
73594,-66.6666666666667,4,2,1,78,0,1
73795,-66.6666666666667,4,2,1,5,0,1
73997,-66.6666666666667,4,2,1,78,0,1
74399,-100,4,2,1,65,0,0
79232,-64.5161290322581,4,2,1,65,0,0
79634,-57.1428571428571,4,2,1,65,0,0
80037,-166.666666666667,4,2,1,65,0,0
80440,-54.054054054054,4,2,1,65,0,0
80742,-54.054054054054,4,2,1,5,0,0
80842,-100,4,2,1,65,0,0
83208,-100,4,2,1,5,0,0
83258,-100,4,2,1,65,0,0
85675,-76.9230769230769,4,2,1,65,0,0
85876,-62.5,4,2,1,65,0,0
86077,-52.6315789473684,4,2,1,65,0,0
87487,-41.5,4,2,1,65,0,0
87789,-34.5,4,2,1,65,0,0
88493,-400.5,4,2,1,65,0,0
88695,-400.5,4,2,1,5,0,0

[Colours]
Combo1 : 255,255,185
Combo2 : 255,198,255
Combo3 : 147,196,255
Combo4 : 255,201,147
Combo5 : 237,203,254

[HitObjects]
126,134,1532,6,0,P|155:178|116:243,1,106.199996759033,6|0,1:2|0:0,0:0:0:0:
69,285,1734,1,0,0:0:0:0:
69,285,1836,2,0,P|92:237|168:239,1,106.199996759033,2|0,1:2|0:0,0:0:0:0:
226,258,2038,1,0,0:0:0:0:
226,258,2140,2,0,P|173:261|136:194,1,106.199996759033,2|0,1:2|0:0,0:0:0:0:
177,123,2342,6,0,P|182:188|115:225,1,127.600003894043,6|0,1:2|0:0,0:0:0:0:
30,240,2545,1,0,0:0:0:0:
30,240,2646,2,0,P|84:202|149:241,1,127.600003894043,2|0,1:2|0:0,0:0:0:0:
205,307,2849,1,0,0:0:0:0:
205,307,2950,2,0,P|145:278|146:202,1,127.600003894043,2|0,1:2|0:0,0:0:0:0:
245,163,3153,6,0,P|206:225|125:213,1,149.600002853394,6|0,1:2|0:0,0:0:0:0:
31,157,3356,1,0,0:0:0:0:
31,157,3457,2,0,P|104:159|134:235,1,149.600002853394,2|0,1:2|0:0,0:0:0:0:
132,344,3660,1,0,0:0:0:0:
132,344,3761,2,0,P|97:279|148:215,1,149.600002853394,2|0,1:2|0:0,0:0:0:0:
245,163,3964,5,2,0:0:0:0:
274,161,4032,1,0,0:0:0:0:
293,181,4099,1,0,0:0:0:0:
289,209,4167,1,0,0:0:0:0:
264,222,4234,1,0,0:0:0:0:
238,210,4302,1,0,0:0:0:0:
232,182,4369,2,2,P|250:143|238:95,1,88.5,2|0,0:1|0:0,0:1:0:0:
231,86,4775,6,0,P|278:104|337:82,1,88.5,6|0,1:2|0:0,0:0:0:0:
452,71,4977,2,0,P|412:102|402:164,1,88.5,10|0,0:0|1:0,0:0:0:0:
355,268,5180,2,0,P|347:218|298:178,1,88.5,2|0,0:0|1:0,0:0:0:0:
230,172,5383,2,0,P|187:196|168:238,1,88.5,10|0,0:0|0:0,0:0:0:0:
4,307,5586,6,0,B|48:264|101:284|101:284|125:315|168:315,1,172.574992100144,2|0,1:2|0:0,0:0:0:0:
177,300,5788,6,0,L|167:212,1,70.8,10|2,0:1|1:2,0:0:0:0:
256,300,5991,6,0,L|243:191,1,88.5,2|0,0:1|1:0,0:0:0:0:
336,297,6194,6,0,L|320:165,1,106.199996759033,10|0,0:1|0:0,0:0:0:0:
302,83,6396,6,0,P|356:115|402:102,1,88.5,2|0,1:2|0:0,0:0:0:0:
426,44,6599,2,0,P|414:85|375:113,1,88.5,10|0,0:0|1:0,0:0:0:0:
312,271,6802,2,0,P|318:228|382:190,1,88.5,2|0,0:0|1:0,0:0:0:0:
504,234,7004,2,0,P|478:195|423:182,1,88.5,10|0,0:0|0:0,0:0:0:0:
312,271,7207,6,0,B|281:289|248:282|248:282|217:261|217:261|179:251|134:284,1,172.574992100144,2|0,1:2|0:0,0:0:0:0:
133,281,7410,6,0,P|155:218|139:168,1,106.199996759033,10|2,0:1|1:2,0:0:0:0:
62,179,7613,6,0,P|42:218|50:261,1,88.5,2|0,0:1|1:0,0:0:0:0:
130,265,7815,6,0,P|141:232|136:197,1,70.8,10|0,0:1|0:0,0:0:0:0:
126,99,8018,6,0,P|193:123|219:114,1,88.5,2|0,1:2|0:0,0:0:0:0:
310,60,8221,2,0,P|290:116|303:154,1,88.5,10|0,0:0|1:0,0:0:0:0:
369,202,8423,2,0,P|389:146|376:108,1,88.5,2|0,0:0|1:0,0:0:0:0:
278,278,8626,2,0,P|321:275|358:298,1,88.5,10|0,0:0|0:0,0:0:0:0:
464,331,8829,6,0,B|419:309|381:342|381:342|340:379|257:328,1,172.574992100144,2|0,1:2|0:0,0:0:0:0:
270,348,9032,6,0,L|279:258,1,70.8,10|2,0:1|1:2,0:0:0:0:
192,347,9234,6,0,L|203:240,1,88.5,2|0,0:1|1:0,0:0:0:0:
111,342,9437,6,0,L|126:229,1,106.199996759033,10|0,0:1|0:0,0:0:0:0:
49,85,9640,6,0,B|104:78|124:63|124:63|147:94|147:94|183:77|221:100|221:100|266:135|345:90,1,274.350002093124,6|8,1:2|0:0,0:0:0:0:
296,111,9944,1,2,0:0:0:0:
464,196,10045,6,0,B|441:148|382:141|343:166|329:206|329:206|285:184|252:205|252:205|216:203|158:150,1,309.750002954006,6|8,1:2|0:0,0:0:0:0:
200,184,10349,1,2,0:0:0:0:
92,263,10450,6,0,P|132:296|192:285,1,105.599996777344,2|8,1:2|0:0,0:0:0:0:
193,284,10754,1,4,0:3:0:0:
201,275,10856,6,0,P|124:350|155:159,1,488.399998136902,10|0,0:3|0:0,0:0:0:0:
346,226,11261,6,0,B|400:247|446:198|446:198|488:185|524:230,1,177,6|8,1:2|0:0,0:0:0:0:
356,312,11565,1,2,1:2:0:0:
280,279,11667,2,0,P|263:213|281:179,1,88.5,2|0,0:0|1:0,0:0:0:0:
324,88,11869,2,0,P|261:119|224:109,1,88.5,10|0,0:0|0:0,0:0:0:0:
90,30,12072,6,0,B|132:17|163:37|163:37|200:20|200:20|227:40|276:37,1,177,2|8,1:2|0:0,0:0:0:0:
324,88,12376,2,0,P|381:102|322:66,1,177,2|0,1:2|1:0,0:0:0:0:
245,117,12680,2,0,P|269:162|256:213,1,88.5,10|0,0:0|0:0,0:0:0:0:
37,255,12883,5,2,1:2:0:0:
113,213,12984,1,0,0:0:0:0:
187,225,13086,1,8,0:0:0:0:
221,261,13187,1,2,1:2:0:0:
257,277,13288,1,0,0:0:0:0:
288,273,13390,1,0,1:0:0:0:
309,262,13491,1,10,0:0:0:0:
323,250,13592,1,0,0:0:0:0:
263,172,13694,5,2,1:0:0:0:
264,196,13795,1,0,0:0:0:0:
251,227,13896,1,8,0:0:0:0:
221,261,13998,1,2,0:1:0:0:
150,269,14099,1,0,0:0:0:0:
81,222,14200,1,0,1:0:0:0:
84,131,14302,1,10,0:1:0:0:
177,80,14403,1,0,0:0:0:0:
263,172,14504,6,0,B|311:190|347:161|347:161|401:126|456:172,1,177,6|8,1:2|0:0,0:0:0:0:
280,60,14809,1,0,1:0:0:0:
211,106,14910,2,0,P|160:102|126:65,1,88.5,2|0,0:0|1:0,0:0:0:0:
40,17,15113,2,0,P|53:82|41:113,1,88.5,10|0,0:0|0:0,0:0:0:0:
1,175,15315,6,0,B|48:141|101:161|101:161|122:188|174:189,1,177,2|8,1:2|0:0,0:0:0:0:
245,89,15619,2,0,P|192:84|159:120,1,88.5,2|0,1:2|0:0,0:0:0:0:
199,268,15822,1,0,1:0:0:0:
199,268,15923,2,0,P|252:273|285:237,1,88.5,10|0,0:0|0:0,0:0:0:0:
402,81,16126,6,0,B|408:116|388:145|388:145|409:169|409:169|397:231|460:254,1,198.000007553101,6|0,1:2|0:0,0:0:0:0:
449,249,16329,2,0,L|492:169,1,79.1999975830079,10|0,0:0|0:0,0:0:0:0:
402,81,16532,6,0,B|384:111|393:145|393:145|365:161|365:161|355:223|288:223,1,198.000007553101,6|0,1:2|0:0,0:0:0:0:
299,223,16734,2,0,L|283:136,1,79.1999975830079,10|0,0:0|0:0,0:0:0:0:
402,81,16937,5,6,1:2:0:0:
368,304,17038,1,2,1:0:0:0:
0,208,17241,5,2,0:0:0:0:
60,158,17342,2,2,P|78:202|68:245,1,88.5,2|0,0:1|0:0,0:1:0:0:
59,259,17748,6,0,P|105:236|228:245,1,176,4|8,0:2|0:0,0:0:0:0:
384,334,18187,1,0,0:0:0:0:
384,334,18260,1,0,0:0:0:0:
384,334,18333,2,0,L|382:235,1,88,8|0,0:0|0:0,0:0:0:0:
380,147,18626,1,8,0:0:0:0:
143,263,18772,6,0,P|186:262|226:243,1,88,0|8,0:0|0:0,0:0:0:0:
440,86,19065,2,0,P|401:68|357:68,1,88,0|8,0:0|0:0,0:0:0:0:
167,174,19357,1,0,0:0:0:0:
357,68,19504,1,8,0:0:0:0:
298,300,19650,1,0,0:0:0:0:
212,61,19796,1,8,0:0:0:0:
430,218,19943,1,0,0:0:0:0:
127,180,20089,5,8,0:0:0:0:
127,180,20382,2,0,L|32:178,1,88,8|0,0:0|0:0,0:0:0:0:
0,179,20601,1,0,3:0:0:0:
0,179,20674,1,8,0:0:0:0:
65,324,20821,1,0,0:0:0:0:
129,71,20967,1,8,0:0:0:0:
214,363,21113,6,0,L|209:267,1,88,0|8,0:0|0:0,0:0:0:0:
129,71,21406,2,0,L|124:158,1,88,0|8,0:0|0:0,0:0:0:0:
430,218,21699,2,0,B|364:192|292:204|292:204|336:189|342:161,1,198.000007553101,4|0,0:0|0:0,0:0:0:0:
466,78,21991,2,0,L|469:134,1,44,8|0,0:3|0:0,0:0:0:0:
296,361,22138,5,8,0:0:0:0:
268,312,22211,1,8,0:0:0:0:
268,255,22284,1,8,0:0:0:0:
292,204,22357,1,8,0:0:0:0:
338,171,22430,5,4,3:0:0:0:
123,158,22577,1,0,0:0:0:0:
356,82,22723,1,0,0:0:0:0:
159,245,22869,1,0,0:0:0:0:
272,41,23016,1,0,0:0:0:0:
330,341,23162,2,0,P|351:273|338:171,1,176,4|0,3:0|0:0,0:0:0:0:
116,48,23601,5,4,3:0:0:0:
356,82,23747,1,0,0:0:0:0:
123,158,23894,1,0,0:0:0:0:
272,41,24040,1,0,0:0:0:0:
50,106,24187,1,0,0:0:0:0:
335,190,24333,2,0,P|255:225|167:222,1,176,4|0,3:0|0:0,0:0:0:0:
416,8,24772,5,4,3:0:0:0:
424,228,24918,1,0,0:0:0:0:
272,41,25065,1,0,0:0:0:0:
512,114,25211,1,0,0:0:0:0:
236,154,25357,1,0,0:0:0:0:
424,228,25504,2,0,P|428:178|417:132,1,88,4|0,3:0|0:0,0:0:0:0:
272,41,25796,1,0,0:0:0:0:
214,39,25869,1,0,0:0:0:0:
156,37,25943,5,8,0:0:0:0:
250,333,26089,1,8,0:0:0:0:
250,333,26382,6,0,B|288:251|257:182|257:182|227:221|233:267,1,237.600000906372,4|0,0:0|0:0,0:0:0:0:
149,294,26747,1,0,0:0:0:0:
149,294,26821,2,0,L|147:199,1,88
83,105,27113,5,2,0:0:0:0:
214,24,27260,1,8,0:0:0:0:
148,207,27406,1,2,0:0:0:0:
148,207,27479,1,0,0:0:0:0:
148,207,27552,1,8,0:0:0:0:
291,127,27699,1,0,0:0:0:0:
250,333,27845,2,0,P|285:334|319:326,1,70.4,10|0,0:0|0:0,0:0:0:0:
458,155,28138,6,0,L|455:322,1,140.8,10|8,0:0|0:0,0:0:0:0:
291,127,28577,1,2,0:0:0:0:
291,127,28650,1,0,0:0:0:0:
291,127,28723,1,8,0:0:0:0:
500,17,28869,1,2,0:0:0:0:
458,155,29016,1,8,0:0:0:0:
336,35,29162,2,0,P|292:24|240:34,1,70.4,2|8,0:0|0:0,0:0:0:0:
152,206,29455,5,0,0:0:0:0:
137,37,29601,1,10,0:0:0:0:
160,226,29747,2,0,L|162:305,1,70.4,2|8,0:0|0:0,0:0:0:0:
5,167,30040,2,0,P|46:149|77:147,1,70.4,2|8,0:0|0:0,0:0:0:0:
227,316,30333,2,0,P|192:311|160:295,1,70.4,2|8,0:0|0:0,0:0:0:0:
291,127,30626,5,0,0:0:0:0:
335,277,30772,1,10,0:0:0:0:
152,206,30918,1,2,0:0:0:0:
152,206,30991,1,0,0:0:0:0:
152,206,31065,1,8,0:0:0:0:
313,120,31211,2,0,L|393:119,1,70.4,2|8,0:0|0:0,0:0:0:0:
138,221,31504,2,0,L|58:220,1,70.4,2|8,0:0|0:0,0:0:0:0:
267,17,31796,5,2,0:0:0:0:
279,215,31943,1,8,0:0:0:0:
184,58,32089,1,2,0:0:0:0:
383,119,32235,1,8,0:0:0:0:
138,221,32382,2,0,L|58:220,1,70.4,2|10,0:0|0:0,0:0:0:0:
282,78,32674,1,0,0:0:0:0:
282,78,32747,1,0,0:0:0:0:
282,78,32821,6,0,P|295:133|279:214,1,140.8,10|8,0:0|0:0,0:0:0:0:
113,59,33260,2,0,L|197:57,1,70.4,2|8,0:0|0:0,0:0:0:0:
383,119,33552,1,2,0:0:0:0:
98,76,33699,2,0,L|182:74,1,70.4,10|0,0:0|0:0,0:0:0:0:
168,74,33918,1,0,0:0:0:0:
168,74,33991,1,8,0:0:0:0:
347,204,34138,6,0,P|311:215|266:211,1,70.4,2|8,0:0|0:0,0:0:0:0:
448,54,34430,1,0,0:0:0:0:
448,54,34577,2,0,P|474:107|475:204,1,140.8,10|8,0:0|0:0,0:0:0:0:
430,328,35016,1,0,0:0:0:0:
430,328,35089,1,0,0:0:0:0:
430,328,35162,1,8,0:0:0:0:
303,123,35308,5,2,0:0:0:0:
478,187,35455,1,10,0:0:0:0:
298,246,35601,1,0,0:0:0:0:
434,73,35747,1,10,0:0:0:0:
273,270,35894,2,0,P|228:278|188:269,1,70.4,0|8,0:0|0:0,0:0:0:0:
408,191,36187,2,0,P|453:183|493:192,1,70.4,2|8,0:0|0:0,0:0:0:0:
255,47,36479,5,6,0:0:0:0:
106,100,36626,1,8,0:0:0:0:
273,270,36772,1,2,0:0:0:0:
331,21,36918,1,8,0:0:0:0:
155,191,37065,2,0,P|119:203|75:200,1,70.4,2|10,0:0|0:0,0:0:0:0:
272,359,37357,1,0,0:0:0:0:
272,359,37430,1,0,0:0:0:0:
272,359,37504,6,0,L|277:199,1,140.8,10|8,0:0|0:0,0:0:0:0:
162,122,37943,2,0,P|152:156|157:200,1,70.4,2|8,0:0|0:0,0:0:0:0:
393,253,38235,2,0,P|395:218|385:184,1,70.4,2|8,0:0|0:0,0:0:0:0:
258,54,38528,1,2,0:0:0:0:
438,98,38674,1,8,0:0:0:0:
222,180,38821,6,0,P|179:191|142:188,1,70.4,2|8,0:0|0:0,0:0:0:0:
21,126,39113,1,2,0:0:0:0:
21,126,39187,1,0,0:0:0:0:
21,126,39260,1,8,0:0:0:0:
123,339,39406,2,0,L|125:254,1,70.4,2|8,0:0|0:0,0:0:0:0:
127,74,39699,1,2,0:0:0:0:
222,180,39845,5,8,0:0:0:0:
31,219,39991,1,2,0:0:0:0:
217,87,40138,1,10,0:0:0:0:
123,339,40284,1,0,0:0:0:0:
123,339,40357,1,0,0:0:0:0:
123,339,40430,1,10,0:0:0:0:
44,104,40577,1,0,0:0:0:0:
220,255,40723,1,8,0:0:0:0:
1,332,40869,1,2,0:0:0:0:
44,104,41016,1,8,0:0:0:0:
220,255,41162,6,0,P|270:273|303:271,1,70.4,2|8,0:0|0:0,0:0:0:0:
437,198,41455,1,2,0:0:0:0:
420,382,41601,1,8,0:0:0:0:
448,177,41747,2,0,L|446:103,1,70.4,2|10,0:0|0:0,0:0:0:0:
253,12,42040,1,0,0:0:0:0:
253,12,42113,1,0,0:0:0:0:
253,12,42187,6,0,P|234:74|240:157,1,140.8,10|8,0:0|0:0,0:0:0:0:
410,291,42626,2,0,P|376:252|343:236,1,70.4,2|8,0:0|0:0,0:0:0:0:
151,266,42918,2,0,P|202:261|234:244,2,70.4,2|10|0,0:0|0:0|0:0,0:0:0:0:
36,193,43357,1,8,0:0:0:0:
194,22,43504,6,0,L|196:99,1,70.4,2|0,0:0|0:0,0:0:0:0:
34,263,43796,2,0,L|35:192,1,70.4,10|0,0:0|0:0,0:0:0:0:
295,103,44089,2,0,L|297:180,1,70.4,2|0,0:0|0:0,0:0:0:0:
55,79,44382,2,0,L|56:8,1,70.4,10|0,0:0|0:0,0:0:0:0:
346,11,44674,5,10,0:0:0:0:
151,266,44821,1,10,0:0:0:0:
194,22,44967,1,0,0:0:0:0:
318,358,45113,1,10,0:0:0:0:
318,358,45406,2,0,P|325:332|326:314,1,35.2,2|0,0:0|0:0,0:0:0:0:
151,184,45552,5,10,0:0:0:0:
145,211,45626,1,0,0:0:0:0:
145,239,45699,1,0,0:0:0:0:
151,266,45772,1,0,0:0:0:0:
167,296,45845,6,0,L|35:292,1,132,4|0,0:1|0:0,0:0:0:0:
249,230,46430,1,10,0:0:0:0:
249,230,46723,2,0,P|289:245|342:241,2,88,2|2|8,0:0|0:0|0:0,0:0:0:0:
157,56,47601,6,0,L|154:87,3,22,2|0|0|0,0:0|0:0|0:0|0:0,0:0:0:0:
242,101,47893,2,0,L|239:79,3,22,2|0|0|0,0:0|0:0|0:0|0:0,0:0:0:0:
165,182,48186,6,0,L|162:213,3,22,10|0|0|0,0:0|0:0|0:0|0:0,0:0:0:0:
250,227,48478,2,0,L|247:205,3,22,2|0|0|0,0:0|0:0|0:0|0:0,0:0:0:0:
394,78,48771,5,2,0:0:0:0:
401,96,48845,1,0,0:0:0:0:
405,115,48918,1,0,0:0:0:0:
407,134,48991,1,0,0:0:0:0:
407,153,49064,1,10,0:0:0:0:
405,172,49137,1,0,0:0:0:0:
400,191,49210,1,0,0:0:0:0:
393,209,49284,1,0,0:0:0:0:
385,227,49357,6,0,L|381:373,1,132,2|0,0:0|0:0,0:0:0:0:
250,227,49942,2,0,L|247:124,2,88,10|2|2,0:0|0:0|0:0,0:0:0:0:
394,78,50820,1,10,0:0:0:0:
246,20,51113,5,2,0:0:0:0:
394,78,51259,2,0,L|350:77,1,44
203,139,51551,1,2,0:0:0:0:
203,139,51698,2,0,L|246:138,1,44,10|0,0:0|0:0,0:0:0:0:
385,227,51991,5,2,0:0:0:0:
385,227,52137,1,2,0:0:0:0:
244,286,52284,2,0,P|232:348|243:393,1,88,2|0,0:0|0:0,0:0:0:0:
385,227,52576,2,0,P|388:183|376:141,1,88,10|0,0:0|0:0,0:0:0:0:
106,142,52869,6,0,L|256:137,1,140.8,6|10,0:0|0:0,0:0:0:0:
385,227,53308,1,0,0:0:0:0:
385,227,53454,2,0,P|337:240|305:237,1,70.4,2|0,0:0|0:0,0:0:0:0:
226,46,53747,2,0,P|261:46|294:58,1,70.4,10|0,0:0|0:0,0:0:0:0:
207,323,54039,5,0,0:0:0:0:
207,323,54186,1,0,0:0:0:0:
106,142,54332,2,0,L|108:225,1,70.4,10|0,0:0|0:0,0:0:0:0:
292,128,54625,2,0,L|293:57,1,70.4,2|0,0:0|0:0,0:0:0:0:
119,7,54917,1,10,0:0:0:0:
216,210,55064,1,0,0:0:0:0:
119,7,55210,6,0,P|96:72|109:150,1,140.8,2|8,0:0|0:0,0:0:0:0:
286,205,55649,1,2,0:0:0:0:
286,205,55795,2,0,L|216:210,1,70.4,2|0,0:0|0:0,0:0:0:0:
47,307,56088,2,0,L|118:312,1,70.4,8|2,0:0|0:0,0:0:0:0:
118,312,56308,1,8,0:0:0:0:
118,312,56381,5,8,0:0:0:0:
105,141,56527,1,2,0:0:0:0:
229,336,56673,1,0,0:0:0:0:
211,96,56820,1,10,0:0:0:0:
26,229,56966,1,0,0:0:0:0:
321,294,57112,1,2,0:0:0:0:
224,5,57259,1,8,3:0:0:0:
224,5,57405,1,0,0:0:0:0:
124,315,57551,5,2,0:0:0:0:
256,192,57625,12,0,59600,0:0:0:0:
471,192,59893,5,2,0:0:0:0:
397,160,60095,1,2,0:0:0:0:
314,174,60298,1,2,0:0:0:0:
256,233,60501,1,2,0:0:0:0:
177,249,60703,1,2,0:0:0:0:
106,216,60906,5,2,0:0:0:0:
104,204,61109,1,2,0:0:0:0:
102,192,61311,1,0,0:0:0:0:
52,126,61514,6,0,B|91:97|137:112|137:112|170:147|170:147|218:172|278:122,1,228.799989526368,6|8,1:2|0:0,0:0:0:0:
398,60,61816,2,0,B|439:52|453:17|453:17|458:57|504:75,1,145.200004431152,2|0,1:0|0:0,0:0:0:0:
406,144,62017,1,2,1:2:0:0:
406,144,62118,2,0,P|364:139|323:93,1,96.8000029541017,10|0,0:1|0:0,0:0:0:0:
279,7,62319,6,0,B|293:38|313:52|313:52|289:136|289:241,1,228.799989526368,2|8,1:0|0:0,0:0:0:0:
154,328,62621,2,0,P|209:304|226:236,1,96.8000029541017,2|0,1:0|0:0,0:0:0:0:
212,193,62822,1,0,1:0:0:0:
311,304,62923,2,0,P|261:303|216:248,1,96.8000029541017,10|0,0:0|0:0,0:0:0:0:
285,63,63124,6,0,P|334:64|380:121,1,96.8000029541017,2|0,1:1|0:0,0:0:0:0:
236,207,63326,2,0,P|212:162|238:94,1,96.8000029541017,10|0,0:0|1:0,0:0:0:0:
383,175,63527,2,0,P|357:216|285:229,1,96.8000029541017,2|0,0:1|1:0,0:0:0:0:
301,149,63728,1,10,0:1:0:0:
301,149,63829,1,0,0:0:0:0:
383,175,63930,6,0,B|328:150|280:189|280:189|197:243|135:170,1,228.799989526368,2|10,1:2|0:1,0:0:0:0:
91,159,64232,2,0,P|33:161|-4:220,2,96.8000029541017,2|0|0,1:2|0:0|1:0,0:0:0:0:
125,273,64534,2,0,P|87:302|40:299,1,96.8000029541017,10|0,0:1|0:0,0:0:0:0:
114,25,64735,6,0,L|184:38,1,66,2|0,1:2|0:0,0:0:0:0:
179,37,64936,6,0,L|33:58,1,118.799996374512,10|0,0:1|0:0,0:0:0:0:
62,53,65138,6,0,L|258:85,1,171.599992144776,2|0,0:1|0:0,0:0:0:0:
232,80,65339,6,0,L|-11:124,1,224.40000428009,10|0,0:0|0:0,0:0:0:0:
11,120,65540,6,0,B|100:91|172:164|172:164|259:240|370:180,1,352,2|8,1:0|0:0,0:0:0:0:
289,14,65842,6,0,P|221:93|325:87,1,264.000010070801,2|0,1:0|1:0,0:0:0:0:
406,64,66144,6,0,B|410:94|410:94|404:119|404:119|408:165,1,88,10|0,0:1|0:0,0:0:0:0:
344,229,66346,6,0,P|302:241|267:233,1,66,0|0,1:0|0:0,0:0:0:0:
353,215,66547,2,0,B|269:252|196:172|196:172|118:100|35:151,1,330,14|0,0:0|0:0,0:0:0:0:
58,228,66748,6,0,P|100:240|135:232,1,66,0|0,1:0|0:0,0:0:0:0:
49,214,66950,2,0,B|133:251|206:171|206:171|284:99|367:150,1,330,14|0,0:0|0:0,0:0:0:0:
344,229,67151,6,0,P|302:241|267:233,1,66,0|0,1:0|0:0,0:0:0:0:
353,215,67352,2,0,B|269:252|196:172|196:172|118:100|35:151,1,330,14|0,0:0|0:0,0:0:0:0:
58,228,67554,6,0,P|100:240|135:232,1,66,0|0,1:0|0:0,0:0:0:0:
49,214,67756,2,0,B|133:251|206:171|206:171|284:99|367:150,1,330,14|0,0:0|0:0,0:0:0:0:
408,342,67956,6,0,B|439:302|413:249|413:249|399:212|420:171|420:171|396:217|352:214,1,264.000010070801,6|8,1:2|0:0,0:0:0:0:
239,309,68258,2,0,P|176:322|115:259,1,145.200004431152,2|0,1:0|0:0,0:0:0:0:
184,150,68460,1,2,1:2:0:0:
184,150,68560,2,0,P|205:203|180:256,1,96.8000029541017,10|0,0:1|0:0,0:0:0:0:
72,78,68762,6,0,B|102:79|126:91|126:91|170:63|170:63|229:81|229:81|246:61|287:47,1,228.799989526368,2|8,1:0|0:0,0:0:0:0:
184,150,69064,2,0,P|174:199|205:249,1,96.8000029541017,2|0,1:0|0:0,0:0:0:0:
272,266,69265,1,0,1:0:0:0:
141,312,69366,2,0,P|150:273|206:237,1,96.8000029541017,10|0,0:0|0:0,0:0:0:0:
410,62,69567,6,0,L|401:199,1,96.8000029541017,2|0,1:0|0:0,0:0:0:0:
507,181,69769,6,0,L|514:65,1,83.5999977676392,8|0,0:0|1:0,0:0:0:0:
423,75,69970,6,0,L|416:171,1,70.4,2|0,0:1|1:0,0:0:0:0:
496,168,70171,6,0,L|499:94,1,57.1999973815919,10|0,0:1|0:0,0:0:0:0:
410,62,70373,6,0,B|351:93|295:54|295:54|239:13|163:56,1,228.799989526368,2|10,1:2|0:1,0:0:0:0:
183,123,70675,2,0,P|233:148|284:134,2,96.8000029541017,2|0|0,1:2|0:0|1:0,0:0:0:0:
91,14,70977,2,0,P|108:81|92:119,1,96.8000029541017,10|0,0:1|0:0,0:0:0:0:
30,236,71178,6,0,P|110:187|154:340,1,290.400008862305,2|0,1:2|0:0,0:0:0:0:
167,327,71581,2,0,P|114:359|62:342,1,96.8000029541017,2|0,0:1|1:0,0:0:0:0:
289,213,71782,2,0,P|344:225|377:277,1,96.8000029541017,10|0,0:0|0:0,0:0:0:0:
443,295,71983,6,0,B|470:309|479:332|479:332|459:188,1,171.599992144776,2|0,1:0|0:0,0:0:0:0:
446,208,72185,2,0,P|401:216|366:262,1,96.8000029541017,8|2,0:0|1:0,0:0:0:0:
367,31,72386,6,0,P|449:40|490:138,1,171.599992144776,2|0,0:0|0:0,0:0:0:0:
494,133,72587,2,0,L|394:118,1,96.8000029541017,10|0,0:1|0:0,0:0:0:0:
231,96,72789,6,0,L|240:5,1,88,12|0,1:2|0:0,0:0:0:0:
249,184,73191,6,0,L|237:-23,1,176,12|0,1:2|0:0,0:0:0:0:
215,271,73594,6,0,L|238:9,1,264.000010070801,12|0,1:2|0:0,0:0:0:0:
265,353,73997,5,12,1:2:0:0:
258,266,74097,1,8,0:3:0:0:
251,180,74198,1,4,0:3:0:0:
244,93,74299,1,4,0:3:0:0:
238,8,74399,6,0,P|189:34|129:23,1,88,6|0,1:2|0:0,0:0:0:0:
36,90,74601,2,0,P|79:92|116:115,1,88,10|0,0:0|0:0,0:0:0:0:
70,258,74802,2,0,P|50:219|52:175,1,88,2|0,1:2|1:0,0:0:0:0:
198,143,75003,2,0,P|173:179|135:199,1,88,10|0,0:0|0:0,0:0:0:0:
3,299,75205,6,0,B|42:262|96:277|96:277|122:319|198:312,1,176,2|8,1:2|0:0,0:0:0:0:
208,238,75507,1,2,1:2:0:0:
208,238,75607,2,0,P|170:203|114:205,1,88,0|0,0:0|1:0,0:0:0:0:
242,319,75809,1,8,0:0:0:0:
322,294,75909,1,0,0:0:0:0:
389,345,76010,6,0,P|407:292|390:246,1,88,2|0,1:2|0:0,0:0:0:0:
344,122,76211,2,0,P|326:175|343:221,1,88,10|0,0:0|0:0,0:0:0:0:
476,290,76413,2,0,P|426:259|372:276,1,88,2|0,1:2|1:0,0:0:0:0:
256,233,76614,2,0,P|299:231|333:204,1,88,10|0,0:0|0:0,0:0:0:0:
273,60,76816,6,0,B|225:42|187:68|187:68|139:103|69:62,1,176,2|8,1:2|0:0,0:0:0:0:
43,21,77118,1,2,1:2:0:0:
43,21,77218,2,0,P|21:72|32:117,1,88,0|0,0:0|1:0,0:0:0:0:
159,169,77420,1,8,0:0:0:0:
235,138,77520,1,0,0:0:0:0:
284,210,77621,6,0,P|327:235|378:229,1,88,2|0,1:2|0:0,0:0:0:0:
423,93,77822,2,0,P|439:136|426:186,1,88,10|0,0:0|0:0,0:0:0:0:
362,317,78024,2,0,P|351:266|375:220,1,88,2|0,1:2|1:0,0:0:0:0:
511,202,78225,2,0,P|476:178|399:195,1,88,10|0,0:0|0:0,0:0:0:0:
362,317,78426,6,0,B|314:335|276:309|276:309|228:274|158:315,1,176,2|8,1:2|0:0,0:0:0:0:
61,352,78728,1,2,1:2:0:0:
61,352,78829,2,0,P|121:377|167:353,1,88,0|0,0:0|1:0,0:0:0:0:
133,231,79030,2,0,P|83:238|48:279,1,88,8|0,0:0|0:0,0:0:0:0:
81,58,79232,6,0,B|126:32|166:64|166:64|202:51|202:51|259:119|344:67,1,272.800002081299,6|8,1:2|0:0,0:0:0:0:
330,74,79534,1,2,0:0:0:0:
512,124,79634,6,0,B|460:85|397:105|377:161|377:161|343:151|307:174|307:174|265:203|200:157,1,308.000002937317,6|8,1:2|0:0,0:0:0:0:
240,179,79936,1,2,0:0:0:0:
128,259,80037,6,0,P|168:292|228:281,1,105.599996777344,2|8,1:2|0:0,0:0:0:0:
229,280,80339,1,4,0:3:0:0:
237,271,80440,6,0,P|160:346|191:155,1,488.399998136902,10|0,0:3|0:0,0:0:0:0:
310,260,80842,6,0,B|358:278|396:252|396:252|444:217|514:258,1,176,6|8,1:2|0:0,0:0:0:0:
336,181,81144,2,0,P|279:181|239:231,1,88,2|0,0:0|1:0,0:0:0:0:
285,340,81346,1,2,0:0:0:0:
285,340,81446,2,0,P|342:340|382:290,1,88,8|0,0:0|0:0,0:0:0:0:
202,260,81648,6,0,B|154:278|116:252|116:252|68:217|-2:258,1,176,2|8,1:2|0:0,0:0:0:0:
176,181,81950,2,0,P|233:181|273:231,1,88,2|0,0:0|1:0,0:0:0:0:
227,340,82151,1,2,0:0:0:0:
227,340,82252,2,0,P|170:340|130:290,1,88,8|0,0:0|0:0,0:0:0:0:
23,169,82453,6,0,B|62:128|113:143|113:143|124:166|150:190|203:176,1,176,2|8,1:2|0:0,0:0:0:0:
224,111,82755,2,0,P|199:78|148:72,1,88,0|0,0:0|1:0,0:0:0:0:
236,280,82956,1,2,0:0:0:0:
236,280,83057,2,0,L|395:268,1,132,8|0,0:0|0:0,0:0:0:0:
385,268,83258,5,2,1:2:0:0:
376,192,83460,5,10,0:1:0:0:
366,117,83661,5,2,1:1:0:0:
357,41,83862,5,10,0:1:0:0:
9,95,84064,6,0,P|81:153|162:108,1,176,6|8,1:2|0:0,0:0:0:0:
256,37,84366,2,0,P|231:84|244:139,1,88,2|0,0:0|1:0,0:0:0:0:
255,255,84567,1,2,0:0:0:0:
255,255,84668,2,0,P|226:209|172:193,1,88,8|0,0:0|0:0,0:0:0:0:
503,95,84869,6,0,P|431:153|350:108,1,176,2|8,1:2|0:0,0:0:0:0:
256,37,85171,2,0,P|281:84|268:139,1,88,2|0,0:0|1:0,0:0:0:0:
255,255,85372,1,2,0:0:0:0:
255,255,85473,2,0,P|283:209|337:193,1,88,8|0,0:0|0:0,0:0:0:0:
373,344,85675,6,0,L|246:330,1,114.399994763184,6|0,1:0|0:0,0:0:0:0:
188,301,85876,5,0,0:0:0:0:
395,269,85977,2,0,L|254:254,1,140.8,2|14,0:1|1:2,0:0:0:0:
184,222,86178,5,4,0:3:0:0:
415,194,86279,2,0,L|233:177,1,167.199995535278,2|0,0:1|0:0,0:0:0:0:
77,291,86480,5,6,0:1:0:0:
72,338,87285,2,0,L|269:318,1,167.199995535278,6|0,1:0|0:0,0:0:0:0:
314,297,87487,5,0,0:0:0:0:
41,264,87587,2,0,L|282:240,1,212.048192771084,2|14,0:1|1:2,0:0:0:0:
326,218,87789,5,4,0:3:0:0:
14,190,87889,2,0,L|316:161,1,255.072463768116,2|0,0:1|0:0,0:0:0:0:
468,270,88091,5,6,0:1:0:0:
35,25,88493,6,0,L|27:74,1,43.9450686641698,2|0,0:1|0:0,0:0:0:0:
