osu file format v14

[General]
AudioFilename: audio.mp3
AudioLeadIn: 0
PreviewTime: 60805
Countdown: 0
SampleSet: Soft
StackLeniency: 0.4
Mode: 0
LetterboxInBreaks: 0
WidescreenStoryboard: 0

[Editor]
DistanceSpacing: 1.2
BeatDivisor: 4
GridSize: 4
TimelineZoom: 1

[Metadata]
Title:Curtain Call!!!!!
TitleUnicode:かーてんこーる!!!!!
Artist:Gekidan Hitotose
ArtistUnicode:劇団ひととせ
Creator:Left
Version:Insane
Source:ひなこのーと
Tags:Hinako Note ED Ending fieryrage Crystal Akitoshi
BeatmapID:1344859
BeatmapSetID:633693

[Difficulty]
HPDrainRate:6
CircleSize:3.8
OverallDifficulty:7
ApproachRate:9
SliderMultiplier:1.66
SliderTickRate:1

[Events]
//Background and Video events
0,0,"hinakoBG.jpg",0,0
Video,-221,"vid.avi"
//Break Periods
//Storyboard Layer 0 (Background)
//Storyboard Layer 1 (Fail)
//Storyboard Layer 2 (Pass)
//Storyboard Layer 3 (Foreground)
//Storyboard Sound Samples

[TimingPoints]
1532,202.702702702703,4,2,1,73,1,0
1532,-83.3333333333333,4,2,1,73,0,0
3964,-111.111111111111,4,2,1,65,0,0
4369,-83.3333333333333,4,2,1,65,0,0
4775,-100,4,2,1,65,0,0
9640,-83.3333333333333,4,2,1,65,0,0
11261,-100,4,2,1,65,0,0
17342,-200,4,2,1,65,0,0
17646,-200,4,2,1,5,0,0
17748,292.682926829268,4,2,1,65,1,0
23162,-166.666666666667,4,2,1,65,0,0
26089,-100,4,2,1,65,0,0
27113,-105.263157894737,4,2,1,65,0,0
45845,292.682926829268,6,2,1,53,1,0
45845,-142.857142857143,6,2,1,53,0,0
52869,292.682926829268,4,2,1,65,1,0
52869,-105.263157894737,4,2,1,65,0,0
57551,-105.263157894737,4,2,1,40,0,0
59600,-166.666666666667,4,2,1,40,0,0
59842,-166.666666666667,4,2,1,5,0,0
59893,202.702702702703,4,2,1,40,1,0
59893,-200,4,2,1,40,0,0
60501,-142.857142857143,4,2,1,50,0,0
61109,-111.111111111111,4,2,1,66,0,0
61514,201.342281879195,4,2,1,78,1,1
66547,-66.6666666666667,4,2,1,78,0,1
67906,-66.6666666666667,4,2,1,5,0,1
67956,-100,4,2,1,78,0,1
74399,-100,4,2,1,65,0,0
79232,-83.3333333333333,4,2,1,65,0,0
80842,-100,4,2,1,65,0,0
83208,-100,4,2,1,5,0,0
83258,-100,4,2,1,65,0,0
85675,-83.3333333333333,4,2,1,65,0,0
88493,-200,4,2,1,65,0,0
88695,-200,4,2,1,5,0,0

[Colours]
Combo1 : 255,255,185
Combo2 : 255,198,255
Combo3 : 147,196,255
Combo4 : 255,201,147
Combo5 : 237,203,254

[HitObjects]
488,49,1532,6,0,L|497:274,1,199.199993920899,6|0,1:2|0:0,0:0:0:0:
422,284,1836,2,0,L|413:59,1,199.199993920899,2|0,1:2|0:0,0:0:0:0:
337,56,2140,2,0,L|342:189,1,99.5999969604493,2|0,1:2|0:0,0:0:0:0:
270,298,2342,6,0,L|262:82,1,199.199993920899,6|0,1:2|0:0,0:0:0:0:
186,62,2646,2,0,L|194:278,1,199.199993920899,2|0,1:2|0:0,0:0:0:0:
119,302,2950,2,0,L|114:169,1,99.5999969604493,2|0,1:2|0:0,0:0:0:0:
46,109,3153,6,0,P|134:181|204:114,1,199.199993920899,6|0,1:2|0:0,0:0:0:0:
254,90,3457,2,0,B|307:66|353:107|353:107|396:143|457:110,1,199.199993920899,2|0,1:2|0:0,0:0:0:0:
404,43,3761,1,2,1:2:0:0:
381,347,3964,5,2,0:0:0:0:
379,334,4032,1,0,0:0:0:0:
376,322,4099,1,0,0:0:0:0:
374,311,4167,2,0,P|378:279|386:251,2,49.7999984802247,0|0|0,0:0|0:0|0:0,0:0:0:0:
504,290,4369,6,0,B|429:301|390:205|390:205|337:264|256:248,1,298.799990881348,2|0,0:1|0:0,0:0:0:0:
197,201,4775,6,0,P|182:249|211:315,1,83,6|0,1:2|0:0,0:0:0:0:
274,173,4977,2,0,P|278:132|264:93,1,83,10|0,0:0|1:0,0:0:0:0:
164,45,5180,2,0,P|124:71|67:65,1,83,2|0,0:0|1:0,0:0:0:0:
30,19,5383,2,0,P|60:59|118:73,1,83,10|0,0:0|0:0,0:0:0:0:
239,141,5586,6,0,B|208:109|153:126|153:126|118:172|50:148,1,166,2|10,1:2|0:1,0:0:0:0:
18,110,5890,1,2,1:2:0:0:
18,110,5991,2,0,P|5:147|28:214,1,83,2|0,0:1|1:0,0:0:0:0:
122,302,6194,2,0,P|135:339|112:406,1,83,10|0,0:1|0:0,0:0:0:0:
64,247,6396,6,0,P|119:220|168:238,1,83,2|0,1:2|0:0,0:0:0:0:
228,259,6599,2,0,P|214:224|222:171,1,83,10|0,0:0|1:0,0:0:0:0:
285,133,6802,2,0,P|299:168|291:221,1,83,2|0,0:0|1:0,0:0:0:0:
363,257,7004,2,0,P|418:230|467:248,1,83,10|0,0:0|0:0,0:0:0:0:
475,145,7207,6,0,P|392:134|356:43,1,166,2|10,1:2|0:1,0:0:0:0:
283,24,7511,1,2,1:2:0:0:
283,24,7613,2,0,P|245:48|186:46,1,83,2|0,0:1|1:0,0:0:0:0:
143,108,7815,2,0,P|181:132|240:130,1,83,10|0,0:1|0:0,0:0:0:0:
325,195,8018,6,0,P|342:230|324:307,1,83,2|0,1:2|0:0,0:0:0:0:
258,294,8221,2,0,P|241:259|259:182,1,83,10|0,0:0|1:0,0:0:0:0:
300,114,8423,2,0,P|353:115|398:162,1,83,2|0,0:0|1:0,0:0:0:0:
258,294,8626,2,0,P|205:293|160:246,1,83,10|0,0:0|0:0,0:0:0:0:
157,196,8829,6,0,B|95:170|56:221|56:221|27:205|-12:221,1,166,2|10,1:2|0:1,0:0:0:0:
22,298,9133,1,2,1:2:0:0:
22,298,9234,2,0,P|73:305|116:277,1,83,2|0,0:1|1:0,0:0:0:0:
157,196,9437,2,0,P|152:152|113:111,1,83,10|0,0:1|0:0,0:0:0:0:
55,76,9640,6,0,B|112:108|192:66|192:66|266:13|351:66,1,298.799990881348,6|0,1:2|0:0,0:0:0:0:
356,143,10045,2,0,P|476:173|387:90,1,298.799990881348,6|0,1:2|0:0,0:0:0:0:
272,116,10450,2,0,P|250:161|259:217,1,99.5999969604493,2|0,1:2|0:0,0:0:0:0:
322,263,10653,5,8,0:0:0:0:
335,178,10754,1,4,0:3:0:0:
272,116,10856,2,0,P|221:111|164:169,1,99.5999969604493,10|0,0:3|0:0,0:0:0:0:
400,233,11059,2,0,P|451:238|508:180,1,99.5999969604493,10|0,0:0|0:0,0:0:0:0:
243,294,11261,6,0,P|170:282|97:363,1,166,6|8,1:2|0:0,0:0:0:0:
313,341,11565,1,2,1:2:0:0:
313,341,11667,2,0,P|328:307|278:223,1,83,2|0,0:0|1:0,0:0:0:0:
256,133,11869,2,0,P|277:162|375:161,1,83,10|0,0:0|0:0,0:0:0:0:
475,253,12072,6,0,B|435:223|382:237|382:237|357:264|322:262,1,166,2|8,1:2|0:0,0:0:0:0:
247,228,12376,2,0,B|225:222|208:203|208:203|236:362,1,166,2|0,1:2|1:0,0:0:0:0:
321,261,12680,2,0,P|330:217|300:157,1,83,10|0,0:0|0:0,0:0:0:0:
281,40,12883,5,2,1:2:0:0:
247,67,12984,1,0,0:0:0:0:
202,75,13086,1,8,0:0:0:0:
167,61,13187,1,2,1:2:0:0:
138,32,13288,6,0,P|156:76|148:123,1,83,0|0,0:0|1:0,0:0:0:0:
27,197,13491,2,0,P|69:197|110:169,1,83,10|0,0:0|0:0,0:0:0:0:
152,110,13694,6,0,B|198:95|232:118|232:118|276:150|328:124,1,166,2|8,1:0|0:0,0:0:0:0:
365,67,13998,2,0,P|322:49|262:67,2,83,2|0|0,0:1|0:0|1:0,0:0:0:0:
337,211,14302,2,0,P|296:214|258:197,1,83,10|0,0:1|0:0,0:0:0:0:
132,164,14504,6,0,P|184:245|155:311,1,166,6|8,1:2|0:0,0:0:0:0:
256,320,14809,1,0,1:0:0:0:
256,320,14910,2,0,P|293:303|334:306,1,83,2|0,0:0|1:0,0:0:0:0:
337,211,15113,2,0,P|296:214|258:197,1,83,10|0,0:0|0:0,0:0:0:0:
192,135,15315,6,0,B|150:105|100:128|100:128|78:156|33:160,1,166,2|8,1:2|0:0,0:0:0:0:
238,54,15619,2,0,P|317:99|391:57,1,166,2|0,1:2|1:0,0:0:0:0:
379,71,15923,2,0,P|363:103|366:165,1,83,10|0,0:0|0:0,0:0:0:0:
417,257,16126,6,0,P|361:231|294:270,1,83,6|0,1:2|0:0,0:0:0:0:
208,199,16329,2,0,P|248:197|283:175,1,83,8|0,0:0|0:0,0:0:0:0:
415,269,16532,2,0,P|359:243|292:282,1,83,6|0,1:2|0:0,0:0:0:0:
204,190,16734,2,0,P|244:188|279:166,1,83,8|0,0:0|0:0,0:0:0:0:
412,283,16937,5,6,1:2:0:0:
393,366,17038,1,2,1:0:0:0:
380,377,17241,5,2,0:0:0:0:
399,289,17342,2,0,P|342:257|273:280,1,124.5,2|0,0:1|0:0,0:0:0:0:
273,282,17748,6,0,P|285:232|270:186,1,83,12|0,0:2|0:0,0:0:0:0:
186,93,18040,2,0,P|228:118|287:96,1,83,8|0,0:0|0:0,0:0:0:0:
267,105,18260,1,0,0:0:0:0:
274,96,18333,2,0,B|316:67|368:86|368:86|396:117|460:105,1,166,8|8,0:0|0:0,0:0:0:0:
426,28,18772,1,0,0:0:0:0:
330,162,18918,6,0,P|345:203|344:251,1,83,8|0,0:0|0:0,0:0:0:0:
283,299,19211,2,0,P|268:258|269:210,1,83,8|0,0:0|0:0,0:0:0:0:
330,162,19504,2,0,P|382:158|435:191,1,83,8|0,0:0|1:0,0:0:0:0:
283,299,19796,2,0,P|231:303|178:270,1,83,8|0,0:0|1:0,0:0:0:0:
114,258,20089,6,0,P|128:316|112:364,1,83,8|0,0:0|0:0,0:0:0:0:
183,211,20382,2,0,P|169:153|185:105,1,83,8|0,0:0|1:0,0:0:0:0:
181,120,20601,1,0,1:0:0:0:
190,111,20674,2,0,P|145:130|84:120,1,83,10|0,1:2|0:0,0:0:0:0:
252,49,20967,2,0,P|293:49|330:67,1,83,8|0,0:0|0:0,0:0:0:0:
360,218,21260,6,0,P|376:175|374:126,1,83,8|0,0:0|0:0,0:0:0:0:
289,164,21552,1,2,1:2:0:0:
442,248,21699,2,0,B|402:226|358:250|358:250|311:273|258:247,1,166,12|0,0:0|0:0,0:0:0:0:
191,221,22138,1,8,0:0:0:0:
197,240,22211,1,8,0:3:0:0:
202,260,22284,1,8,0:3:0:0:
204,281,22357,1,4,0:3:0:0:
203,302,22430,1,4,1:2:0:0:
373,163,23162,6,0,P|348:118|359:65,1,99.5999969604493,4|0,1:2|0:0,0:0:0:0:
434,54,23601,1,8,0:0:0:0:
139,221,24333,6,0,P|164:266|153:319,1,99.5999969604493,4|0,1:2|0:0,0:0:0:0:
78,330,24772,1,8,0:0:0:0:
354,72,25504,6,0,P|379:114|373:163,1,99.5999969604493,4|0,1:2|0:0,0:0:0:0:
366,174,25869,1,4,0:3:0:0:
359,184,25943,1,6,1:2:0:0:
222,148,26089,6,0,P|259:129|317:137,1,83,8|0,0:0|0:0,0:0:0:0:
477,262,26382,2,0,B|438:244|412:249|412:249|385:266|385:266|345:279|286:242,1,166,12|8,0:0|0:3,0:0:0:0:
307,253,26747,1,4,0:3:0:0:
296,245,26821,2,0,P|311:291|305:331,1,83,0|0,1:0|0:0,0:0:0:0:
157,252,27113,6,0,P|154:205|170:170,1,78.8499978944779,6|8,1:2|0:0,0:0:0:0:
188,72,27406,1,2,1:2:0:0:
188,72,27479,1,0,1:0:0:0:
188,72,27552,2,0,P|148:98|110:101,1,78.8499978944779,8|0,0:0|1:0,0:0:0:0:
16,170,27845,2,0,B|54:160|54:160|86:179|86:179|134:204|195:158,1,157.699995788956,10|8,0:0|0:0,0:0:0:0:
259,121,28284,6,0,P|246:173|255:203,1,78.8499978944779,0|8,1:0|0:0,0:0:0:0:
320,244,28577,2,0,P|362:242|395:215,1,78.8499978944779,2|8,1:2|0:0,0:0:0:0:
390,220,28869,2,0,L|375:400,1,157.699995788956,2|0,1:2|1:0,0:0:0:0:
476,347,29308,1,10,0:0:0:0:
476,347,29455,6,0,L|483:250,1,78.8499978944779,0|10,1:0|0:0,0:0:0:0:
408,143,29747,2,0,L|401:240,1,78.8499978944779,2|8,1:2|0:0,0:0:0:0:
487,98,30040,5,2,1:2:0:0:
494,14,30187,1,8,0:0:0:0:
499,105,30333,1,2,1:2:0:0:
506,21,30479,1,8,0:0:0:0:
408,143,30626,6,0,P|367:146|330:119,1,78.8499978944779,0|10,1:0|0:0,0:0:0:0:
217,64,30918,2,0,P|240:98|235:143,1,78.8499978944779,2|8,1:2|0:0,0:0:0:0:
239,135,31211,2,0,L|73:124,1,157.699995788956,2|2,1:2|1:2,0:0:0:0:
102,210,31650,1,8,0:0:0:0:
26,300,31796,6,0,P|11:246|24:209,1,78.8499978944779,2|8,1:2|0:0,0:0:0:0:
102,210,32089,1,2,1:2:0:0:
102,210,32162,1,0,1:0:0:0:
102,210,32235,2,0,P|117:264|104:301,1,78.8499978944779,8|0,0:0|1:0,0:0:0:0:
171,366,32528,2,0,B|211:377|246:352|246:352|288:322|335:352,1,157.699995788956,10|10,0:0|0:0,0:0:0:0:
414,364,32967,6,0,P|392:315|395:278,1,78.8499978944779,0|8,1:0|0:0,0:0:0:0:
362,200,33260,2,0,P|330:243|297:259,1,78.8499978944779,2|8,1:2|0:0,0:0:0:0:
341,119,33552,1,2,1:2:0:0:
341,119,33699,2,0,B|381:108|416:133|416:133|458:163|505:133,1,157.699995788956,10|8,0:0|0:0,0:0:0:0:
287,49,34138,6,0,P|225:37|172:134,1,157.699995788956,2|0,1:2|1:0,0:0:0:0:
180,189,34577,2,0,L|187:249,2,39.4249989472389,10|0|0,0:0|1:0|1:0,0:0:0:0:
20,159,34869,2,0,L|123:153,1,78.8499978944779,8|0,0:0|1:0,0:0:0:0:
180,189,35162,1,8,0:0:0:0:
25,243,35308,6,0,L|128:237,1,78.8499978944779,2|10,1:2|0:0,0:0:0:0:
265,276,35601,2,0,L|162:282,1,78.8499978944779,0|10,1:0|0:0,0:0:0:0:
113,325,35894,1,0,1:0:0:0:
180,189,36040,2,0,L|174:130,2,39.4249989472389,10|4|0,0:0|0:3|1:0,0:0:0:0:
103,238,36333,1,10,0:0:0:0:
153,69,36479,6,0,P|204:70|244:106,1,78.8499978944779,6|8,1:2|0:0,0:0:0:0:
296,145,36772,1,2,1:2:0:0:
296,145,36845,1,0,1:0:0:0:
296,145,36918,2,0,P|347:144|387:108,1,78.8499978944779,8|0,0:0|1:0,0:0:0:0:
472,206,37211,2,0,B|433:184|396:216|396:216|359:244|309:224,1,157.699995788956,10|10,0:0|0:0,0:0:0:0:
233,214,37650,6,0,P|254:266|242:305,1,78.8499978944779,0|8,1:0|0:0,0:0:0:0:
166,306,37943,2,0,P|145:254|157:215,1,78.8499978944779,2|8,1:2|0:0,0:0:0:0:
148,233,38235,2,0,P|105:251|55:243,1,78.8499978944779,2|8,1:2|0:0,0:0:0:0:
50,163,38528,2,0,P|93:145|143:153,1,78.8499978944779,2|8,1:2|0:0,0:0:0:0:
270,191,38821,6,2,P|226:126|335:144,1,236.549993683434,2|10,1:0|0:1,0:1:0:0:
296,275,39406,2,2,P|389:299|359:207,1,236.549993683434,2|10,1:0|0:1,0:1:0:0:
196,213,39991,6,0,P|252:203|276:184,1,78.8499978944779,2|8,1:2|0:0,0:0:0:0:
225,51,40284,1,2,1:2:0:0:
225,51,40357,1,0,1:0:0:0:
225,51,40430,2,0,P|205:104|210:134,1,78.8499978944779,8|0,0:0|1:0,0:0:0:0:
292,107,40723,1,10,0:0:0:0:
129,68,40869,1,2,1:2:0:0:
75,337,41162,6,0,P|127:322|169:336,1,78.8499978944779,2|8,1:2|0:0,0:0:0:0:
201,250,41455,1,2,1:2:0:0:
201,250,41528,1,0,1:0:0:0:
201,250,41601,2,0,P|237:264|276:260,1,78.8499978944779,8|0,0:0|1:0,0:0:0:0:
330,187,41894,2,0,P|366:261|336:325,1,157.699995788956,10|10,0:0|0:0,0:0:0:0:
242,171,42333,6,0,L|249:78,1,78.8499978944779,0|8,1:0|0:0,0:0:0:0:
329,85,42626,2,0,L|322:178,1,78.8499978944779,2|8,1:2|0:0,0:0:0:0:
413,59,42918,1,2,1:2:0:0:
413,59,43065,2,0,B|370:74|332:48|332:48|290:25|243:50,1,157.699995788956,10|8,0:0|0:0,0:0:0:0:
280,199,43504,6,0,P|295:148|289:120,1,78.8499978944779,2|8,1:2|0:0,0:0:0:0:
205,112,43796,2,0,P|190:163|196:191,1,78.8499978944779,2|8,1:2|0:0,0:0:0:0:
279,288,44089,2,0,P|330:275|351:256,1,78.8499978944779,2|8,1:2|0:0,0:0:0:0:
115,222,44382,2,0,P|151:260|178:269,1,78.8499978944779,2|8,1:2|0:0,0:0:0:0:
279,288,44674,5,2,1:2:0:0:
195,187,44821,1,8,0:0:0:0:
87,315,44967,1,0,0:0:0:0:
4,218,45113,2,0,B|14:157|-4:100|-4:100|7:118|39:128,1,157.699995788956,14|0,0:0|1:0,0:0:0:0:
110,57,45552,1,2,0:0:0:0:
105,29,45625,1,2,0:0:0:0:
78,27,45698,1,2,0:0:0:0:
69,53,45771,1,0,0:0:0:0:
93,68,45845,6,0,B|155:86|197:40|197:40|241:38|260:66,1,174.299994680786,4|0,1:2|0:0,0:0:0:0:
271,140,46430,2,0,P|228:138|198:119,1,58.0999982269288,2|0,0:0|0:0,0:0:0:0:
334,82,46723,2,0,P|394:76|444:128,2,116.199996453858,2|2|2,1:2|0:0|0:0,0:0:0:0:
229,268,47601,6,0,P|285:227|345:256,2,116.199996453858,2|2|0,1:2|0:0|0:0,0:0:0:0:
400,324,48479,2,0,B|366:314|348:325|348:325|322:341|280:332,1,116.199996453858,2|2,1:2|0:0,0:0:0:0:
229,268,48918,1,0,0:0:0:0:
229,268,49064,2,0,P|220:230|227:202,1,58.0999982269288,2|0,0:0|0:0,0:0:0:0:
294,120,49357,6,0,P|226:179|150:162,1,174.299994680786,2|0,1:2|0:0,0:0:0:0:
92,96,49942,2,0,P|51:85|15:98,1,58.0999982269288,2|0,0:0|0:0,0:0:0:0:
149,161,50235,2,0,P|177:112|158:43,2,116.199996453858,2|2|2,1:2|0:0|0:0,0:0:0:0:
11,314,51113,6,0,P|61:289|155:370,1,174.299994680786,2|0,1:2|0:0,0:0:0:0:
151,347,51698,2,0,P|141:290|185:254,1,116.199996453858,2|0,1:2|0:0,0:0:0:0:
400,344,52284,6,0,L|324:335,1,58.0999982269288,2|0,0:0|0:0,0:0:0:0:
409,329,52576,2,0,L|333:320,1,58.0999982269288,2|0,0:0|0:0,0:0:0:0:
249,252,52869,6,0,P|235:214|246:165,1,78.8499978944779,6|0,1:2|0:0,0:0:0:0:
317,58,53161,2,0,P|289:87|244:98,1,78.8499978944779,10|0,0:0|1:0,0:0:0:0:
98,162,53454,2,0,B|131:129|185:146|185:146|213:179|251:176,1,157.699995788956,2|8,0:0|0:0,0:0:0:0:
338,146,53893,1,2,0:0:0:0:
338,146,54039,6,0,P|321:180|334:240,1,78.8499978944779,2|0,1:2|0:0,0:0:0:0:
459,244,54332,2,0,P|438:212|379:193,1,78.8499978944779,10|0,0:0|0:0,0:0:0:0:
313,304,54625,2,0,P|350:301|396:260,1,78.8499978944779,2|0,1:2|1:0,0:0:0:0:
246,181,54917,1,10,0:0:0:0:
246,181,55064,1,0,0:0:0:0:
185,244,55210,6,0,B|141:255|110:232|110:232|72:208|17:228,1,157.699995788956,2|8,1:2|0:0,0:0:0:0:
61,303,55649,1,2,1:2:0:0:
159,161,55795,2,0,P|145:120|152:73,1,78.8499978944779,2|0,0:0|1:0,0:0:0:0:
320,63,56088,1,10,0:0:0:0:
265,125,56234,1,10,0:0:0:0:
243,122,56308,1,8,0:0:0:0:
227,113,56381,1,8,0:3:0:0:
320,63,56527,6,0,P|366:65|405:101,1,78.8499978944779,4|0,0:3|0:0,0:0:0:0:
483,189,56820,2,0,B|445:154|394:167|394:167|369:194|328:189,1,157.699995788956,10|0,0:0|0:0,0:0:0:0:
244,174,57259,2,0,P|267:231|260:269,1,78.8499978944779,4|0,0:3|0:0,0:0:0:0:
105,251,57551,5,2,0:0:0:0:
130,237,57698,1,0,0:0:0:0:
159,242,57844,1,0,0:0:0:0:
185,231,57990,1,0,0:0:0:0:
244,174,58137,5,2,0:0:0:0:
258,195,58283,1,0,0:0:0:0:
265,221,58429,1,0,0:0:0:0:
264,247,58576,1,0,0:0:0:0:
165,155,58722,5,2,0:0:0:0:
183,118,58868,1,0,0:0:0:0:
216,96,59015,5,2,0:0:0:0:
244,174,59308,1,2,0:0:0:0:
165,155,59600,2,0,P|125:140|77:151,1,74.699997720337,2|0,0:0|0:0,0:0:0:0:
78,153,59893,6,0,L|93:261,2,83,2|0|2,0:0|0:0|0:0,0:0:0:0:
160,119,60501,6,0,L|177:235,2,116.199996453858,2|0|2,0:0|0:0|0:0,0:0:0:0:
243,89,61109,6,0,L|269:257,1,149.399995440674,2|0,0:0|0:0,0:0:0:0:
427,299,61514,6,0,B|378:275|332:290|332:290|303:327|245:316,1,166,6|8,1:2|0:0,0:0:0:0:
191,283,61816,2,0,P|180:237|204:174,1,83,2|0,1:0|0:0,0:0:0:0:
192,92,62017,1,0,1:0:0:0:
192,92,62118,2,0,P|157:124|91:135,1,83,10|0,0:1|0:0,0:0:0:0:
35,195,62319,6,0,B|75:157|126:178|126:178|151:207|199:202,1,166,2|8,1:0|0:0,0:0:0:0:
271,140,62621,2,0,B|267:98|244:63|244:63|206:84|179:134,1,166,2|0,1:0|1:0,0:0:0:0:
329,204,62923,2,0,P|356:157|349:108,1,83,10|0,0:0|0:0,0:0:0:0:
248,220,63124,6,0,L|256:319,1,83,2|0,1:1|0:0,0:0:0:0:
335,286,63326,2,0,L|327:187,1,83,10|0,0:0|1:0,0:0:0:0:
184,74,63527,2,0,L|192:173,1,83,2|0,0:1|1:0,0:0:0:0:
271,140,63728,2,0,L|263:41,1,83,10|0,0:1|0:0,0:0:0:0:
184,74,63930,6,0,B|139:89|101:62|101:62|64:37|18:57,1,166,2|10,1:2|0:1,0:0:0:0:
34,207,64232,2,0,P|58:156|35:109,2,83,2|0|0,1:2|0:0|1:0,0:0:0:0:
98,266,64534,2,0,P|139:238|197:264,1,83,10|0,0:1|0:0,0:0:0:0:
261,309,64735,6,0,P|249:253|262:221,1,83,2|0,1:2|0:0,0:0:0:0:
336,194,64936,2,0,P|378:211|405:272,1,83,10|0,0:1|1:0,0:0:0:0:
215,155,65138,2,0,P|173:138|146:77,1,83,2|0,0:1|1:0,0:0:0:0:
304,32,65339,2,0,P|316:88|303:120,1,83,10|0,0:0|0:0,0:0:0:0:
75,67,65540,6,0,B|106:53|133:61|133:61|161:81|161:81|208:94|256:61,1,166,2|8,1:0|0:0,0:0:0:0:
304,32,65842,2,0,B|330:26|347:11|347:11|316:74|318:160,1,166,2|0,1:0|1:0,0:0:0:0:
182,203,66144,2,0,P|216:171|264:185,1,83,10|0,0:1|0:0,0:0:0:0:
326,211,66346,1,0,1:0:0:0:
40,307,66547,6,0,L|33:28,1,249.000009498597,14|0,0:0|0:0,0:0:0:0:
400,335,66950,2,0,L|453:91,1,249.000009498597,14|0,0:0|0:0,0:0:0:0:
28,321,67352,6,0,L|-1:45,1,249.000009498597,14|0,0:0|0:0,0:0:0:0:
410,354,67755,2,0,L|489:125,1,186.750007123947,14|0,0:0|0:0,0:0:0:0:
482,158,67956,6,0,B|442:176|402:146|402:146|364:116|300:148,1,166,6|8,1:2|0:0,0:0:0:0:
315,223,68258,2,0,P|359:246|415:230,2,83,2|0|0,1:0|0:0|1:0,0:0:0:0:
210,170,68560,2,0,P|231:204|230:245,1,83,10|0,0:1|0:0,0:0:0:0:
154,328,68762,6,0,P|255:284|295:377,1,166,2|8,1:0|0:0,0:0:0:0:
372,327,69064,2,0,P|402:254|335:247,1,166,2|0,1:0|1:0,0:0:0:0:
230,198,69366,2,0,P|283:182|306:145,1,83,10|0,0:0|0:0,0:0:0:0:
230,16,69567,6,0,P|228:63|254:106,1,83,2|0,1:0|0:0,0:0:0:0:
330,79,69769,2,0,P|332:32|306:-11,1,83,8|0,0:0|1:0,0:0:0:0:
243,94,69970,2,0,P|241:141|267:184,1,83,2|0,0:1|1:0,0:0:0:0:
343,157,70171,2,0,P|345:110|319:67,1,83,10|0,0:1|0:0,0:0:0:0:
314,240,70373,6,0,B|366:258|402:226|402:226|446:218|495:261,1,166,2|10,1:2|0:1,0:0:0:0:
279,324,70675,2,0,P|240:294|233:234,2,83,2|0|0,1:2|0:0|1:0,0:0:0:0:
333,154,70977,2,0,P|286:154|239:199,1,83,10|0,0:1|0:0,0:0:0:0:
151,302,71178,6,0,B|150:266|140:238|140:238|161:200|161:200|148:171|150:124,1,166,2|8,1:2|0:0,0:0:0:0:
149,144,71581,2,0,P|114:145|71:200,1,83,2|0,0:1|1:0,0:0:0:0:
83,24,71782,2,0,P|113:51|153:54,1,83,10|0,0:0|0:0,0:0:0:0:
269,32,71983,6,0,P|255:120|334:182,1,166,2|8,1:0|0:0,0:0:0:0:
418,60,72285,1,2,1:0:0:0:
418,60,72386,2,0,P|391:22|329:11,1,83,2|0,0:0|1:0,0:0:0:0:
302,173,72587,2,0,L|326:267,1,83,10|0,0:1|0:0,0:0:0:0:
350,339,72789,5,12,1:2:0:0:
43,178,73191,1,12,1:2:0:0:
481,41,73594,1,12,1:2:0:0:
64,318,73997,1,12,1:2:0:0:
119,265,74097,1,8,0:3:0:0:
193,248,74198,1,4,0:3:0:0:
267,269,74299,1,4,0:3:0:0:
328,322,74399,6,0,P|345:274|331:222,1,83,6|0,1:2|0:0,0:0:0:0:
317,115,74601,2,0,P|350:153|402:167,1,83,10|0,0:0|0:0,0:0:0:0:
503,210,74802,2,0,P|452:219|414:257,1,83,2|0,1:2|1:0,0:0:0:0:
423,323,75003,2,0,P|473:313|511:275,1,83,10|0,0:0|0:0,0:0:0:0:
379,165,75205,6,0,B|335:138|293:163|293:163|270:202|210:196,1,166,2|8,1:2|0:0,0:0:0:0:
184,127,75507,2,0,P|226:89|275:89,2,83,2|0|0,1:2|0:0|1:0,0:0:0:0:
106,266,75809,2,0,P|59:255|28:218,1,83,8|0,0:0|0:0,0:0:0:0:
92,96,76010,6,0,L|111:198,1,83,2|0,1:2|0:0,0:0:0:0:
106,266,76211,2,0,L|187:250,1,83,10|0,0:0|0:0,0:0:0:0:
275,250,76413,2,0,L|259:168,1,83,2|0,1:2|1:0,0:0:0:0:
262,80,76614,2,0,L|180:95,1,83,10|0,0:0|0:0,0:0:0:0:
98,156,76816,6,0,B|135:169|164:197|164:197|199:174|251:179,1,166,2|8,1:2|0:0,0:0:0:0:
310,245,77118,2,0,B|274:270|274:270|210:262,2,83,2|0|0,1:2|0:0|1:0,0:0:0:0:
402,109,77420,2,0,B|445:101|445:101|501:135,1,83,8|0,0:0|0:0,0:0:0:0:
405,189,77621,6,0,P|364:185|333:159,1,83,2|0,1:2|0:0,0:0:0:0:
322,80,77822,2,0,P|317:120|333:159,1,83,10|0,0:0|0:0,0:0:0:0:
373,275,78024,2,0,P|335:291|295:284,1,83,2|0,1:2|1:0,0:0:0:0:
236,99,78225,2,0,P|211:131|205:172,1,83,10|0,0:0|0:0,0:0:0:0:
210,260,78426,6,0,B|164:266|131:223|131:223|91:218|56:255,1,166,2|8,1:2|0:0,0:0:0:0:
109,322,78728,2,0,P|147:346|213:335,2,83,2|0|0,1:2|0:0|1:0,0:0:0:0:
63,247,79030,2,0,P|69:195|99:150,1,83,8|0,0:0|0:0,0:0:0:0:
8,118,79232,6,0,B|65:150|145:108|145:108|219:55|302:108,1,298.799990881348,6|0,1:2|0:0,0:0:0:0:
309,185,79634,2,0,P|429:215|342:130,1,298.799990881348,6|0,1:2|0:0,0:0:0:0:
224,164,80037,2,0,P|202:209|211:265,1,99.5999969604493,2|0,1:2|0:0,0:0:0:0:
280,311,80238,5,8,0:0:0:0:
288,224,80339,1,4,0:3:0:0:
224,164,80440,2,0,L|102:178,1,99.5999969604493,10|0,0:3|0:0,0:0:0:0:
361,279,80641,2,0,L|483:265,1,99.5999969604493,10|0,0:0|0:0,0:0:0:0:
202,346,80842,6,0,B|167:305|116:323|116:323|82:361|19:339,1,166,6|8,1:2|0:0,0:0:0:0:
53,262,81144,1,2,0:0:0:0:
53,262,81245,2,0,P|56:211|19:157,1,83,0|2,1:0|0:0,0:0:0:0:
126,113,81446,2,0,P|127:159|149:199,1,83,8|0,0:0|0:0,0:0:0:0:
202,346,81648,6,0,B|167:305|116:323|116:323|82:361|19:339,1,166,2|8,1:2|0:0,0:0:0:0:
53,262,81950,1,2,0:0:0:0:
53,262,82050,2,0,P|39:222|52:166,1,83,0|2,1:0|0:0,0:0:0:0:
126,113,82252,2,0,P|144:147|140:200,1,83,8|0,0:0|0:0,0:0:0:0:
73,39,82453,6,0,P|151:95|217:77,1,166,2|8,1:2|0:0,0:0:0:0:
342,61,82755,2,0,P|380:75|413:116,1,83,2|0,0:0|1:0,0:0:0:0:
483,137,82956,1,2,0:0:0:0:
483,137,83057,2,0,P|421:139|371:195,1,124.5,8|0,0:0|0:0,0:0:0:0:
373,198,83258,5,2,1:2:0:0:
293,176,83460,5,10,0:1:0:0:
214,159,83661,5,2,1:1:0:0:
137,139,83862,5,10,0:1:0:0:
59,119,84064,6,0,B|32:154|34:194|34:194|60:226|49:301,1,166,6|8,1:2|0:0,0:0:0:0:
10,355,84366,2,0,P|58:364|117:333,2,83,2|0|2,0:0|1:0|0:0,0:0:0:0:
51,275,84668,2,0,P|90:265|130:274,1,83,8|0,0:0|0:0,0:0:0:0:
43,118,84869,6,0,B|70:153|68:193|68:193|42:225|53:300,1,166,2|8,1:2|0:0,0:0:0:0:
89,354,85171,2,0,P|49:363|9:354,2,83,2|0|2,0:0|1:0|0:0,0:0:0:0:
51,275,85473,2,0,P|90:265|130:274,1,83,8|0,0:0|0:0,0:0:0:0:
212,311,85675,6,0,B|266:322|289:355|289:355|268:302|288:248|288:248|314:187|263:111,1,298.799990881348,6|0,1:2|0:0,0:0:0:0:
161,80,86077,1,6,1:2:0:0:
161,80,86178,2,0,B|200:77|228:92|228:92|262:56|300:65|335:74|350:103,1,199.199993920899,8|0,0:0|0:0,0:0:0:0:
285,152,86480,1,6,0:0:0:0:
38,307,87285,6,0,B|115:278|178:323|178:323|274:380|349:310,1,298.799990881348,6|8,1:2|0:0,0:0:0:0:
275,172,87688,1,6,1:2:0:0:
275,172,87789,2,0,P|213:201|300:238,1,199.199993920899,8|0,0:0|0:0,0:0:0:0:
355,201,88091,1,6,0:2:0:0:
41,35,88493,6,2,L|50:151,1,83,2|0,0:1|0:0,0:1:0:0:
