osu file format v14

[General]
AudioFilename: audio.mp3
AudioLeadIn: 0
PreviewTime: 60805
Countdown: 0
SampleSet: Soft
StackLeniency: 0.7
Mode: 0
LetterboxInBreaks: 0
WidescreenStoryboard: 0

[Editor]
DistanceSpacing: 1.37
BeatDivisor: 4
GridSize: 4
TimelineZoom: 1.2

[Metadata]
Title:Curtain Call!!!!!
TitleUnicode:かーてんこーる!!!!!
Artist:Gekidan Hitotose
ArtistUnicode:劇団ひととせ
Creator:Left
Version:Hard
Source:ひなこのーと
Tags:Hinako Note ED Ending fieryrage Crystal Akitoshi
BeatmapID:1344922
BeatmapSetID:633693

[Difficulty]
HPDrainRate:5
CircleSize:3.5
OverallDifficulty:6
ApproachRate:8
SliderMultiplier:1.2
SliderTickRate:1

[Events]
//Background and Video events
0,0,"hinakoBG.jpg",0,0
Video,-221,"vid.avi"
//Break Periods
//Storyboard Layer 0 (Background)
//Storyboard Layer 1 (Fail)
//Storyboard Layer 2 (Pass)
//Storyboard Layer 3 (Foreground)
//Storyboard Sound Samples

[TimingPoints]
1532,202.702702702703,4,2,1,73,1,0
1532,-100,4,2,1,73,0,0
4065,-100,4,2,1,65,0,0
4369,-142.857142857143,4,2,1,65,0,0
4775,-100,4,2,1,65,0,0
9640,-100,4,2,1,65,0,0
11261,-100,4,2,1,65,0,0
17342,-100,4,2,1,65,0,0
17748,292.682926829268,4,2,1,65,1,0
17748,-76.9230769230769,4,2,1,65,0,0
45845,292.682926829268,6,2,1,53,1,0
52869,292.682926829268,4,2,1,65,1,0
52869,-76.9230769230769,4,2,1,65,0,0
57551,-76.9230769230769,4,2,1,40,0,0
59893,202.702702702703,4,2,1,40,1,0
59893,-166.666666666667,4,2,1,40,0,0
60501,-166.666666666667,4,2,1,50,0,0
61109,-166.666666666667,4,2,1,66,0,0
61514,201.342281879195,4,2,1,78,1,1
66547,-83.3333333333333,4,2,1,78,0,1
67956,-100,4,2,1,78,0,1
72789,-83.3333333333333,4,2,1,78,0,1
74097,-100,4,2,1,78,0,1
74399,-100,4,2,1,65,0,0
88493,-166.666666666667,4,2,1,65,0,0
88695,-166.666666666667,4,2,1,5,0,0

[Colours]
Combo1 : 255,255,185
Combo2 : 255,198,255
Combo3 : 147,196,255
Combo4 : 255,201,147
Combo5 : 237,203,254

[HitObjects]
91,68,1532,6,0,P|147:37|215:62,1,120,6|0,1:2|0:0,0:0:0:0:
214,132,1836,2,0,P|158:163|90:138,1,120,2|0,1:2|0:0,0:0:0:0:
25,124,2140,1,2,1:2:0:0:
25,124,2342,6,0,L|8:271,1,120,6|0,1:2|0:0,0:0:0:0:
92,270,2646,2,0,L|109:123,1,120,2|0,1:2|0:0,0:0:0:0:
119,67,2950,1,2,1:2:0:0:
119,67,3153,6,0,P|190:37|244:71,1,120,6|0,1:2|0:0,0:0:0:0:
289,107,3457,2,0,P|345:121|395:91,1,120,2|0,1:2|0:0,0:0:0:0:
472,55,3761,2,0,P|443:127|468:183,1,120,2|2,1:2|0:0,0:0:0:0:
240,319,4369,6,0,P|194:272|137:300,1,125.999996154785,2|0,0:1|0:0,0:0:0:0:
126,301,4775,6,0,P|151:232|141:174,1,120,6|10,1:2|0:0,0:0:0:0:
106,80,5180,1,2,0:0:0:0:
67,215,5383,1,10,0:0:0:0:
224,155,5586,1,2,1:2:0:0:
365,160,5788,6,0,P|360:189|351:218,1,60,10|2,0:1|1:2,0:0:0:0:
362,302,5991,2,0,P|332:297|303:288,1,60,2|0,0:1|1:0,0:0:0:0:
221,297,6193,2,0,P|225:267|234:238,1,60,10|0,0:1|0:0,0:0:0:0:
281,167,6396,6,0,P|227:189|155:178,1,120,2|10,1:2|0:0,0:0:0:0:
61,129,6802,1,2,0:0:0:0:
198,104,7004,1,10,0:0:0:0:
131,260,7207,1,2,1:2:0:0:
272,336,7410,6,0,L|280:271,1,60,10|2,0:1|1:2,0:0:0:0:
354,338,7613,2,0,L|362:273,1,60,2|0,0:1|1:0,0:0:0:0:
435,340,7815,2,0,L|443:275,1,60,10|0,0:1|0:0,0:0:0:0:
406,208,8018,6,0,L|397:85,1,120,2|10,1:2|0:0,0:0:0:0:
241,102,8423,2,0,L|250:225,1,120,2|10,0:0|0:0,0:0:0:0:
323,152,8829,1,2,1:2:0:0:
167,62,9032,6,0,P|132:65|94:76,1,60,10|2,0:1|1:2,0:0:0:0:
65,148,9234,2,0,P|100:151|138:162,1,60,2|0,0:1|1:0,0:0:0:0:
165,235,9437,2,0,P|130:238|92:249,1,60,10|0,0:1|0:0,0:0:0:0:
51,309,9640,6,0,P|141:354|245:253,2,240,6|6|2,1:2|1:2|1:2,0:0:0:0:
125,147,10653,1,8,0:0:0:0:
125,147,10754,1,4,0:3:0:0:
125,147,10856,2,0,L|142:276,1,120,10|10,0:3|0:0,0:0:0:0:
285,357,11261,6,0,B|337:383|388:342|388:342|451:296|515:342,1,240,6|2,1:2|0:0,0:0:0:0:
322,274,11869,1,10,0:0:0:0:
397,148,12072,2,0,P|332:123|250:157,1,120,2|8,1:2|0:0,0:0:0:0:
210,171,12376,2,0,P|151:179|97:155,1,120,2|0,1:2|1:0,0:0:0:0:
34,98,12680,2,0,P|44:68|47:29,1,60,10|0,0:0|0:0,0:0:0:0:
97,155,12883,6,0,P|68:216|80:301,1,120,2|8,1:2|0:0,0:0:0:0:
182,359,13288,2,0,P|211:298|199:213,1,120,0|10,0:0|0:0,0:0:0:0:
182,168,13592,1,0,0:0:0:0:
182,168,13694,2,0,B|232:201|232:201|306:188,1,120,2|8,1:0|0:0,0:0:0:0:
433,237,14099,2,0,P|424:200|425:163,1,60,0|0,0:0|1:0,0:0:0:0:
352,130,14302,2,0,P|361:93|360:56,1,60,10|0,0:1|0:0,0:0:0:0:
434,26,14504,6,0,P|340:56|202:23,1,240,6|2,1:2|0:0,0:0:0:0:
94,121,15113,1,10,0:0:0:0:
167,268,15315,2,0,L|179:142,1,120,2|8,1:2|0:0,0:0:0:0:
94,121,15619,2,0,L|82:247,1,120,2|0,1:2|1:0,0:0:0:0:
167,268,15923,2,0,P|198:270|246:239,1,60,10|0,0:0|0:0,0:0:0:0:
288,203,16126,6,0,B|312:231|312:231|298:347,1,120,6|8,1:2|0:0,0:0:0:0:
404,384,16532,2,0,B|380:356|380:356|394:240,1,120,6|8,1:2|0:0,0:0:0:0:
487,156,16937,1,6,1:2:0:0:
487,156,17038,2,0,P|434:192|357:150,1,120,2|2,1:0|0:0,0:0:0:0:
54,74,17748,6,0,P|67:111|42:184,1,77.9999964294435,12|0,0:2|0:0,0:0:0:0:
138,180,18040,2,0,P|163:150|239:135,1,77.9999964294435,8|0,0:0|0:0,0:0:0:0:
168,256,18333,2,0,B|127:271|92:248|92:248|52:224|1:255,1,155.999992858887,8|8,0:0|0:0,0:0:0:0:
214,332,18772,1,0,0:0:0:0:
214,332,18918,6,0,P|261:312|314:328,1,77.9999964294435,8|0,0:0|0:0,0:0:0:0:
354,368,19211,2,0,P|371:326|351:261,1,77.9999964294435,8|0,0:0|0:0,0:0:0:0:
320,223,19504,1,8,0:0:0:0:
370,155,19650,1,0,1:0:0:0:
370,155,19796,2,0,L|382:63,1,77.9999964294435,8|0,0:0|1:0,0:0:0:0:
300,64,20089,6,0,L|288:156,1,77.9999964294435,8|0,0:0|0:0,0:0:0:0:
243,208,20382,2,0,P|204:227|150:216,1,77.9999964294435,8|0,0:0|1:0,0:0:0:0:
101,179,20674,1,10,1:2:0:0:
101,179,20821,1,0,0:0:0:0:
143,108,20967,2,0,P|182:89|236:100,1,77.9999964294435,8|0,0:0|0:0,0:0:0:0:
276,147,21260,6,0,P|296:104|291:58,2,77.9999964294435,8|0|2,0:0|0:0|1:2,0:0:0:0:
196,173,21699,2,0,B|244:170|272:191|272:191|305:220|388:198,1,155.999992858887,12|0,0:0|0:0,0:0:0:0:
410,154,22138,2,0,P|407:127|398:91,2,38.9999982147218,8|8|8,0:0|0:3|0:3,0:0:0:0:
391,275,22430,1,4,1:2:0:0:
103,50,23162,6,0,L|110:212,1,155.999992858887,4|0,1:2|0:0,0:0:0:0:
109,205,23601,1,8,0:0:0:0:
409,50,24333,6,0,L|402:212,1,155.999992858887,4|0,1:2|0:0,0:0:0:0:
402,205,24772,1,8,0:0:0:0:
103,50,25504,6,0,L|110:212,1,155.999992858887,4|0,1:2|0:0,0:0:0:0:
92,286,25943,1,6,1:2:0:0:
92,286,26089,2,0,P|140:285|171:260,1,77.9999964294435,8|0,0:0|0:0,0:0:0:0:
191,191,26382,2,0,P|248:181|315:257,1,155.999992858887,12|8,0:0|0:3,0:0:0:0:
396,252,26821,2,0,P|417:199|410:151,1,77.9999964294435,0|0,1:0|0:0,0:0:0:0:
392,100,27113,6,0,L|290:89,1,77.9999964294435,6|8,1:2|0:0,0:0:0:0:
262,154,27406,2,0,L|160:165,1,77.9999964294435,2|8,1:2|0:0,0:0:0:0:
122,104,27699,1,0,1:0:0:0:
122,104,27845,2,0,P|163:156|133:232,1,155.999992858887,10|8,0:0|0:0,0:0:0:0:
52,210,28284,6,0,P|37:156|48:121,1,77.9999964294435,0|8,1:0|0:0,0:0:0:0:
122,104,28577,2,0,B|165:98|198:122|198:122|237:153|300:134,2,155.999992858887,2|2|0,1:2|1:2|1:0,0:0:0:0:
105,22,29308,1,10,0:0:0:0:
105,22,29455,6,0,L|199:17,1,77.9999964294435,0|10,1:0|0:0,0:0:0:0:
258,48,29747,2,0,L|352:43,1,77.9999964294435,2|8,1:2|0:0,0:0:0:0:
413,80,30040,1,2,1:2:0:0:
413,80,30187,1,8,0:0:0:0:
343,125,30333,2,0,L|249:130,1,77.9999964294435,2|8,1:2|0:0,0:0:0:0:
200,181,30626,6,0,P|186:232|201:270,1,77.9999964294435,0|10,1:0|0:0,0:0:0:0:
260,302,30918,2,0,P|274:251|259:213,1,77.9999964294435,2|8,1:2|0:0,0:0:0:0:
200,181,31211,2,0,B|152:178|124:199|124:199|91:228|8:206,1,155.999992858887,2|2,1:2|1:2,0:0:0:0:
74,44,31796,6,0,P|135:60|166:49,1,77.9999964294435,2|8,1:2|0:0,0:0:0:0:
218,14,32089,2,0,P|178:83|218:174,1,155.999992858887,2|0,1:2|1:0,0:0:0:0:
277,134,32528,2,0,P|292:89|285:49,1,77.9999964294435,10|0,0:0|0:0,0:0:0:0:
362,23,32821,1,10,0:0:0:0:
362,23,32967,2,0,B|398:57|398:57|518:46,2,155.999992858887,0|2|2,1:0|1:2|1:2,0:0:0:0:
301,78,33699,2,0,B|339:116|339:116|331:236,1,155.999992858887,10|8,0:0|0:0,0:0:0:0:
272,298,34138,6,0,B|224:301|196:280|196:280|163:251|80:273,1,155.999992858887,2|0,1:2|1:0,0:0:0:0:
55,311,34577,2,0,P|42:267|53:220,1,77.9999964294435,10|0,0:0|1:0,0:0:0:0:
109,184,34869,2,0,P|112:145|100:108,2,77.9999964294435,8|0|8,0:0|1:0|0:0,0:0:0:0:
185,253,35308,6,0,L|277:247,1,77.9999964294435,2|10,1:2|0:0,0:0:0:0:
269,165,35601,1,0,1:0:0:0:
269,165,35747,2,0,L|177:171,1,77.9999964294435,10|0,0:0|1:0,0:0:0:0:
200,88,36040,1,10,0:0:0:0:
200,88,36186,2,0,L|292:82,1,77.9999964294435,0|10,1:0|0:0,0:0:0:0:
355,168,36479,6,0,P|429:171|477:88,1,155.999992858887,6|2,1:2|1:2,0:0:0:0:
394,96,36918,1,8,0:0:0:0:
355,168,37065,1,0,1:0:0:0:
355,168,37211,2,0,B|311:184|279:158|279:158|246:133|190:150,1,155.999992858887,10|10,0:0|0:0,0:0:0:0:
150,205,37650,2,0,P|86:219|22:150,2,155.999992858887,0|2|2,1:0|1:2|1:2,0:0:0:0:
279,351,38528,2,0,L|286:265,1,77.9999964294435,2|8,1:2|0:0,0:0:0:0:
231,210,38821,6,0,P|340:228|396:127,1,233.999989288331,2|10,1:0|0:1,0:0:0:0:
363,59,39406,2,0,P|254:41|198:142,1,233.999989288331,2|10,1:0|0:1,0:0:0:0:
231,210,39991,2,0,P|178:215|140:193,1,77.9999964294435,2|8,1:2|0:0,0:0:0:0:
90,156,40284,1,2,1:2:0:0:
90,156,40430,2,0,P|123:233|87:312,1,155.999992858887,8|10,0:0|0:0,0:0:0:0:
22,327,40869,1,2,1:2:0:0:
193,363,41162,6,0,L|289:358,1,77.9999964294435,2|8,1:2|0:0,0:0:0:0:
268,276,41455,2,0,L|190:280,1,77.9999964294435,2|8,1:2|0:0,0:0:0:0:
186,198,41747,1,0,1:0:0:0:
186,198,41894,2,0,L|263:193,1,77.9999964294435,10|0,0:0|0:0,0:0:0:0:
300,120,42187,1,10,0:0:0:0:
300,120,42333,6,0,P|214:99|127:139,2,155.999992858887,0|2|2,1:0|1:2|1:2,0:0:0:0:
358,178,43065,2,0,P|402:188|456:168,1,77.9999964294435,10|0,0:0|0:0,0:0:0:0:
494,126,43357,1,8,0:0:0:0:
437,66,43504,6,0,P|393:56|339:76,1,77.9999964294435,2|8,1:2|0:0,0:0:0:0:
300,120,43796,2,0,P|261:126|224:116,1,77.9999964294435,2|8,1:2|0:0,0:0:0:0:
156,70,44089,2,0,P|144:127|158:167,1,77.9999964294435,2|8,1:2|0:0,0:0:0:0:
210,198,44382,2,0,P|213:236|201:273,1,77.9999964294435,2|8,1:2|0:0,0:0:0:0:
115,315,44674,6,0,P|183:306|248:384,1,155.999992858887,2|0,1:2|0:0,0:0:0:0:
323,340,45113,2,0,P|326:269|399:225,1,155.999992858887,14|0,0:0|1:0,0:0:0:0:
472,243,45552,1,2,0:0:0:0:
439,83,45845,6,0,P|358:118|260:106,1,180,4|0,1:2|0:0,0:0:0:0:
219,87,46430,2,0,P|157:84|107:110,1,120,2|2,0:0|1:2,0:0:0:0:
72,216,47015,2,0,P|134:219|184:193,1,120,2|2,0:0|0:0,0:0:0:0:
242,285,47601,2,0,B|308:305|358:272|358:272|419:232|481:261,1,240,2|0,1:2|0:0,0:0:0:0:
494,151,48479,2,0,P|426:152|361:117,2,120,2|2|2,1:2|0:0|0:0,0:0:0:0:
454,50,49357,6,0,P|374:19|288:74,1,180,2|0,1:2|0:0,0:0:0:0:
270,108,49942,1,2,0:0:0:0:
174,57,50235,2,0,P|122:31|45:55,2,120,2|2|2,1:2|0:0|0:0,0:0:0:0:
101,137,51113,2,0,B|115:218|117:313|117:313|131:276|164:250,1,240,2|2,1:2|1:2,0:0:0:0:
198,234,51844,1,0,0:0:0:0:
198,234,51991,2,0,P|266:226|313:262,1,120,0|2,0:0|0:0,0:0:0:0:
373,337,52576,1,2,0:0:0:0:
411,240,52869,6,0,L|399:135,1,77.9999964294435,6|0,1:2|0:0,0:0:0:0:
432,86,53161,2,0,P|383:82|340:110,1,77.9999964294435,10|0,0:0|1:0,0:0:0:0:
317,165,53454,2,0,P|239:172|176:128,1,155.999992858887,2|8,0:0|0:0,0:0:0:0:
155,50,53893,1,2,0:0:0:0:
155,50,54039,6,0,L|67:57,1,77.9999964294435,2|0,1:2|0:0,0:0:0:0:
99,136,54332,2,0,L|187:129,1,77.9999964294435,10|0,0:0|0:0,0:0:0:0:
198,209,54625,2,0,L|110:216,1,77.9999964294435,2|0,1:2|1:0,0:0:0:0:
80,286,54917,1,10,0:0:0:0:
80,286,55064,1,0,0:0:0:0:
151,326,55210,6,0,B|200:336|231:310|231:310|264:292|305:307,1,155.999992858887,2|8,1:2|0:0,0:0:0:0:
367,353,55649,1,2,1:2:0:0:
367,353,55795,2,0,P|382:295|318:224,1,155.999992858887,2|10,0:0|0:0,0:0:0:0:
242,218,56234,6,0,L|236:160,2,38.9999982147218,10|8|8,0:0|0:0|0:3,0:0:0:0:
324,225,56527,2,0,L|313:118,1,77.9999964294435,4|0,0:3|0:0,0:0:0:0:
250,97,56820,2,0,B|201:87|170:113|170:113|137:131|96:116,1,155.999992858887,10|0,0:0|0:0,0:0:0:0:
30,75,57259,1,4,0:3:0:0:
50,237,57551,5,2,0:0:0:0:
256,192,57625,12,2,59600,0:0:0:0:
137,141,59893,6,0,P|179:143|214:119,2,71.9999978027344,2|0|2,0:0|0:0|0:0,0:0:0:0:
46,85,60501,2,0,P|26:47|-12:29,2,71.9999978027344,2|0|2,0:0|0:0|0:0,0:0:0:0:
45,188,61109,2,0,P|22:223|25:265,1,71.9999978027344,2|0,0:0|0:0,0:0:0:0:
104,331,61514,6,0,P|175:329|215:288,1,120,6|8,1:2|0:0,0:0:0:0:
160,231,61816,2,0,P|120:238|89:264,2,60,2|0|0,1:0|0:0|1:0,0:0:0:0:
210,166,62118,2,0,P|236:179|266:182,1,60,10|0,0:1|0:0,0:0:0:0:
316,117,62319,6,0,P|260:79|187:92,1,120,2|8,1:0|0:0,0:0:0:0:
138,122,62621,2,0,P|78:121|31:86,1,120,2|0,1:0|1:0,0:0:0:0:
105,44,62923,1,10,0:0:0:0:
65,202,63124,6,0,L|73:286,1,60,2|0,1:1|0:0,0:0:0:0:
153,267,63326,2,0,L|145:183,1,60,10|0,0:0|1:0,0:0:0:0:
216,161,63527,2,0,L|210:101,1,60,2|0,0:1|1:0,0:0:0:0:
293,106,63728,2,0,L|298:165,1,60,10|0,0:1|0:0,0:0:0:0:
337,239,63930,2,0,P|399:252|454:207,1,120,2|10,1:2|0:1,0:0:0:0:
490,154,64232,2,0,P|428:141|373:186,1,120,2|0,1:2|1:0,0:0:0:0:
337,239,64534,1,10,0:1:0:0:
191,162,64735,6,0,L|192:99,1,60,2|0,1:2|0:0,0:0:0:0:
196,19,64936,2,0,L|136:18,1,60,10|0,0:1|1:0,0:0:0:0:
52,19,65138,2,0,L|51:82,1,60,2|0,0:1|1:0,0:0:0:0:
47,162,65339,2,0,L|106:162,1,60,10|0,0:0|0:0,0:0:0:0:
128,242,65540,6,0,P|77:279|8:261,1,120,2|8,1:0|0:0,0:0:0:0:
2,192,65842,2,0,P|53:155|122:173,1,120,2|0,1:0|1:0,0:0:0:0:
186,180,66144,2,0,L|191:103,1,60,10|0,0:1|0:0,0:0:0:0:
197,37,66346,1,0,1:0:0:0:
316,230,66547,6,0,B|239:240|185:180|185:180|151:259|55:267,3,287.999991210938,14|14|14|14,0:0|0:0|0:0|0:0,0:0:0:0:
230,326,67956,6,0,P|293:316|343:359,1,120,6|8,1:2|0:0,0:0:0:0:
403,299,68258,2,0,P|438:326|475:332,2,60,2|0|0,1:0|0:0|1:0,0:0:0:0:
361,227,68560,2,0,L|374:146,1,60,10|0,0:1|0:0,0:0:0:0:
432,111,68762,6,0,P|359:123|312:80,1,120,2|8,1:0|0:0,0:0:0:0:
260,45,69064,2,0,P|203:29|151:56,1,120,2|0,1:0|1:0,0:0:0:0:
96,118,69366,1,10,0:0:0:0:
137,276,69567,6,0,L|216:272,1,60,2|0,1:0|0:0,0:0:0:0:
202,356,69769,2,0,L|281:352,1,60,8|0,0:0|1:0,0:0:0:0:
281,272,69970,2,0,L|360:268,1,60,2|0,0:1|1:0,0:0:0:0:
346,352,70172,2,0,L|425:348,1,60,10|0,0:1|0:0,0:0:0:0:
450,279,70373,6,0,P|460:216|423:164,1,120,2|10,1:2|0:1,0:0:0:0:
357,135,70675,2,0,L|229:145,1,120,2|0,1:2|1:0,0:0:0:0:
155,154,70977,1,10,0:1:0:0:
102,309,71178,6,0,B|146:288|191:314|191:314|246:338|283:308,1,180,2|0,1:2|1:0,0:0:0:0:
253,234,71581,2,0,P|220:219|181:230,1,60,2|0,0:1|1:0,0:0:0:0:
155,154,71782,2,0,L|166:70,1,60,10|0,0:0|0:0,0:0:0:0:
230,47,71983,6,0,P|288:82|361:65,1,120,2|8,1:0|0:0,0:0:0:0:
383,146,72285,2,0,P|350:208|369:278,1,120,2|0,1:0|1:0,0:0:0:0:
401,324,72587,1,10,0:1:0:0:
266,222,72789,6,0,P|160:188|89:335,3,287.999991210938,12|12|12|12,1:2|1:2|1:2|1:2,0:0:0:0:
164,332,74097,6,0,L|175:265,2,60,8|4|4,0:3|0:3|0:3,0:0:0:0:
242,358,74399,6,0,L|261:237,1,120,6|10,1:2|0:0,0:0:0:0:
277,133,74802,1,2,1:2:0:0:
346,251,75003,1,10,0:0:0:0:
177,227,75205,2,0,P|129:262|64:249,1,120,2|8,1:2|0:0,0:0:0:0:
74,171,75507,1,2,1:2:0:0:
74,171,75607,2,0,P|115:157|146:161,1,60,0|0,0:0|1:0,0:0:0:0:
194,103,75809,2,0,P|235:117|266:113,1,60,8|0,0:0|0:0,0:0:0:0:
317,67,76010,6,0,P|294:125|306:184,1,120,2|10,1:2|0:0,0:0:0:0:
356,278,76413,1,2,1:2:0:0:
383,143,76614,1,10,0:0:0:0:
229,226,76816,2,0,L|97:221,1,120,2|8,1:2|0:0,0:0:0:0:
58,156,77118,1,2,1:2:0:0:
58,156,77218,2,0,P|100:140|126:143,1,60,0|0,0:0|1:0,0:0:0:0:
174,83,77420,2,0,P|216:99|242:96,1,60,8|0,0:0|0:0,0:0:0:0:
299,55,77621,6,0,P|271:123|282:171,1,120,2|10,1:2|0:0,0:0:0:0:
377,248,78024,2,0,P|405:180|394:132,1,120,2|10,1:2|0:0,0:0:0:0:
279,166,78426,2,0,L|149:162,1,120,2|8,1:2|0:0,0:0:0:0:
76,146,78728,1,2,1:2:0:0:
76,146,78829,2,0,L|85:214,1,60,0|0,0:0|1:0,0:0:0:0:
158,245,79030,2,0,L|149:313,1,60,8|0,0:0|0:0,0:0:0:0:
74,343,79232,6,0,B|166:333|166:333|214:351|214:351|329:336,2,240,6|6|2,1:2|1:2|1:2,0:0:0:0:
166,192,80238,1,8,0:0:0:0:
166,192,80339,1,4,0:3:0:0:
166,192,80440,2,0,L|150:329,1,120,10|10,0:3|0:0,0:0:0:0:
100,128,80842,6,0,P|162:100|225:125,1,120,6|8,1:2|0:0,0:0:0:0:
249,187,81144,1,2,0:0:0:0:
249,187,81245,2,0,L|238:267,2,60,0|2|8,1:0|0:0|0:0,0:0:0:0:
391,140,81648,2,0,L|405:278,1,120,2|8,1:2|0:0,0:0:0:0:
389,341,81950,1,2,0:0:0:0:
389,341,82050,2,0,P|423:342|458:322,2,60,0|2|8,1:0|0:0|0:0,0:0:0:0:
266,244,82453,6,0,P|210:214|137:244,1,120,2|8,1:2|0:0,0:0:0:0:
100,286,82755,1,2,0:0:0:0:
100,286,82856,2,0,P|67:299|32:295,2,60,0|2|8,1:0|0:0|0:0,0:0:0:0:
221,169,83258,2,0,B|220:78|184:18|184:18|218:49|272:50,1,240,2|2,1:2|1:1,0:0:0:0:
401,26,83862,1,10,0:1:0:0:
352,175,84064,6,0,L|368:301,1,120,6|8,1:2|0:0,0:0:0:0:
447,271,84366,1,2,0:0:0:0:
447,271,84467,2,0,L|438:202,2,60,0|2|8,1:0|0:0|0:0,0:0:0:0:
302,349,84869,2,0,P|246:356|185:310,1,120,2|8,1:2|0:0,0:0:0:0:
139,262,85171,1,2,0:0:0:0:
139,262,85272,2,0,P|102:265|74:291,2,60,0|2|8,1:0|0:0|0:0,0:0:0:0:
215,126,85675,6,0,P|274:117|332:172,1,120,6|0,1:2|0:0,0:0:0:0:
370,218,85977,1,0,0:0:0:0:
370,218,86077,2,0,L|366:291,1,60,6|8,1:2|0:0,0:0:0:0:
285,286,86279,2,0,L|289:213,1,60,0|0,0:0|0:0,0:0:0:0:
321,149,86480,1,6,0:0:0:0:
321,149,87285,6,0,P|262:140|204:195,1,120,6|0,1:2|0:0,0:0:0:0:
175,248,87587,1,0,0:0:0:0:
175,248,87688,2,0,L|172:325,1,60,6|8,1:2|0:0,0:0:0:0:
256,306,87889,2,0,L|260:233,1,60
215,172,88090,1,6,0:2:0:0:
57,47,88493,6,0,L|47:135,1,71.9999978027344,2|0,0:1|0:0,0:0:0:0:
