osu file format v14

[General]
AudioFilename: audio.mp3
AudioLeadIn: 0
PreviewTime: 60805
Countdown: 0
SampleSet: Soft
StackLeniency: 0.7
Mode: 0
LetterboxInBreaks: 0
WidescreenStoryboard: 0

[Editor]
DistanceSpacing: 0.9
BeatDivisor: 4
GridSize: 4
TimelineZoom: 1.2

[Metadata]
Title:Curtain Call!!!!!
TitleUnicode:かーてんこーる!!!!!
Artist:Gekidan Hitotose
ArtistUnicode:劇団ひととせ
Creator:Left
Version:Akitoshi's Normal
Source:ひなこのーと
Tags:Hinako Note ED Ending fieryrage Crystal Akitoshi
BeatmapID:1344918
BeatmapSetID:633693

[Difficulty]
HPDrainRate:4
CircleSize:2.8
OverallDifficulty:4
ApproachRate:5
SliderMultiplier:0.799999999999999
SliderTickRate:1

[Events]
//Background and Video events
0,0,"hinakoBG.jpg",0,0
Video,-221,"vid.avi"
//Break Periods
//Storyboard Layer 0 (Background)
//Storyboard Layer 1 (Fail)
//Storyboard Layer 2 (Pass)
//Storyboard Layer 3 (Foreground)
//Storyboard Sound Samples

[TimingPoints]
1532,202.702702702703,4,2,1,73,1,0
1532,-100,4,2,1,73,0,0
3964,-100,4,2,1,65,0,0
4369,-100,4,2,1,65,0,0
4775,-100,4,2,1,65,0,0
9640,-100,4,2,1,65,0,0
11261,-100,4,2,1,65,0,0
17342,-100,4,2,1,65,0,0
17748,292.682926829268,4,2,1,65,1,0
17748,-76.9230769230769,4,2,1,65,0,0
45845,292.682926829268,6,2,1,53,1,0
45845,-76.9230769230769,6,2,1,53,0,0
52869,292.682926829268,4,2,1,65,1,0
52869,-76.9230769230769,4,2,1,65,0,0
57551,-76.9230769230769,4,2,1,40,0,0
59893,202.702702702703,4,2,1,40,1,0
59893,-100,4,2,1,40,0,0
60501,-100,4,2,1,50,0,0
61109,-100,4,2,1,66,0,0
61514,201.342281879195,4,2,1,78,1,1
74399,-100,4,2,1,65,0,0

[Colours]
Combo1 : 255,255,185
Combo2 : 255,198,255
Combo3 : 147,196,255
Combo4 : 255,201,147
Combo5 : 237,203,254

[HitObjects]
128,123,1532,6,0,P|80:103|6:109,2,120,6|2|2,1:2|1:2|1:2,0:0:0:0:
199,166,2342,2,0,L|326:151,2,120,6|2|2,1:2|1:2|1:2,0:0:0:0:
152,235,3153,6,0,L|25:220,2,120,6|2|2,1:2|1:2|1:2,0:0:0:0:
205,299,3964,2,0,L|292:288,1,79.9999999999999,2|0,0:0|0:0,0:0:0:0:
367,274,4369,1,2,0:1:0:0:
440,122,4775,6,0,P|411:96|295:90,1,160,6|2,1:2|0:0,0:0:0:0:
220,127,5383,1,10,0:0:0:0:
155,182,5586,2,0,L|36:168,2,120,2|2|10,1:2|1:2|0:1,0:0:0:0:
234,206,6396,6,0,P|239:284|177:351,1,160,2|2,1:2|0:0,0:0:0:0:
105,348,7004,1,10,0:0:0:0:
47,287,7207,2,0,L|35:159,2,120,2|2|10,1:2|1:2|0:1,0:0:0:0:
128,265,8018,6,0,B|209:239|204:293|290:263,1,160,2|2,1:2|0:0,0:0:0:0:
361,231,8626,1,10,0:0:0:0:
438,198,8829,2,0,L|455:323,2,120,2|2|10,1:2|1:2|0:1,0:0:0:0:
372,145,9640,6,0,B|308:128|277:175|212:151,2,160,6|6|2,1:2|1:2|1:2,0:0:0:0:
249,29,10856,2,0,L|156:35,1,79.9999999999999,10|10,0:3|0:0,0:0:0:0:
87,54,11261,6,0,P|52:128|76:216,1,160,6|2,1:2|0:0,0:0:0:0:
195,310,12072,2,0,L|319:307,2,120,2|2|10,1:2|1:2|0:0,0:0:0:0:
174,228,12883,6,0,P|169:152|213:73,1,160,2|0,1:2|0:0,0:0:0:0:
367,26,13694,2,0,P|424:42|483:131,1,160,2|0,1:0|0:0,0:0:0:0:
421,277,14504,6,0,L|252:266,1,160,6|2,1:2|0:0,0:0:0:0:
124,190,15315,2,0,P|66:175|7:188,2,120,2|2|10,1:2|1:2|0:0,0:0:0:0:
207,178,16126,6,0,L|301:170,2,79.9999999999999,6|8|6,1:2|0:0|1:2,0:0:0:0:
177,255,16734,1,8,0:0:0:0:
214,331,16937,2,0,P|294:356|378:334,1,160,6|2,1:2|0:1,0:0:0:0:
439,207,17748,6,0,L|433:98,1,103.999995239258,12|8,0:2|0:0,0:0:0:0:
360,43,18333,2,0,P|286:32|210:67,2,155.999992858887,8|2|8,0:0|0:0|0:0,0:0:0:0:
348,135,19504,2,0,P|299:155|244:151,1,103.999995239258,8|8,0:0|0:0,0:0:0:0:
155,139,20089,6,0,L|168:260,1,103.999995239258,8|8,0:0|0:0,0:0:0:0:
197,330,20674,2,0,P|249:340|310:317,1,103.999995239258,10|8,1:2|0:0,0:0:0:0:
329,291,21113,2,0,L|441:297,1,103.999995239258,0|0,0:0|0:0,0:0:0:0:
494,225,21699,2,0,P|506:161|477:73,1,155.999992858887,12|8,0:0|0:0,0:0:0:0:
406,17,22430,5,4,1:2:0:0:
202,132,23162,2,0,L|45:119,1,155.999992858887,4|8,1:2|0:0,0:0:0:0:
140,333,24333,2,0,L|297:346,1,155.999992858887,4|8,1:2|0:0,0:0:0:0:
492,226,25504,6,0,L|371:217,1,103.999995239258,4|0,1:2|0:0,0:0:0:0:
341,214,25943,2,0,P|324:152|366:63,2,155.999992858887,6|12|0,1:2|0:0|1:0,0:0:0:0:
364,304,27113,6,0,P|303:320|247:308,1,103.999995239258,6|8,1:2|0:0,0:0:0:0:
207,238,27699,2,0,P|146:254|90:242,1,103.999995239258,2|8,1:2|0:0,0:0:0:0:
83,207,28138,2,0,B|76:105|76:105|109:43,1,155.999992858887,2|10,0:0|1:2,0:0:0:0:
189,27,28869,2,0,P|238:48|290:44,1,103.999995239258,2|8,1:2|1:0,0:0:0:0:
331,28,29308,6,0,L|364:191,1,155.999992858887,2|10,0:0|1:2,0:0:0:0:
381,272,30040,2,0,P|328:299|271:297,2,103.999995239258,2|10|0,1:2|1:2|1:0,0:0:0:0:
454,213,30918,1,10,1:2:0:0:
381,153,31211,2,0,P|328:126|271:128,1,103.999995239258,2|10,1:2|1:2,0:0:0:0:
197,160,31796,6,0,L|91:147,1,103.999995239258,2|10,1:2|0:0,0:0:0:0:
46,66,32382,2,0,P|0:133|30:217,2,155.999992858887,2|2|8,0:0|0:0|1:2,0:0:0:0:
134,36,33552,2,0,L|237:48,1,103.999995239258,2|8,1:2|0:0,0:0:0:0:
326,82,34138,6,0,L|492:61,2,155.999992858887,2|2|8,1:2|0:0|0:0,0:0:0:0:
286,166,35308,2,0,P|308:215|287:316,2,155.999992858887,2|2|8,1:2|0:0|0:0,0:0:0:0:
200,128,36479,6,0,L|96:140,1,103.999995239258,6|10,1:2|0:2,0:0:0:0:
22,198,37065,2,0,P|3:131|50:59,2,155.999992858887,0|2|10,1:0|0:0|0:2,0:0:0:0:
101,246,38235,2,0,L|205:234,1,103.999995239258,2|10,1:2|1:2,0:0:0:0:
281,179,38821,6,0,P|329:160|453:235,1,207.999990478516,2|2,1:0|1:0,0:0:0:0:
457,327,39699,1,8,0:0:0:0:
371,365,39991,2,0,L|198:372,2,155.999992858887,2|2|10,1:2|0:0|0:2,0:0:0:0:
457,327,41162,6,0,P|472:280|460:213,1,103.999995239258,2|10,1:2|0:2,0:0:0:0:
393,167,41747,2,0,L|415:10,2,155.999992858887,0|2|10,1:0|0:0|0:2,0:0:0:0:
326,232,42918,2,0,P|274:245|223:237,1,103.999995239258,2|8,1:2|0:0,0:0:0:0:
148,182,43504,6,0,P|96:195|45:187,2,103.999995239258,6|10|2,1:2|1:2|1:2,0:0:0:0:
216,118,44382,1,10,1:2:0:0:
274,45,44674,2,0,L|382:51,1,103.999995239258,6|0,1:2|0:0,0:0:0:0:
424,57,45113,2,0,P|396:135|424:216,1,155.999992858887,14|2,0:0|0:0,0:0:0:0:
473,276,45845,6,0,P|390:219|267:232,1,207.999990478516,4|2,1:2|0:0,0:0:0:0:
202,264,46723,2,0,L|214:367,2,103.999995239258,2|2|2,1:2|0:0|0:0,0:0:0:0:
126,208,47601,6,0,P|109:134|181:27,1,207.999990478516,2|0,1:2|0:0,0:0:0:0:
268,50,48479,2,0,L|391:42,2,103.999995239258,2|2|2,1:2|0:0|0:0,0:0:0:0:
217,128,49357,6,0,P|234:194|365:256,1,207.999990478516,2|2,1:2|0:0,0:0:0:0:
442,246,50235,2,0,L|447:136,2,103.999995239258,2|2|2,1:2|0:0|0:0,0:0:0:0:
423,337,51113,6,0,B|371:374|371:374|306:331|210:345,1,207.999990478516,2|2,1:2|1:2,0:0:0:0:
143,368,51991,1,2,0:0:0:0:
80,297,52284,2,0,B|74:247|74:247|94:196,1,103.999995239258,2|2,0:0|0:0,0:0:0:0:
162,133,52869,6,0,P|201:112|270:113,1,103.999995239258,6|10,1:2|0:0,0:0:0:0:
342,154,53454,2,0,P|348:81|288:21,2,155.999992858887,2|2|10,0:0|0:0|0:0,0:0:0:0:
317,244,54625,2,0,L|204:253,1,103.999995239258,2|10,1:2|0:0,0:0:0:0:
119,255,55210,6,0,P|92:209|97:147,1,103.999995239258,2|8,1:2|0:0,0:0:0:0:
158,92,55795,2,0,P|94:65|7:121,2,155.999992858887,2|10|0,0:0|0:0|0:0,0:0:0:0:
230,151,56966,2,0,L|347:140,1,103.999995239258,0|4,0:0|0:3,0:0:0:0:
256,192,57551,12,2,58722,0:0:0:0:
253,185,59893,6,0,P|312:158|414:185,1,160,2|2,0:0|0:0,0:0:0:0:
405,260,60501,2,0,P|346:287|244:260,1,160,2|2,0:0|0:0,0:0:0:0:
180,231,61109,1,2,0:0:0:0:
218,66,61514,6,0,L|349:54,2,120,6|2|10,1:2|1:0|0:1,0:0:0:0:
143,104,62319,2,0,P|80:91|12:92,2,120,2|2|10,1:0|1:0|0:0,0:0:0:0:
211,152,63124,6,0,P|227:190|344:232,1,160,2|2,1:1|0:1,0:0:0:0:
410,211,63728,1,10,0:1:0:0:
472,154,63930,2,0,L|457:34,2,120,2|2|10,1:2|1:2|0:1,0:0:0:0:
491,235,64735,6,0,P|477:308|397:361,1,160,2|2,1:2|0:1,0:0:0:0:
327,356,65339,1,10,0:0:0:0:
267,296,65540,2,0,L|141:305,2,120,2|2|10,1:0|1:0|0:1,0:0:0:0:
337,250,66346,6,0,P|373:178|361:91,1,160,4|2,1:2|0:0,0:0:0:0:
224,11,67151,2,0,P|156:54|122:136,1,160,4|2,1:2|0:0,0:0:0:0:
121,293,67956,6,0,L|2:303,2,120,6|2|10,1:2|1:0|0:1,0:0:0:0:
171,225,68762,2,0,P|226:237|296:224,2,120,2|2|10,1:0|1:0|0:0,0:0:0:0:
128,153,69567,6,0,P|199:110|287:116,1,160,2|2,1:0|0:1,0:0:0:0:
346,154,70171,1,10,0:1:0:0:
391,224,70373,2,0,L|510:211,2,120,2|2|10,1:2|1:2|0:1,0:0:0:0:
335,287,71178,6,0,P|258:303|185:272,1,160,2|2,1:2|0:1,0:0:0:0:
131,208,71782,1,10,0:0:0:0:
187,145,71983,2,0,P|263:128|336:159,1,160,2|2,1:0|0:0,0:0:0:0:
391,224,72587,1,10,0:1:0:0:
459,174,72789,6,0,L|455:12,1,160,12|12,1:2|1:2,0:0:0:0:
299,77,73594,2,0,L|303:239,1,160,12|12,1:2|1:2,0:0:0:0:
179,351,74399,6,0,P|102:353|33:296,1,160,6|2,1:2|1:2,0:0:0:0:
19,222,75003,1,10,0:0:0:0:
68,153,75205,2,0,L|49:24,2,120,2|2|8,1:2|1:2|0:0,0:0:0:0:
136,201,76010,6,0,B|210:208|215:161|290:171,1,160,2|2,1:2|1:2,0:0:0:0:
371,194,76614,1,10,0:0:0:0:
451,218,76816,2,0,L|458:98,2,120,2|2|8,1:2|1:2|0:0,0:0:0:0:
430,299,77621,6,0,P|349:311|263:279,1,160,2|2,1:2|1:2,0:0:0:0:
220,224,78225,1,10,0:0:0:0:
184,148,78426,2,0,L|198:19,2,120,2|2|8,1:2|1:2|0:0,0:0:0:0:
135,216,79232,6,0,P|62:211|-3:143,2,160,6|6|2,1:2|1:2|1:2,0:0:0:0:
300,185,80440,2,0,L|383:193,1,79.9999999999999,10|10,0:3|0:0,0:0:0:0:
463,199,80842,5,6,1:2:0:0:
495,121,81044,2,0,P|475:73|369:42,1,160,8|8,0:0|0:0,0:0:0:0:
303,75,81648,2,0,L|179:63,2,120,2|2|8,1:2|0:0|0:0,0:0:0:0:
349,145,82453,5,2,1:2:0:0:
302,214,82654,2,0,P|233:245|147:223,1,160,8|8,0:0|0:0,0:0:0:0:
110,154,83258,2,0,L|99:328,1,160,2|2,1:2|1:1,0:0:0:0:
164,368,83862,1,10,0:1:0:0:
242,337,84064,6,0,P|301:326|364:338,2,120,6|2|8,1:2|0:0|0:0,0:0:0:0:
186,274,84869,2,0,P|127:263|64:275,2,120,2|2|8,1:2|0:0|0:0,0:0:0:0:
241,210,85675,6,0,L|220:43,2,160,6|6|6,1:2|1:2|0:0,0:0:0:0:
241,210,87285,6,0,P|173:179|74:189,1,160,6|6,1:2|1:2,0:0:0:0:
7,330,88091,2,0,P|75:361|174:351,1,160,6|2,0:2|0:1,0:0:0:0:
