osu file format v14

[General]
AudioFilename: audio.mp3
AudioLeadIn: 0
PreviewTime: 60805
Countdown: 0
SampleSet: Soft
StackLeniency: 0.7
Mode: 0
LetterboxInBreaks: 0
WidescreenStoryboard: 0

[Editor]
DistanceSpacing: 0.88
BeatDivisor: 4
GridSize: 4
TimelineZoom: 1.2

[Metadata]
Title:Curtain Call!!!!!
TitleUnicode:かーてんこーる!!!!!
Artist:Gekidan Hitotose
ArtistUnicode:劇団ひととせ
Creator:Left
Version:Advanced
Source:ひなこのーと
Tags:Hinako Note ED Ending fieryrage Crystal Akitoshi
BeatmapID:1345056
BeatmapSetID:633693

[Difficulty]
HPDrainRate:4.5
CircleSize:3.2
OverallDifficulty:5
ApproachRate:6.4
SliderMultiplier:0.999999999999999
SliderTickRate:1

[Events]
//Background and Video events
0,0,"hinakoBG.jpg",0,0
Video,-221,"vid.avi"
//Break Periods
//Storyboard Layer 0 (Background)
//Storyboard Layer 1 (Fail)
//Storyboard Layer 2 (Pass)
//Storyboard Layer 3 (Foreground)
//Storyboard Sound Samples

[TimingPoints]
1532,202.702702702703,4,2,1,73,1,0
1532,-100,4,2,1,73,0,0
3964,-100,4,2,1,65,0,0
4369,-100,4,2,1,65,0,0
4775,-100,4,2,1,65,0,0
9640,-100,4,2,1,65,0,0
11261,-100,4,2,1,65,0,0
17342,-100,4,2,1,65,0,0
17748,292.682926829268,4,2,1,65,1,0
17748,-76.9230769230769,4,2,1,65,0,0
45845,292.682926829268,6,2,1,53,1,0
45845,-76.9230769230769,6,2,1,53,0,0
52869,292.682926829268,4,2,1,65,1,0
52869,-76.9230769230769,4,2,1,65,0,0
57551,-76.9230769230769,4,2,1,40,0,0
59893,202.702702702703,4,2,1,40,1,0
59893,-100,4,2,1,40,0,0
60501,-100,4,2,1,50,0,0
61109,-100,4,2,1,66,0,0
61514,201.342281879195,4,2,1,78,1,1
74399,-100,4,2,1,65,0,0
88695,-100,4,2,1,5,0,0

[Colours]
Combo1 : 255,255,185
Combo2 : 255,198,255
Combo3 : 147,196,255
Combo4 : 255,201,147
Combo5 : 237,203,254

[HitObjects]
151,59,1532,6,0,P|82:38|-1:58,2,150,6|2|2,1:2|1:2|1:2,0:0:0:0:
239,123,2342,2,0,P|308:102|391:122,2,150,6|2|2,1:2|1:2|1:2,0:0:0:0:
156,196,3153,2,0,P|87:175|4:195,2,150,6|2|2,1:2|1:2|1:2,0:0:0:0:
246,258,3964,2,0,B|298:279|343:247|343:247|397:211|445:242,1,200,2|2,0:0|0:1,0:0:0:0:
360,29,4775,6,0,P|287:88|168:60,1,200,6|2,1:2|0:0,0:0:0:0:
91,20,5383,1,10,0:0:0:0:
25,108,5586,2,0,L|43:278,1,150,2|2,1:2|1:2,0:0:0:0:
84,290,5991,2,0,P|150:286|184:237,1,99.9999999999999,2|10,0:1|0:1,0:0:0:0:
236,175,6396,6,0,L|370:185,1,99.9999999999999,2|10,1:2|0:0,0:0:0:0:
372,78,6802,2,0,L|238:68,1,99.9999999999999,2|10,0:0|0:0,0:0:0:0:
164,92,7207,2,0,P|131:145|145:239,1,150,2|2,1:2|1:2,0:0:0:0:
181,264,7613,2,0,P|186:316|162:360,1,99.9999999999999,2|10,0:1|0:1,0:0:0:0:
274,347,8018,6,0,P|316:316|366:315,1,99.9999999999999,2|10,1:2|0:0,0:0:0:0:
293,229,8423,2,0,P|245:207|219:164,1,99.9999999999999,2|10,0:0|0:0,0:0:0:0:
219,57,8829,2,0,L|403:63,1,150,2|2,1:2|1:2,0:0:0:0:
409,98,9234,2,0,L|526:99,1,99.9999999999999,2|10,0:1|0:1,0:0:0:0:
491,208,9640,6,0,P|404:228|328:125,2,200,6|6|2,1:2|1:2|1:2,0:0:0:0:
360,30,10856,2,0,L|242:41,1,99.9999999999999,10|10,0:3|0:0,0:0:0:0:
152,58,11261,6,0,B|180:115|180:115|161:264,1,200,6|2,1:2|0:0,0:0:0:0:
71,311,11869,1,10,0:0:0:0:
165,366,12072,2,0,L|305:351,1,99.9999999999999,2|8,1:2|0:0,0:0:0:0:
311,325,12376,2,0,L|496:303,1,150,2|10,1:2|0:0,0:0:0:0:
486,200,12883,6,0,P|436:175|380:191,1,99.9999999999999,2|8,1:2|0:0,0:0:0:0:
285,196,13288,2,0,P|236:202|193:178,1,99.9999999999999,0|10,0:0|0:0,0:0:0:0:
192,67,13694,2,0,P|271:55|342:124,2,150,2|2|10,1:0|0:1|0:1,0:0:0:0:
101,128,14504,6,0,L|116:261,1,99.9999999999999,6|8,1:2|0:0,0:0:0:0:
218,259,14910,2,0,L|233:392,1,99.9999999999999,2|10,0:0|0:0,0:0:0:0:
338,345,15315,2,0,L|323:212,1,99.9999999999999,2|8,1:2|0:0,0:0:0:0:
354,198,15619,2,0,L|338:21,1,150,2|10,1:2|0:0,0:0:0:0:
250,112,16126,6,0,P|198:118|149:83,1,99.9999999999999,6|8,1:2|0:0,0:0:0:0:
47,101,16532,2,0,P|78:143|72:202,1,99.9999999999999,6|8,1:2|0:0,0:0:0:0:
158,264,16937,2,0,P|176:224|206:197,1,50,6|2,1:2|1:0,0:0:0:0:
288,199,17241,2,0,L|306:357,1,150,2|0,0:0|0:0,0:0:0:0:
409,318,17748,6,0,P|421:247|383:180,1,129.999994049072,12|8,0:2|0:0,0:0:0:0:
322,109,18333,2,0,L|179:119,1,129.999994049072,8|8,0:0|0:0,0:0:0:0:
145,85,18772,1,0,0:0:0:0:
145,85,18918,2,0,P|83:79|25:140,2,129.999994049072,8|8|8,0:0|0:0|0:0,0:0:0:0:
118,196,19796,1,8,0:0:0:0:
92,307,20089,6,0,L|266:297,1,129.999994049072,8|8,0:0|0:0,0:0:0:0:
321,356,20674,2,0,P|336:287|313:230,1,129.999994049072,10|8,1:2|0:0,0:0:0:0:
275,192,21113,1,0,0:0:0:0:
275,192,21260,2,0,B|251:156|251:156|271:56,1,129.999994049072,8|2,0:0|1:2,0:0:0:0:
311,33,21699,2,0,P|361:23|425:73,1,129.999994049072,8|0,0:0|1:0,0:0:0:0:
443,119,22138,2,0,L|418:260,1,129.999994049072,10|4,1:2|1:2,1:2:0:0:
152,99,23162,6,0,P|106:174|144:288,1,194.999991073609,4|8,1:2|0:0,0:0:0:0:
359,101,24333,2,0,P|405:176|367:290,1,194.999991073609,4|8,1:2|0:0,0:0:0:0:
152,99,25504,6,0,P|106:174|144:288,1,194.999991073609,4|6,1:2|1:2,0:0:0:0:
168,315,26089,2,0,L|341:303,1,129.999994049072,8|12,0:0|0:0,0:0:0:0:
402,260,26674,2,0,P|414:297|410:329,2,64.9999970245362,8|0|0,0:3|1:0|0:0,0:0:0:0:
367,213,27113,6,0,L|377:61,2,129.999994049072,6|10|0,1:2|1:2|1:0,0:0:0:0:
260,169,27991,1,8,0:0:0:0:
164,105,28284,2,0,P|92:88|8:114,1,129.999994049072,0|10,1:0|1:2,0:0:0:0:
30,212,28869,2,0,P|102:229|186:203,1,129.999994049072,2|8,1:2|1:0,0:0:0:0:
207,192,29308,1,2,0:0:0:0:
207,192,29455,6,0,L|219:370,1,129.999994049072,0|10,1:0|1:2,0:0:0:0:
329,335,30040,2,0,L|319:231,1,64.9999970245362,2|0,1:2|0:0,0:0:0:0:
359,226,30333,2,0,L|349:122,1,64.9999970245362,10|0,0:0|0:0,0:0:0:0:
375,108,30626,2,0,P|301:142|227:114,1,129.999994049072,0|10,1:0|1:2,0:0:0:0:
160,69,31211,2,0,P|144:111|146:155,1,64.9999970245362,2|0,1:2|0:0,0:0:0:0:
157,186,31504,1,10,1:2:0:0:
231,272,31796,6,0,P|175:303|113:291,2,129.999994049072,2|10|0,1:2|1:2|1:0,0:0:0:0:
290,175,32674,1,8,0:0:0:0:
375,250,32967,2,0,P|437:283|512:257,2,129.999994049072,0|10|2,1:0|1:2|1:2,0:0:0:0:
334,209,33699,2,0,L|342:128,1,64.9999970245362,2|8,0:0|0:0,0:0:0:0:
397,45,34138,6,0,P|326:30|260:69,1,129.999994049072,2|8,1:2|1:0,0:0:0:0:
233,91,34577,1,2,0:0:0:0:
233,91,34723,2,0,P|173:114|111:98,1,129.999994049072,0|8,1:0|1:0,0:0:0:0:
105,213,35308,6,0,P|176:198|242:237,1,129.999994049072,2|8,1:2|1:0,0:0:0:0:
269,259,35747,1,2,0:0:0:0:
269,259,35894,2,0,P|328:282|398:262,1,129.999994049072,0|8,1:0|1:0,0:0:0:0:
452,170,36479,6,0,L|444:31,2,129.999994049072,6|10|0,1:2|1:2|1:0,0:0:0:0:
346,124,37357,1,8,0:0:0:0:
256,195,37650,2,0,P|164:217|116:196,1,129.999994049072,0|10,1:0|1:2,0:0:0:0:
124,92,38235,2,0,P|216:70|264:91,1,129.999994049072,2|10,1:2|1:2,0:0:0:0:
256,195,38821,6,0,B|322:217|376:177|376:177|444:122|521:172,2,259.999988098145,2|2|2,1:0|1:0|1:2,0:0:0:0:
156,137,40284,2,0,P|145:169|141:213,1,64.9999970245362,10|0,1:2|0:0,0:0:0:0:
162,253,40577,2,0,P|86:224|28:242,1,129.999994049072,2|10,1:2|1:2,0:0:0:0:
85,340,41162,6,0,P|161:369|219:351,2,129.999994049072,2|10|0,1:2|1:2|1:0,0:0:0:0:
40,234,42040,1,8,0:0:0:0:
145,189,42333,2,0,L|160:34,1,129.999994049072,0|10,1:0|1:2,0:0:0:0:
270,77,42918,2,0,L|255:232,1,129.999994049072,2|8,1:2|0:0,0:0:0:0:
340,285,43504,6,0,P|425:285|460:230,2,129.999994049072,2|10|2,1:2|1:2|1:2,0:0:0:0:
257,206,44382,1,10,1:2:0:0:
183,293,44674,2,0,P|98:293|63:238,1,129.999994049072,2|0,1:2|0:0,0:0:0:0:
44,212,45113,2,0,L|64:13,1,194.999991073609,14|2,0:0|0:0,0:0:0:0:
158,81,45845,6,0,B|220:108|274:73|274:73|348:14|427:75,1,259.999988098145,4|2,1:2|0:0,0:0:0:0:
350,160,46723,2,0,P|428:173|494:132,2,129.999994049072,2|2|2,1:2|0:0|0:0,0:0:0:0:
252,99,47601,2,0,L|286:393,1,259.999988098145,2|0,1:2|0:0,0:0:0:0:
171,322,48479,2,0,L|150:153,2,129.999994049072,2|2|2,1:2|0:0|0:0,0:0:0:0:
57,307,49357,6,0,B|33:111|33:111|117:29,1,259.999988098145,2|2,1:2|0:0,0:0:0:0:
159,147,50235,2,0,P|190:92|180:26,2,129.999994049072,2|2|2,1:2|0:0|0:0,0:0:0:0:
107,249,51113,2,0,B|169:276|223:241|223:241|297:182|376:243,1,259.999988098145,2|2,1:2|1:2,0:0:0:0:
396,262,51844,1,0,0:0:0:0:
396,262,51991,1,0,0:0:0:0:
461,167,52284,2,0,P|471:103|433:50,1,129.999994049072,2|2,0:0|0:0,0:0:0:0:
322,49,52869,6,0,L|154:43,1,129.999994049072,6|10,1:2|0:0,0:0:0:0:
168,156,53454,2,0,L|336:162,1,129.999994049072,2|8,0:0|0:0,0:0:0:0:
348,188,53893,1,2,0:0:0:0:
348,188,54039,2,0,P|374:249|346:333,1,129.999994049072,2|10,1:2|0:0,0:0:0:0:
266,372,54625,2,0,P|240:311|268:227,1,129.999994049072,2|10,1:2|0:0,0:0:0:0:
348,188,55210,6,0,P|253:226|191:152,1,194.999991073609,2|2,1:2|1:2,0:0:0:0:
213,115,55795,2,0,L|354:130,1,129.999994049072,2|10,0:0|0:0,0:0:0:0:
396,109,56234,2,0,P|405:50|335:17,2,129.999994049072,2|4|10,1:2|0:3|0:0,0:0:0:0:
342,128,56966,1,0,0:0:0:0:
363,240,57259,2,0,P|409:199|501:254,1,129.999994049072,4|2,0:3|0:0,0:0:0:0:
256,192,57625,12,2,59308,0:0:0:0:
253,87,59893,6,0,P|319:62|456:74,1,200,2|2,0:0|0:0,0:0:0:0:
455,180,60501,2,0,P|389:205|252:193,1,200,2|2,0:0|0:0,0:0:0:0:
159,156,61109,2,0,L|148:269,1,99.9999999999999,2|0,0:0|0:0,0:0:0:0:
62,325,61514,6,0,P|160:282|224:344,1,200,6|0,1:2|0:0,0:0:0:0:
319,286,62118,1,10,0:1:0:0:
246,203,62319,2,0,L|231:52,1,150,2|2,1:0|1:0,0:0:0:0:
184,24,62722,2,0,P|138:18|91:56,1,99.9999999999999,0|10,0:0|0:0,0:0:0:0:
49,146,63124,6,0,L|159:157,1,99.9999999999999,2|10,1:1|0:0,0:0:0:0:
246,203,63527,2,0,L|356:192,1,99.9999999999999,2|10,0:1|0:1,0:0:0:0:
439,135,63930,2,0,P|455:189|446:234,1,99.9999999999999,2|10,1:2|0:1,0:0:0:0:
421,279,64232,1,2,1:2:0:0:
421,279,64332,2,0,L|312:292,1,99.9999999999999,0|10,0:0|0:1,0:0:0:0:
219,331,64735,6,0,P|148:330|142:222,1,200,2|2,1:2|0:1,0:0:0:0:
240,172,65339,1,10,0:0:0:0:
193,72,65540,2,0,L|362:58,1,150,2|2,1:0|1:0,0:0:0:0:
393,79,65943,2,0,L|504:70,1,99.9999999999999,0|10,0:0|0:1,0:0:0:0:
506,180,66346,6,0,P|470:195|402:183,1,99.9999999999999,0|14,1:0|0:0,0:0:0:0:
309,145,66748,2,0,P|260:136|213:152,1,99.9999999999999,0|14,0:0|0:0,0:0:0:0:
130,224,67151,2,0,P|83:240|34:231,1,99.9999999999999,0|14,0:0|0:0,0:0:0:0:
18,122,67554,2,0,P|64:105|113:114,1,99.9999999999999,0|14,0:0|0:0,0:0:0:0:
213,152,67956,6,0,B|268:175|268:175|425:150,1,200,6|0,1:2|0:0,0:0:0:0:
413,42,68560,1,10,0:1:0:0:
303,55,68762,2,0,L|147:46,1,150,2|2,1:0|1:0,0:0:0:0:
107,77,69165,2,0,L|-8:71,1,99.9999999999999,0|10,0:0|0:0,0:0:0:0:
18,181,69567,6,0,L|133:187,1,99.9999999999999,2|8,1:0|0:0,0:0:0:0:
223,155,69970,2,0,P|228:203|206:250,1,99.9999999999999,2|10,0:1|0:1,0:0:0:0:
121,318,70373,2,0,P|162:351|218:352,1,99.9999999999999,2|10,1:2|0:1,0:0:0:0:
259,335,70675,1,2,1:2:0:0:
259,335,70775,2,0,P|308:340|345:371,1,99.9999999999999,0|10,0:0|0:1,0:0:0:0:
424,294,71178,6,0,L|400:84,1,200,2|2,1:2|0:1,0:0:0:0:
297,58,71782,1,10,0:0:0:0:
219,136,71983,2,0,P|169:146|120:119,1,99.9999999999999,2|8,1:0|0:0,0:0:0:0:
81,93,72285,1,2,1:0:0:0:
81,93,72386,2,0,L|72:197,1,99.9999999999999,2|10,0:0|0:1,0:0:0:0:
173,237,72789,6,0,P|101:296|-4:269,2,200,12|12|12,1:2|1:2|1:2,0:0:0:0:
256,33,73997,1,12,1:2:0:0:
461,109,74399,6,0,L|440:312,1,200,6|2,1:2|1:2,0:0:0:0:
335,342,75003,1,10,0:0:0:0:
248,273,75205,2,0,P|176:253|115:303,1,150,2|2,1:2|1:2,0:0:0:0:
89,340,75607,2,0,P|30:342|-2:319,1,99.9999999999999,0|8,0:0|0:0,0:0:0:0:
44,218,76010,6,0,L|37:114,1,99.9999999999999,2|10,1:2|0:0,0:0:0:0:
133,64,76413,2,0,L|140:168,1,99.9999999999999,2|10,1:2|0:0,0:0:0:0:
231,225,76816,2,0,P|289:243|370:186,1,150,2|2,1:2|1:2,0:0:0:0:
389,153,77218,2,0,L|379:38,1,99.9999999999999,0|8,0:0|0:0,0:0:0:0:
490,65,77621,6,0,L|500:180,1,99.9999999999999,2|10,1:2|0:0,0:0:0:0:
440,258,78024,2,0,L|450:373,1,99.9999999999999,2|10,1:2|0:0,0:0:0:0:
348,312,78426,2,0,P|281:301|203:337,1,150,2|2,1:2|1:2,0:0:0:0:
168,371,78829,2,0,P|112:377|63:350,1,99.9999999999999,0|8,0:0|0:0,0:0:0:0:
91,250,79232,6,0,B|105:151|105:151|58:55,2,200,6|6|2,1:2|1:2|1:2,0:0:0:0:
305,297,80440,2,0,L|318:198,1,99.9999999999999,10|10,0:3|0:0,0:0:0:0:
361,95,80842,6,0,P|295:86|226:134,1,150,6|2,1:2|0:0,0:0:0:0:
187,167,81245,2,0,L|86:153,1,99.9999999999999,0|8,1:0|0:0,0:0:0:0:
84,265,81648,2,0,L|254:289,1,150,2|2,1:2|0:0,0:0:0:0:
283,265,82050,2,0,P|308:318|285:372,1,99.9999999999999,0|8,1:0|0:0,0:0:0:0:
407,368,82453,6,0,P|414:300|377:219,1,150,2|2,1:2|0:0,0:0:0:0:
343,187,82856,2,0,L|358:82,1,99.9999999999999,0|8,1:0|0:0,0:0:0:0:
256,44,83258,2,0,L|223:246,1,200,2|2,1:2|1:1,0:0:0:0:
126,294,83862,1,10,0:1:0:0:
51,212,84064,6,0,L|74:54,1,150,6|2,1:2|0:0,0:0:0:0:
119,33,84467,2,0,P|176:26|214:62,1,99.9999999999999,0|8,1:0|0:0,0:0:0:0:
276,135,84869,2,0,P|352:140|407:79,1,150,2|2,1:2|0:0,0:0:0:0:
435,47,85272,2,0,L|444:161,1,99.9999999999999,0|8,1:0|0:0,0:0:0:0:
476,251,85675,6,0,L|365:244,1,99.9999999999999,6|0,1:2|0:0,0:0:0:0:
304,328,86077,2,0,P|243:342|204:328,1,99.9999999999999,6|0,1:2|0:0,0:0:0:0:
131,251,86480,1,6,0:0:0:0:
132,251,87285,6,0,L|143:151,1,99.9999999999999,6|0,1:2|0:0,0:0:0:0:
252,166,87688,2,0,L|240:265,1,99.9999999999999,6|0,1:2|0:0,0:0:0:0:
173,352,88091,1,6,0:2:0:0:
37,179,88493,6,0,L|51:75,1,99.9999999999999,2|0,0:1|0:0,0:0:0:0:
