osu file format v14

[General]
AudioFilename: audio.mp3
AudioLeadIn: 0
PreviewTime: 60394
Countdown: 1
SampleSet: Soft
StackLeniency: 0.7
Mode: 0
LetterboxInBreaks: 0
WidescreenStoryboard: 1

[Editor]
Bookmarks: 5276,11762,18249,27614,36980,46346,53370,60394,62015,68457,74900,81343,89397,95840,105205,114571,121595,128619,130240,136682,143125,149568,156011,157622,164064,170507,176950,180172,186615,193058,199501,205944,212387
DistanceSpacing: 0.5
BeatDivisor: 2
GridSize: 8
TimelineZoom: 2

[Metadata]
Title:Curtain Call!!!!!
TitleUnicode:Curtain Call!!!!!
Artist:Gekidan Hitotose
ArtistUnicode:Gekidan Hitotose
Creator:ANuko
Version:remap
Source:
Tags:
BeatmapID:2847576
BeatmapSetID:720783

[Difficulty]
HPDrainRate:4
CircleSize:3.5
OverallDifficulty:9
ApproachRate:9.6
SliderMultiplier:1.8
SliderTickRate:2

[Events]
//Background and Video events
0,0,"hagino_chiaki_hiiragi_mayuki_nakajima_yua_natsukawa_kuina_and_sakuragi_hinako_hinako_note_drawn_by_r.jpg",0,0
//Break Periods
2,189628,190933
//Storyboard Layer 0 (Background)
//Storyboard Layer 1 (Fail)
//Storyboard Layer 2 (Pass)
//Storyboard Layer 3 (Foreground)
//Storyboard Layer 4 (Overlay)
//Storyboard Sound Samples

[TimingPoints]
2029,202.702702702703,4,2,0,50,1,0
18245,292.682926829268,4,2,0,50,1,0
18245,-40,4,2,0,50,0,0
26879,-133.333333333333,4,2,0,50,0,0
27610,-100,4,2,0,60,0,0
44293,-66.6666666666667,4,2,0,60,0,0
44586,-50,4,2,0,60,0,0
44879,-40,4,2,0,60,0,0
45171,-100,4,2,0,60,0,0
45610,-133.333333333333,4,2,0,60,0,0
46342,292.682926829268,3,2,0,50,1,0
53366,292.682926829268,4,2,0,50,1,0
60390,202.702702702703,4,2,0,50,1,0
62011,201.342281879195,4,2,0,50,1,1
66843,-200,4,2,0,50,0,0
67044,-50,4,2,0,50,0,0
67245,-200,4,2,0,50,0,0
67446,-50,4,2,0,50,0,0
67648,-200,4,2,0,50,0,0
67849,-50,4,2,0,50,0,0
68051,-200,4,2,0,50,0,0
68252,-50,4,2,0,50,0,0
68453,-100,4,2,0,50,0,1
73286,-100,4,2,0,50,0,0
95836,292.682926829268,4,2,0,50,1,0
114567,292.682926829268,3,2,0,50,1,0
121591,292.682926829268,4,2,0,50,1,0
128615,202.702702702703,4,2,0,50,1,0
130236,201.342281879195,4,2,0,50,1,1
135068,-200,4,2,0,50,0,0
135269,-50,4,2,0,50,0,0
135470,-200,4,2,0,50,0,0
135671,-50,4,2,0,50,0,0
135873,-200,4,2,0,50,0,0
136074,-50,4,2,0,50,0,0
136276,-200,4,2,0,50,0,0
136477,-50,4,2,0,50,0,0
136678,-100,4,2,0,50,0,1
141511,-100,4,2,0,50,0,0
186611,402.684563758389,4,2,0,50,1,1
189832,201.342281879195,4,2,0,50,1,0
191442,-100,4,2,0,50,0,0
191643,-50,4,2,0,50,0,0
191844,-100,4,2,0,50,0,0
192045,-50,4,2,0,50,0,0
192247,-100,4,2,0,50,0,0
192448,-50,4,2,0,50,0,0
192650,-100,4,2,0,50,0,0
192851,-50,4,2,0,50,0,0
193052,-100,4,2,0,50,0,1
197885,-100,4,2,0,50,0,0
199496,-50,4,2,0,50,0,0
200503,-100,4,2,0,50,0,0
201107,-50,4,2,0,50,0,0
202113,-100,4,2,0,50,0,0
202717,-50,4,2,0,50,0,0
203724,-100,4,2,0,50,0,0

[HitObjects]
63,137,2029,6,0,L|233:127,1,90
4,26,2231,1,0,0:0:0:0:
71,166,2333,2,0,L|241:156,1,90
15,53,2535,1,0,0:0:0:0:
82,193,2637,2,0,L|252:183,1,90
347,313,2839,6,0,L|177:303,1,90
406,202,3041,1,0,0:0:0:0:
339,342,3143,2,0,L|169:332,1,90
395,229,3345,1,0,0:0:0:0:
328,369,3447,2,0,L|158:359,1,90
339,86,3650,6,0,L|509:96,1,90
280,197,3852,1,0,0:0:0:0:
347,57,3954,2,0,L|517:67,1,90
291,170,4156,1,0,0:0:0:0:
258,6,4258,2,0,L|168:0,1,90
144,216,4461,6,0,P|140:240|127:262,6,45
35,67,4866,6,0,P|39:43|52:21,6,45
37,82,5272,6,0,P|78:67|164:76,1,90
140,204,5474,2,0,P|99:219|13:210,1,90
236,29,5677,6,0,P|230:74|233:119,1,90
300,252,5880,2,0,P|302:304|284:378,1,90
403,79,6083,6,0,P|308:71|371:41,1,180
416,232,6387,2,0,P|511:224|448:194,1,180
72,349,6691,5,0,0:0:0:0:
115,337,6792,1,0,0:0:0:0:
159,334,6893,2,0,P|176:282|167:209,1,90
49,145,7096,2,0,P|32:197|41:270,1,90
132,53,7299,6,0,P|180:67|253:59,1,90
376,25,7501,2,0,P|420:25|463:38,1,90
431,186,7704,6,0,P|442:129|395:198,1,180
294,355,8008,2,0,P|283:298|330:367,1,180
184,231,8312,5,0,0:0:0:0:
139,238,8414,1,0,0:0:0:0:
101,263,8515,2,0,P|77:212|76:155,1,90
243,164,8718,2,0,P|267:215|268:272,1,90
450,177,8920,6,0,P|405:178|360:171,1,90
157,67,9123,2,0,P|112:60|67:61,1,90
282,29,9326,6,0,P|257:44|302:34,1,180
454,198,9630,2,0,P|479:213|434:203,1,180
316,347,9934,5,0,0:0:0:0:
275,327,10035,1,0,0:0:0:0:
229,323,10137,2,0,P|140:321|102:308,1,90
0,255,10339,2,0,P|89:257|127:270,1,90
53,80,10542,5,0,0:0:0:0:
75,119,10643,1,0,0:0:0:0:
103,154,10745,2,0,P|158:168|216:159,1,90
362,4,10947,6,0,P|323:75|336:249,1,180
505,169,11251,1,0,0:0:0:0:
471,222,11353,1,0,0:0:0:0:
484,283,11454,1,0,0:0:0:0:
471,287,11505,1,0,0:0:0:0:
457,290,11556,1,0,0:0:0:0:
449,334,11657,1,0,0:0:0:0:
400,357,11758,5,0,0:0:0:0:
327,351,11860,1,0,0:0:0:0:
260,323,11961,1,0,0:0:0:0:
207,273,12062,1,0,0:0:0:0:
143,238,12164,2,0,P|61:247|32:281,1,90
63,374,12366,2,0,P|145:365|174:331,1,90
205,199,12569,6,0,L|251:91,1,90
113,109,12772,1,0,0:0:0:0:
234,190,12873,2,0,L|280:82,1,90
352,24,13076,1,0,0:0:0:0:
370,29,13177,1,0,0:0:0:0:
443,9,13279,1,0,0:0:0:0:
433,67,13380,5,0,0:0:0:0:
406,133,13481,1,0,0:0:0:0:
431,200,13583,1,0,0:0:0:0:
443,270,13684,1,0,0:0:0:0:
386,313,13785,1,0,0:0:0:0:
338,258,13887,1,0,0:0:0:0:
361,190,13988,1,0,0:0:0:0:
406,133,14089,1,0,0:0:0:0:
306,327,14191,5,0,0:0:0:0:
252,336,14292,1,0,0:0:0:0:
198,330,14393,1,0,0:0:0:0:
147,310,14495,1,0,0:0:0:0:
111,269,14596,1,0,0:0:0:0:
164,260,14697,1,0,0:0:0:0:
219,266,14798,1,0,0:0:0:0:
270,286,14900,1,0,0:0:0:0:
113,37,15001,5,0,0:0:0:0:
162,89,15103,1,0,0:0:0:0:
226,120,15204,1,0,0:0:0:0:
298,120,15306,1,0,0:0:0:0:
362,88,15407,2,0,P|402:68|484:73,1,90
502,174,15610,2,0,P|462:194|380:189,1,90
485,281,15812,6,0,L|489:390,1,90
396,196,16015,1,0,0:0:0:0:
460,270,16116,2,0,L|464:379,1,90
302,365,16319,1,0,0:0:0:0:
336,275,16420,1,0,0:0:0:0:
282,331,16522,1,0,0:0:0:0:
195,271,16623,5,0,0:0:0:0:
176,201,16724,1,0,0:0:0:0:
143,105,16826,1,0,0:0:0:0:
125,35,16927,1,0,0:0:0:0:
125,35,17029,5,0,0:0:0:0:
106,105,17130,1,0,0:0:0:0:
73,201,17232,1,0,0:0:0:0:
55,271,17333,1,0,0:0:0:0:
30,370,17434,5,0,0:0:0:0:
110,375,17535,1,0,0:0:0:0:
505,159,17738,5,0,0:0:0:0:
451,231,17839,1,0,0:0:0:0:
444,254,17907,1,0,0:0:0:0:
442,277,17974,1,0,0:0:0:0:
442,301,18042,1,0,0:0:0:0:
443,325,18110,1,0,0:0:0:0:
448,348,18177,1,0,0:0:0:0:
455,365,18245,6,0,B|407:311|358:303|358:303|313:308|258:372,1,225
171,146,18537,6,0,B|182:278|206:315|206:315|249:266|277:269,1,225
89,120,18757,1,0,0:0:0:0:
77,139,18830,6,0,P|128:63|262:116,1,225
0,108,19123,6,0,B|-7:211|33:267|33:267|37:222|56:197,1,225
10,357,19415,6,0,L|234:370,1,225
512,263,19708,6,0,L|287:276,1,225
0,175,20001,6,0,L|224:188,1,225
502,81,20294,6,0,L|277:94,1,225
28,41,20586,6,0,B|-2:33|-2:33|91:15|193:96,1,225
223,200,20879,6,0,B|281:194|306:208|342:259|342:259|407:219|420:243,1,225
205,289,21098,1,0,0:0:0:0:
221,297,21171,6,0,B|303:295|258:260|-37:322|135:251,1,225
14,353,21464,6,0,B|9:274|36:172|36:172|48:216|33:260,1,225
10,27,21757,6,0,L|234:14,1,225
512,121,22050,6,0,L|287:108,1,225
0,209,22343,6,0,L|224:196,1,225
324,255,22562,1,0,0:0:0:0:
347,305,22635,5,0,0:0:0:0:
291,299,22708,1,0,0:0:0:0:
236,313,22781,1,0,0:0:0:0:
186,339,22854,1,0,0:0:0:0:
130,375,22927,5,0,0:0:0:0:
98,290,23074,1,0,0:0:0:0:
99,200,23220,1,0,0:0:0:0:
71,114,23366,1,0,0:0:0:0:
201,32,23513,5,0,0:0:0:0:
233,117,23660,1,0,0:0:0:0:
232,207,23806,1,0,0:0:0:0:
260,293,23952,1,0,0:0:0:0:
390,375,24098,5,0,0:0:0:0:
422,290,24245,1,0,0:0:0:0:
421,200,24391,1,0,0:0:0:0:
449,114,24537,1,0,0:0:0:0:
319,32,24684,5,0,0:0:0:0:
287,117,24831,1,0,0:0:0:0:
288,207,24977,1,0,0:0:0:0:
260,293,25123,1,0,0:0:0:0:
33,287,25269,5,0,0:0:0:0:
122,272,25416,1,0,0:0:0:0:
200,226,25562,1,0,0:0:0:0:
288,207,25708,1,0,0:0:0:0:
229,18,25855,5,0,0:0:0:0:
319,32,26002,1,0,0:0:0:0:
396,78,26148,1,0,0:0:0:0:
484,97,26294,1,0,0:0:0:0:
416,333,26440,5,0,0:0:0:0:
339,373,26586,2,0,L|79:370,1,225
29,284,26879,6,0,L|262:287,1,202.500007724762
343,290,27464,1,0,0:0:0:0:
431,239,27610,5,0,0:0:0:0:
455,151,27757,1,0,0:0:0:0:
478,64,27903,1,0,0:0:0:0:
478,64,27976,1,0,0:0:0:0:
478,64,28049,1,0,0:0:0:0:
349,190,28196,5,0,0:0:0:0:
325,101,28343,1,0,0:0:0:0:
302,15,28489,1,0,0:0:0:0:
302,15,28562,1,0,0:0:0:0:
302,15,28635,1,0,0:0:0:0:
83,121,28781,5,0,0:0:0:0:
171,145,28928,1,0,0:0:0:0:
258,168,29074,1,0,0:0:0:0:
258,168,29147,1,0,0:0:0:0:
258,168,29220,1,0,0:0:0:0:
0,311,29366,5,0,0:0:0:0:
45,231,29513,1,0,0:0:0:0:
90,154,29659,1,0,0:0:0:0:
90,154,29732,1,0,0:0:0:0:
90,154,29805,2,0,L|190:226,1,90
307,314,30098,5,0,0:0:0:0:
476,324,30244,1,0,0:0:0:0:
399,173,30391,1,0,0:0:0:0:
512,248,30537,5,0,0:0:0:0:
453,82,30684,1,0,0:0:0:0:
395,206,30830,5,0,0:0:0:0:
323,23,30976,2,0,L|195:50,1,90
180,322,31269,5,0,0:0:0:0:
92,349,31415,1,0,0:0:0:0:
260,235,31562,1,0,0:0:0:0:
167,219,31708,2,0,L|159:359,1,90
132,54,32001,2,0,L|124:194,1,90
243,246,32293,5,0,0:0:0:0:
288,168,32440,1,0,0:0:0:0:
332,90,32586,1,0,0:0:0:0:
332,90,32659,1,0,0:0:0:0:
332,90,32732,1,0,0:0:0:0:
485,203,32879,5,0,0:0:0:0:
461,116,33026,1,0,0:0:0:0:
437,29,33172,1,0,0:0:0:0:
437,29,33245,1,0,0:0:0:0:
437,29,33318,1,0,0:0:0:0:
512,225,33464,5,0,0:0:0:0:
424,248,33611,1,0,0:0:0:0:
337,271,33757,1,0,0:0:0:0:
337,271,33830,1,0,0:0:0:0:
337,271,33903,1,0,0:0:0:0:
96,320,34049,5,0,0:0:0:0:
184,343,34196,1,0,0:0:0:0:
271,366,34342,1,0,0:0:0:0:
271,366,34415,1,0,0:0:0:0:
271,366,34488,1,0,0:0:0:0:
77,286,34635,6,0,P|73:233|96:159,1,90
201,86,34927,1,0,0:0:0:0:
98,147,35074,2,0,P|70:182|52:223,1,90
264,166,35366,5,0,0:0:0:0:
238,77,35513,1,0,0:0:0:0:
167,15,35659,1,0,0:0:0:0:
423,42,35805,5,0,0:0:0:0:
446,171,35952,1,0,0:0:0:0:
350,116,36098,1,0,0:0:0:0:
327,245,36245,1,0,0:0:0:0:
138,81,36391,5,0,0:0:0:0:
267,58,36537,1,0,0:0:0:0:
50,158,36684,1,0,0:0:0:0:
179,181,36830,1,0,0:0:0:0:
229,384,36976,5,0,0:0:0:0:
166,319,37123,1,0,0:0:0:0:
103,255,37269,1,0,0:0:0:0:
103,255,37342,1,0,0:0:0:0:
103,255,37415,1,0,0:0:0:0:
309,128,37562,5,0,0:0:0:0:
285,215,37709,1,0,0:0:0:0:
261,302,37855,1,0,0:0:0:0:
261,302,37928,1,0,0:0:0:0:
261,302,38001,1,0,0:0:0:0:
512,154,38147,5,0,0:0:0:0:
425,130,38294,1,0,0:0:0:0:
338,106,38440,1,0,0:0:0:0:
338,106,38513,1,0,0:0:0:0:
338,106,38586,1,0,0:0:0:0:
175,239,38732,5,0,0:0:0:0:
262,215,38879,1,0,0:0:0:0:
349,191,39025,1,0,0:0:0:0:
349,191,39098,1,0,0:0:0:0:
349,191,39171,1,0,0:0:0:0:
184,80,39318,6,0,P|190:169|151:262,1,180
90,19,39757,1,0,0:0:0:0:
0,103,39903,2,0,P|116:110|197:95,1,180
343,14,40342,5,0,0:0:0:0:
327,37,40488,1,0,0:0:0:0:
384,108,40635,1,0,0:0:0:0:
463,55,40781,1,0,0:0:0:0:
487,181,40927,2,0,L|503:279,1,90
455,89,41220,1,0,0:0:0:0:
479,215,41366,2,0,L|495:313,1,90
345,356,41659,5,0,0:0:0:0:
368,268,41806,1,0,0:0:0:0:
391,181,41952,1,0,0:0:0:0:
391,181,42025,1,0,0:0:0:0:
391,181,42098,1,0,0:0:0:0:
280,289,42244,5,0,0:0:0:0:
193,264,42391,1,0,0:0:0:0:
106,241,42537,1,0,0:0:0:0:
106,241,42610,1,0,0:0:0:0:
106,241,42683,1,0,0:0:0:0:
312,31,42830,5,0,0:0:0:0:
287,118,42977,1,0,0:0:0:0:
264,205,43123,1,0,0:0:0:0:
264,205,43196,1,0,0:0:0:0:
264,205,43269,1,0,0:0:0:0:
81,154,43415,5,0,0:0:0:0:
106,241,43562,1,0,0:0:0:0:
129,328,43708,1,0,0:0:0:0:
129,328,43781,1,0,0:0:0:0:
129,328,43854,1,0,0:0:0:0:
253,261,44001,6,0,P|310:261|377:288,1,90
393,227,44293,6,0,P|326:220|261:237,1,135.000005149842
246,217,44586,6,0,P|333:167|432:150,1,180
430,151,44879,6,0,P|298:145|172:181,1,225
134,346,45171,5,0,0:0:0:0:
76,256,45318,1,0,0:0:0:0:
18,315,45464,1,0,0:0:0:0:
32,175,45610,2,0,L|51:17,1,135.000005149842
393,46,46049,5,0,0:0:0:0:
359,52,46123,1,0,0:0:0:0:
326,59,46196,1,0,0:0:0:0:
293,67,46269,1,0,0:0:0:0:
260,74,46342,6,0,L|250:127,3,45
168,144,46634,2,0,L|178:197,3,45
199,293,46927,1,0,0:0:0:0:
391,293,47220,2,0,P|310:277|189:274,1,180
122,384,47805,1,0,0:0:0:0:
18,327,48098,6,0,L|-11:245,1,45
45,285,48244,2,0,L|37:198,1,45
91,265,48390,2,0,L|105:179,1,45
138,248,48537,2,0,L|174:169,1,45
185,248,48683,2,0,L|240:181,1,45
238,258,48829,2,0,L|309:207,1,45
495,181,48976,6,0,L|524:99,1,45
468,139,49122,2,0,L|475:52,1,45
422,119,49268,2,0,L|407:33,1,45
375,102,49415,2,0,L|338:23,1,45
328,102,49561,2,0,L|272:35,1,45
275,112,49707,2,0,L|203:61,1,45
0,50,49854,6,0,P|98:21|176:47,1,180
72,283,50293,1,0,0:0:0:0:
106,199,50439,2,0,L|92:84,1,90
124,354,50732,6,0,P|166:369|210:374,1,90
192,288,51024,2,0,P|232:269|267:241,1,90
186,194,51317,2,0,P|201:151|206:107,1,90
404,30,51610,5,0,0:0:0:0:
434,245,51756,2,0,L|458:158,1,90
335,144,52049,1,0,0:0:0:0:
305,359,52195,2,0,L|280:272,1,90
154,52,52488,1,0,0:0:0:0:
182,199,52634,1,0,0:0:0:0:
30,90,52781,6,0,L|137:80,1,90
292,32,53073,2,0,L|399:22,1,90
437,298,53366,5,0,0:0:0:0:
470,172,53512,1,0,0:0:0:0:
383,384,53658,1,0,0:0:0:0:
350,258,53804,1,0,0:0:0:0:
186,325,53951,2,0,L|301:309,1,90
100,187,54244,1,0,0:0:0:0:
29,340,54390,6,0,L|48:252,1,90
150,121,54683,2,0,L|131:209,1,90
256,133,54975,2,0,L|236:45,1,90
325,198,55268,1,0,0:0:0:0:
373,100,55414,2,0,L|353:187,1,90
412,340,55707,5,0,0:0:0:0:
300,361,55853,1,0,0:0:0:0:
191,267,56000,1,0,0:0:0:0:
163,376,56146,1,0,0:0:0:0:
92,249,56292,2,0,L|182:247,1,90
74,164,56585,1,0,0:0:0:0:
169,42,56731,2,0,L|143:144,1,90
332,90,57024,2,0,L|205:96,1,90
385,150,57317,1,0,0:0:0:0:
424,76,57463,5,0,0:0:0:0:
410,154,57609,1,0,0:0:0:0:
396,234,57756,2,0,L|313:359,1,90
13,372,58048,6,0,P|117:282|365:319,1,360
191,378,58926,1,0,0:0:0:0:
5,384,59219,2,0,L|46:113,1,270
65,26,59805,1,0,0:0:0:0:
317,111,60097,1,0,0:0:0:0:
250,28,60390,5,0,0:0:0:0:
121,191,60592,1,0,0:0:0:0:
245,235,60795,1,0,0:0:0:0:
374,191,60998,1,0,0:0:0:0:
246,374,61200,5,0,0:0:0:0:
410,165,61402,1,0,0:0:0:0:
252,109,61605,1,0,0:0:0:0:
87,165,61808,1,0,0:0:0:0:
435,364,62011,6,0,P|448:216|412:154,1,180
259,355,62313,1,0,0:0:0:0:
94,339,62413,2,0,P|134:328|214:328,1,90
340,304,62615,2,0,P|304:283|226:262,1,90
76,352,62816,6,0,L|79:263,1,90
86,47,63017,1,0,0:0:0:0:
126,117,63118,1,0,0:0:0:0:
167,187,63219,2,0,L|244:140,1,90
372,133,63420,2,0,L|449:86,1,90
460,207,63621,6,0,P|456:246|409:317,1,90
415,374,63823,2,0,P|382:351|344:275,1,90
291,252,64024,2,0,P|326:235|412:240,1,90
207,250,64225,1,0,0:0:0:0:
248,179,64326,1,0,0:0:0:0:
289,108,64427,6,0,P|244:79|206:71,1,90
50,92,64628,1,0,0:0:0:0:
132,70,64729,2,0,L|94:290,1,180
142,332,65031,2,0,L|130:242,1,90
227,358,65232,6,0,L|334:334,1,90
396,292,65433,2,0,L|483:272,1,90
429,138,65635,1,0,0:0:0:0:
371,194,65735,1,0,0:0:0:0:
289,192,65836,1,0,0:0:0:0:
232,250,65937,1,0,0:0:0:0:
153,249,66037,6,0,L|89:184,1,90
219,125,66239,1,0,0:0:0:0:
163,231,66339,2,0,L|99:166,1,90
21,59,66541,1,0,0:0:0:0:
105,33,66641,1,0,0:0:0:0:
0,146,66742,1,0,0:0:0:0:
8,141,66843,6,0,L|22:198,1,45
53,326,67044,2,0,P|90:326|250:377,1,180
123,43,67245,6,0,L|109:100,1,45
35,324,67447,2,0,P|119:294|209:287,1,180
224,169,67648,6,0,L|238:226,1,45
464,285,67849,2,0,P|374:292|290:322,1,180
339,71,68051,6,0,L|325:128,1,45
482,283,68252,2,0,P|397:252|308:245,1,180
494,22,68453,5,0,0:0:0:0:
418,51,68554,1,0,0:0:0:0:
337,62,68655,1,0,0:0:0:0:
257,49,68755,1,0,0:0:0:0:
180,21,68856,2,0,P|120:17|69:28,1,90
84,180,69057,2,0,P|117:130|133:80,1,90
18,274,69259,6,0,L|137:272,1,90
183,351,69460,2,0,L|94:353,1,90
362,285,69662,6,0,L|272:283,1,90
348,204,69863,2,0,L|437:205,1,90
471,99,70064,6,0,L|463:197,1,90
411,46,70266,1,0,0:0:0:0:
330,46,70366,1,0,0:0:0:0:
248,46,70467,2,0,L|120:24,1,90
30,154,70668,1,0,0:0:0:0:
111,154,70768,1,0,0:0:0:0:
193,154,70869,6,0,L|321:132,1,90
320,351,71071,1,0,0:0:0:0:
341,271,71172,1,0,0:0:0:0:
362,193,71272,6,0,L|479:200,1,90
302,351,71474,2,0,L|184:343,1,90
47,279,71675,6,0,L|76:388,1,90
209,229,71876,1,0,0:0:0:0:
128,249,71977,1,0,0:0:0:0:
47,260,72078,2,0,L|18:151,1,90
100,31,72279,2,0,L|123:117,1,90
224,74,72480,6,0,P|264:65|313:77,1,90
366,208,72682,1,0,0:0:0:0:
508,40,72782,2,0,P|423:46|333:103,1,180
404,298,73084,2,0,L|380:183,1,90
296,339,73286,6,0,P|183:343|96:426,1,180
4,205,73688,2,0,P|117:209|204:292,1,180
223,31,74091,5,0,0:0:0:0:
177,255,74292,1,0,0:0:0:0:
455,49,74494,5,0,0:0:0:0:
368,72,74594,1,0,0:0:0:0:
322,149,74695,1,0,0:0:0:0:
304,153,74745,1,0,0:0:0:0:
286,158,74796,1,0,0:0:0:0:
269,164,74846,1,0,0:0:0:0:
252,169,74896,6,0,L|286:276,1,90
461,337,75098,2,0,L|426:229,1,90
228,4,75299,6,0,L|194:111,1,90
19,172,75500,2,0,L|54:64,1,90
0,178,75702,5,0,0:0:0:0:
30,253,75802,1,0,0:0:0:0:
99,295,75903,1,0,0:0:0:0:
175,268,76004,1,0,0:0:0:0:
226,207,76104,2,0,P|262:210|360:264,1,90
359,299,76306,2,0,P|401:314|445:319,1,90
437,100,76507,6,0,L|422:188,1,90
342,44,76708,1,0,0:0:0:0:
351,78,76809,1,0,0:0:0:0:
263,54,76910,1,0,0:0:0:0:
179,88,77011,1,0,0:0:0:0:
171,177,77111,1,0,0:0:0:0:
212,257,77212,1,0,0:0:0:0:
296,288,77313,6,0,P|324:253|328:209,1,90
253,145,77514,2,0,P|268:186|304:211,1,90
398,182,77715,2,0,P|354:174|314:193,1,90
430,357,77917,1,0,0:0:0:0:
358,296,78017,1,0,0:0:0:0:
277,380,78118,6,0,P|219:383|164:363,1,90
90,287,78319,1,0,0:0:0:0:
63,383,78420,2,0,L|114:279,1,90
150,201,78621,1,0,0:0:0:0:
159,120,78722,1,0,0:0:0:0:
128,44,78823,1,0,0:0:0:0:
30,141,78923,5,0,0:0:0:0:
92,192,79024,1,0,0:0:0:0:
170,211,79125,1,0,0:0:0:0:
235,164,79225,2,0,P|284:143|364:153,1,90
194,229,79427,1,0,0:0:0:0:
259,182,79527,1,0,0:0:0:0:
344,159,79577,1,0,0:0:0:0:
461,265,79729,5,0,0:0:0:0:
442,186,79829,1,0,0:0:0:0:
448,105,79930,1,0,0:0:0:0:
477,29,80031,1,0,0:0:0:0:
343,17,80131,5,0,0:0:0:0:
362,96,80231,1,0,0:0:0:0:
356,177,80332,1,0,0:0:0:0:
327,253,80433,1,0,0:0:0:0:
224,335,80534,6,0,P|268:336|320:374,1,90
135,379,80735,1,0,0:0:0:0:
113,299,80836,1,0,0:0:0:0:
92,220,80937,5,0,0:0:0:0:
19,375,81037,1,0,0:0:0:0:
19,375,81088,1,0,0:0:0:0:
19,375,81138,2,0,L|153:372,1,90
119,126,81339,6,0,L|102:230,1,90
212,88,81541,2,0,L|229:-16,1,90
431,176,81742,1,0,0:0:0:0:
352,154,81843,1,0,0:0:0:0:
271,151,81943,1,0,0:0:0:0:
192,171,82044,1,0,0:0:0:0:
399,328,82145,6,0,P|443:334|486:323,1,90
324,263,82346,2,0,P|279:256|236:267,1,90
64,327,82547,1,0,0:0:0:0:
100,254,82648,1,0,0:0:0:0:
126,177,82749,1,0,0:0:0:0:
121,96,82849,1,0,0:0:0:0:
463,39,82950,6,0,L|425:162,1,90
286,372,83151,2,0,L|312:286,1,90
316,31,83353,1,0,0:0:0:0:
277,101,83453,1,0,0:0:0:0:
215,153,83554,1,0,0:0:0:0:
135,167,83655,1,0,0:0:0:0:
367,157,83755,6,0,P|336:126|272:93,1,90
424,317,83957,2,0,P|424:274|402:204,1,90
233,253,84158,6,0,P|274:242|347:245,1,90
103,363,84360,2,0,P|124:326|177:276,1,90
89,58,84561,6,0,P|88:94|100:173,1,90
243,236,84762,2,0,P|244:200|232:121,1,90
336,378,84964,1,0,0:0:0:0:
405,338,85064,1,0,0:0:0:0:
460,278,85165,1,0,0:0:0:0:
493,206,85266,1,0,0:0:0:0:
273,314,85366,6,0,P|216:315|169:299,1,90
18,212,85568,2,0,P|75:211|122:227,1,90
308,45,85769,1,0,0:0:0:0:
250,101,85870,1,0,0:0:0:0:
177,132,85970,1,0,0:0:0:0:
96,136,86071,1,0,0:0:0:0:
419,154,86172,6,0,P|405:192|360:250,1,90
253,283,86373,1,0,0:0:0:0:
169,251,86474,1,0,0:0:0:0:
212,381,86574,6,0,P|238:350|266:282,1,90
242,173,86775,1,0,0:0:0:0:
172,116,86876,1,0,0:0:0:0:
71,219,86977,6,0,P|67:270|87:310,1,90
452,308,87782,6,0,L|336:304,1,90
271,299,87984,1,0,0:0:0:0:
181,293,88084,1,0,0:0:0:0:
0,222,88185,6,0,L|116:218,1,90
181,213,88387,1,0,0:0:0:0:
271,207,88487,1,0,0:0:0:0:
430,220,88588,6,0,P|432:175|442:131,1,90
476,112,88990,6,0,L|299:84,1,180
41,29,89393,5,0,0:0:0:0:
33,109,89494,1,0,0:0:0:0:
41,188,89594,1,0,0:0:0:0:
74,262,89695,1,0,0:0:0:0:
136,314,89796,2,0,P|176:316|225:305,1,90
360,178,89997,2,0,P|320:176|270:186,1,90
394,288,90198,6,0,L|370:168,1,90
352,365,90400,1,0,0:0:0:0:
407,270,90500,2,0,L|383:150,1,90
458,14,90702,5,0,0:0:0:0:
474,55,90802,1,0,0:0:0:0:
394,73,90903,1,0,0:0:0:0:
329,23,91004,5,0,0:0:0:0:
249,34,91104,1,0,0:0:0:0:
176,70,91205,1,0,0:0:0:0:
134,139,91306,1,0,0:0:0:0:
145,218,91406,1,0,0:0:0:0:
218,184,91507,1,0,0:0:0:0:
260,114,91608,1,0,0:0:0:0:
249,34,91708,1,0,0:0:0:0:
306,186,91809,5,0,0:0:0:0:
320,247,91910,1,0,0:0:0:0:
356,299,92011,1,0,0:0:0:0:
411,332,92111,1,0,0:0:0:0:
476,343,92212,1,0,0:0:0:0:
463,279,92313,1,0,0:0:0:0:
421,229,92413,1,0,0:0:0:0:
370,188,92514,1,0,0:0:0:0:
53,362,92615,5,0,0:0:0:0:
104,299,92715,1,0,0:0:0:0:
120,219,92816,1,0,0:0:0:0:
108,138,92917,1,0,0:0:0:0:
71,66,93017,2,0,P|153:59|197:71,1,90
271,106,93219,2,0,P|315:108|359:100,1,90
512,40,93420,6,0,L|498:158,1,90
370,16,93621,1,0,0:0:0:0:
485,67,93722,2,0,L|471:185,1,90
438,369,93923,1,0,0:0:0:0:
304,250,94024,1,0,0:0:0:0:
317,332,94125,1,0,0:0:0:0:
191,293,94225,5,0,0:0:0:0:
184,227,94326,1,0,0:0:0:0:
176,139,94427,1,0,0:0:0:0:
171,74,94528,1,0,0:0:0:0:
171,74,94628,5,0,0:0:0:0:
158,137,94729,1,0,0:0:0:0:
143,224,94830,1,0,0:0:0:0:
131,289,94931,1,0,0:0:0:0:
100,382,95031,5,0,0:0:0:0:
99,280,95131,2,0,L|10:278,1,90
172,49,95333,5,0,0:0:0:0:
245,94,95433,1,0,0:0:0:0:
263,96,95484,1,0,0:0:0:0:
280,98,95534,1,0,0:0:0:0:
297,101,95584,1,0,0:0:0:0:
315,102,95635,1,0,0:0:0:0:
332,103,95685,1,0,0:0:0:0:
349,102,95735,1,0,0:0:0:0:
367,101,95786,1,0,0:0:0:0:
378,96,95836,6,0,L|384:202,1,90
368,233,96128,2,0,L|373:322,1,90
247,357,96421,6,0,L|280:256,1,90
272,222,96713,2,0,L|300:136,1,90
174,261,97006,5,0,0:0:0:0:
28,343,97299,2,0,L|117:331,1,90
187,260,97592,1,0,0:0:0:0:
109,202,97738,2,0,L|19:213,1,90
91,39,98177,6,0,P|91:97|83:152,1,90
205,77,98470,2,0,P|205:135|213:190,1,90
324,144,98762,2,0,P|324:202|316:257,1,90
438,182,99055,2,0,P|438:240|446:295,1,90
472,89,99348,5,0,0:0:0:0:
381,53,99494,2,0,L|285:74,1,90
214,180,99787,2,0,L|127:200,1,90
16,130,100079,1,0,0:0:0:0:
2,220,100226,2,0,L|44:311,1,90
98,377,100518,6,0,P|157:353|203:321,1,90
205,304,100811,2,0,P|244:281|286:266,1,90
487,264,101104,6,0,P|428:240|382:208,1,90
380,191,101397,2,0,P|340:168|298:153,1,90
179,59,101689,6,0,P|219:73|262:78,1,45
176,90,101836,2,0,P|211:113|251:129,1,45
158,120,101982,2,0,P|185:152|220:177,1,45
139,145,102129,2,0,P|157:183|184:217,1,45
239,251,102275,6,0,P|199:265|156:270,1,45
242,282,102422,2,0,P|206:305|166:321,1,45
260,312,102568,2,0,P|232:344|197:369,1,45
279,337,102715,2,0,P|260:375|233:409,1,45
352,238,102860,5,0,0:0:0:0:
440,356,104031,5,0,0:0:0:0:
466,283,104177,2,0,L|475:163,1,90
334,70,104470,6,0,L|436:69,1,90
279,174,104762,1,0,0:0:0:0:
225,28,104909,2,0,L|123:29,1,90
62,252,105201,5,0,0:0:0:0:
125,188,105348,1,0,0:0:0:0:
188,125,105494,1,0,0:0:0:0:
188,125,105567,1,0,0:0:0:0:
188,125,105640,1,0,0:0:0:0:
210,384,105787,5,0,0:0:0:0:
146,321,105934,1,0,0:0:0:0:
83,258,106080,1,0,0:0:0:0:
83,258,106153,1,0,0:0:0:0:
83,258,106226,1,0,0:0:0:0:
390,206,106372,5,0,0:0:0:0:
313,252,106519,1,0,0:0:0:0:
236,297,106665,1,0,0:0:0:0:
236,297,106738,1,0,0:0:0:0:
236,297,106811,1,0,0:0:0:0:
430,278,106957,5,0,0:0:0:0:
406,191,107104,1,0,0:0:0:0:
383,105,107250,1,0,0:0:0:0:
383,105,107323,1,0,0:0:0:0:
383,105,107396,1,0,0:0:0:0:
152,154,107543,6,0,P|202:167|260:152,1,90
251,26,107835,2,0,P|201:13|143:28,1,90
20,69,108128,2,0,L|143:83,1,90
7,231,108421,1,0,0:0:0:0:
50,231,108494,1,0,0:0:0:0:
88,245,108567,6,0,P|142:246|198:234,1,90
336,147,108860,1,0,0:0:0:0:
363,217,109006,2,0,L|352:335,1,90
434,61,109299,2,0,L|423:179,1,90
287,28,109592,1,0,0:0:0:0:
287,28,109665,1,0,0:0:0:0:
287,28,109738,1,0,0:0:0:0:
65,50,109884,5,0,0:0:0:0:
151,73,110031,1,0,0:0:0:0:
237,96,110177,1,0,0:0:0:0:
237,96,110250,1,0,0:0:0:0:
237,96,110323,1,0,0:0:0:0:
203,243,110470,5,0,0:0:0:0:
265,180,110617,1,0,0:0:0:0:
328,117,110763,1,0,0:0:0:0:
328,117,110836,1,0,0:0:0:0:
328,117,110909,1,0,0:0:0:0:
475,233,111055,5,0,0:0:0:0:
388,255,111202,1,0,0:0:0:0:
302,278,111348,1,0,0:0:0:0:
302,278,111421,1,0,0:0:0:0:
302,278,111494,1,0,0:0:0:0:
54,306,111640,5,0,0:0:0:0:
140,329,111787,1,0,0:0:0:0:
226,352,111933,1,0,0:0:0:0:
226,352,112006,1,0,0:0:0:0:
226,352,112079,1,0,0:0:0:0:
113,237,112226,6,0,P|120:192|133:149,1,90
279,29,112518,2,0,P|271:73|258:116,1,90
98,46,112811,2,0,L|200:60,1,90
367,76,113104,1,0,0:0:0:0:
512,98,113250,1,0,0:0:0:0:
512,98,113323,1,0,0:0:0:0:
512,98,113396,5,0,0:0:0:0:
439,227,113543,1,0,0:0:0:0:
386,101,113689,1,0,0:0:0:0:
319,251,113835,2,0,L|286:374,1,90
115,367,114128,5,0,0:0:0:0:
110,344,114201,1,0,0:0:0:0:
116,322,114275,1,0,0:0:0:0:
130,305,114348,1,0,0:0:0:0:
137,283,114421,1,0,0:0:0:0:
137,260,114494,1,0,0:0:0:0:
126,240,114567,6,0,P|132:209|138:196,3,45
30,193,114859,2,0,P|24:162|17:149,3,45
0,67,115152,2,0,L|108:69,1,90
259,83,115445,5,0,0:0:0:0:
330,132,115737,1,0,0:0:0:0:
416,139,116030,1,0,0:0:0:0:
253,77,116323,6,0,P|242:172|248:283,1,180
316,339,116908,1,0,0:0:0:0:
162,220,117201,6,0,P|73:228|27:321,2,180
387,345,118079,6,0,P|405:253|463:168,1,180
302,204,118664,1,0,0:0:0:0:
348,72,118957,6,0,P|258:69|174:99,1,180
81,207,119542,1,0,0:0:0:0:
119,372,119835,6,0,P|136:304|71:184,1,180
0,99,120420,1,0,0:0:0:0:
82,81,120567,1,0,0:0:0:0:
170,99,120713,6,0,P|226:104|275:90,1,90
223,256,121006,2,0,P|266:219|290:175,1,90
370,340,121298,2,0,P|375:284|361:235,1,90
153,364,121591,5,0,0:0:0:0:
122,233,121737,1,0,0:0:0:0:
16,299,121883,1,0,0:0:0:0:
45,170,122030,1,0,0:0:0:0:
118,136,122176,6,0,L|-2:152,1,90
197,25,122469,1,0,0:0:0:0:
349,155,122615,2,0,L|229:171,1,90
381,66,122908,2,0,L|470:54,1,90
426,319,123200,5,0,0:0:0:0:
456,197,123347,1,0,0:0:0:0:
323,362,123493,1,0,0:0:0:0:
293,240,123640,1,0,0:0:0:0:
46,252,123932,5,0,0:0:0:0:
69,170,124078,1,0,0:0:0:0:
172,167,124225,1,0,0:0:0:0:
149,85,124371,1,0,0:0:0:0:
329,92,124517,6,0,L|214:104,1,90
394,39,124810,1,0,0:0:0:0:
464,93,124956,2,0,L|459:191,1,90
367,277,125249,2,0,L|372:179,1,90
289,320,125542,5,0,0:0:0:0:
152,264,125688,1,0,0:0:0:0:
231,240,125834,1,0,0:0:0:0:
146,356,125981,2,0,L|117:248,1,90
83,38,126273,6,0,P|67:71|110:65,1,90
237,85,126566,2,0,P|205:105|200:68,1,90
323,52,126859,2,0,P|343:82|359:42,1,90
480,27,127151,6,0,L|462:129,1,90
437,292,127444,5,0,0:0:0:0:
375,208,127664,1,0,0:0:0:0:
342,350,127883,1,0,0:0:0:0:
268,334,128176,1,0,0:0:0:0:
258,352,128322,1,0,0:0:0:0:
19,182,128615,5,0,0:0:0:0:
170,353,128817,1,0,0:0:0:0:
232,183,129020,1,0,0:0:0:0:
176,11,129223,1,0,0:0:0:0:
473,173,129425,5,0,0:0:0:0:
278,366,129627,1,0,0:0:0:0:
213,186,129830,1,0,0:0:0:0:
272,4,130033,1,0,0:0:0:0:
106,193,130236,6,0,P|183:186|218:172,1,90
9,118,130437,1,0,0:0:0:0:
29,206,130538,1,0,0:0:0:0:
18,294,130638,2,0,P|57:323|129:311,1,90
257,272,130840,2,0,P|301:275|336:303,1,90
447,377,131041,6,0,P|433:331|442:270,1,90
500,167,131242,1,0,0:0:0:0:
410,180,131343,1,0,0:0:0:0:
324,150,131444,2,0,P|281:96|276:64,1,90
129,2,131645,2,0,P|172:56|177:88,1,90
11,109,131846,6,0,L|137:60,1,90
130,184,132048,2,0,L|263:204,1,90
208,299,132249,2,0,L|313:383,1,90
462,303,132450,1,0,0:0:0:0:
410,229,132551,1,0,0:0:0:0:
395,139,132652,6,0,P|420:82|442:73,1,90
286,10,132853,1,0,0:0:0:0:
231,74,132954,2,0,P|220:107|206:193,1,90
307,271,133155,1,0,0:0:0:0:
218,290,133256,1,0,0:0:0:0:
129,274,133356,1,0,0:0:0:0:
122,378,133457,6,0,P|133:334|135:289,1,90
15,123,133658,1,0,0:0:0:0:
99,155,133759,1,0,0:0:0:0:
184,124,133860,2,0,P|228:115|302:124,1,90
438,178,134061,2,0,P|394:187|350:186,1,90
398,16,134262,6,0,P|385:67|391:139,1,90
506,20,134464,1,0,0:0:0:0:
409,24,134564,2,0,P|396:75|402:147,1,90
471,273,134766,1,0,0:0:0:0:
489,281,134866,1,0,0:0:0:0:
413,330,134967,1,0,0:0:0:0:
330,366,135068,6,0,L|321:321,1,45
50,50,135269,2,0,P|122:104|260:139,1,180
223,278,135470,6,0,L|232:233,1,45
10,110,135672,2,0,P|93:143|235:141,1,180
131,382,135873,6,0,L|122:337,1,45
326,147,136074,2,0,P|398:93|536:58,1,180
24,294,136276,6,0,L|33:249,1,45
286,87,136477,2,0,P|369:53|511:55,1,180
458,291,136678,6,0,P|446:228|428:182,1,90
395,356,136880,1,0,0:0:0:0:
426,277,136980,2,0,P|414:214|396:168,1,90
300,270,137182,1,0,0:0:0:0:
227,270,137282,1,0,0:0:0:0:
165,231,137383,1,0,0:0:0:0:
169,102,137484,6,0,P|121:115|20:118,1,90
234,13,137685,1,0,0:0:0:0:
254,91,137786,1,0,0:0:0:0:
277,168,137887,2,0,P|330:179|412:171,1,90
507,258,138088,2,0,P|454:269|372:261,1,90
224,384,138289,6,0,P|215:330|226:278,1,90
154,241,138491,2,0,P|205:260|244:295,1,90
305,257,138692,2,0,P|262:291|212:308,1,90
0,197,138893,1,0,0:0:0:0:
18,247,138994,1,0,0:0:0:0:
21,301,139095,6,0,L|49:216,1,90
30,49,139296,1,0,0:0:0:0:
108,69,139397,1,0,0:0:0:0:
186,50,139497,2,0,P|206:49|282:68,1,90
442,25,139699,2,0,P|422:26|346:7,1,90
487,94,139900,6,0,L|477:232,1,90
475,364,140101,1,0,0:0:0:0:
406,303,140202,1,0,0:0:0:0:
289,339,140303,5,0,0:0:0:0:
302,258,140403,1,0,0:0:0:0:
194,328,140504,2,0,P|155:329|86:312,1,90
187,162,140705,6,0,L|148:289,1,90
90,128,140907,1,0,0:0:0:0:
219,158,141007,2,0,L|180:285,1,90
168,32,141209,1,0,0:0:0:0:
245,53,141309,1,0,0:0:0:0:
322,77,141410,1,0,0:0:0:0:
399,102,141511,6,0,P|395:185|355:323,1,180
452,0,141913,2,0,P|430:87|425:177,1,180
480,374,142316,6,0,L|261:355,1,180
139,340,142719,1,0,0:0:0:0:
153,260,142819,1,0,0:0:0:0:
219,213,142920,1,0,0:0:0:0:
223,191,142970,1,0,0:0:0:0:
227,169,143021,1,0,0:0:0:0:
230,148,143071,1,0,0:0:0:0:
131,170,143121,6,0,P|34:165|-22:134,1,90
140,30,143323,2,0,P|184:25|229:32,1,90
337,132,143524,6,0,P|334:89|353:35,1,90
460,171,143725,2,0,P|463:214|444:268,1,90
344,329,143927,6,0,L|472:363,1,90
217,285,144128,6,0,P|224:329|218:374,1,90
120,178,144329,2,0,P|78:162|43:135,1,90
260,144,144531,2,0,P|296:116|338:100,1,90
403,40,144732,6,0,P|445:57|481:84,1,90
512,242,144933,1,0,0:0:0:0:
446,290,145034,1,0,0:0:0:0:
370,260,145135,2,0,P|375:209|391:170,1,90
257,78,145336,2,0,P|252:129|236:168,1,90
24,128,145538,6,0,P|77:108|167:112,1,90
378,369,145739,6,0,P|333:330|296:271,1,90
412,68,145940,2,0,P|400:126|368:188,1,90
130,187,146142,2,0,P|186:167|255:164,1,90
162,343,146343,6,0,P|186:297|189:257,1,90
47,32,146544,1,0,0:0:0:0:
124,56,146645,1,0,0:0:0:0:
204,69,146746,1,0,0:0:0:0:
283,56,146846,1,0,0:0:0:0:
364,58,146947,1,0,0:0:0:0:
432,101,147048,1,0,0:0:0:0:
462,175,147148,6,0,P|459:228|433:309,1,90
292,197,147350,6,0,P|336:194|380:204,1,90
156,153,147551,2,0,P|131:115|117:72,1,90
183,297,147752,2,0,P|162:336|132:370,1,90
278,359,147954,6,0,L|367:368,1,90
477,264,148155,1,0,0:0:0:0:
456,342,148256,1,0,0:0:0:0:
336,285,148356,6,0,L|405:228,1,90
408,77,148557,1,0,0:0:0:0:
449,147,148658,1,0,0:0:0:0:
321,198,148759,6,0,L|330:108,1,90
224,0,148960,1,0,0:0:0:0:
303,20,149061,1,0,0:0:0:0:
145,30,149162,5,0,0:0:0:0:
115,114,149262,1,0,0:0:0:0:
132,202,149363,1,0,0:0:0:0:
152,193,149413,1,0,0:0:0:0:
174,192,149464,1,0,0:0:0:0:
196,194,149514,1,0,0:0:0:0:
216,202,149564,6,0,P|228:251|215:311,1,90
47,360,149766,2,0,P|35:311|48:251,1,90
179,367,149967,1,0,0:0:0:0:
260,371,150068,1,0,0:0:0:0:
340,363,150168,1,0,0:0:0:0:
411,324,150269,1,0,0:0:0:0:
456,162,150370,6,0,P|425:203|407:301,1,90
139,23,150571,1,0,0:0:0:0:
176,92,150672,1,0,0:0:0:0:
158,165,150772,1,0,0:0:0:0:
238,155,150873,1,0,0:0:0:0:
308,114,150974,1,0,0:0:0:0:
387,122,151074,1,0,0:0:0:0:
151,277,151175,6,0,P|171:219|167:177,1,90
46,231,151376,1,0,0:0:0:0:
103,287,151477,1,0,0:0:0:0:
111,367,151578,1,0,0:0:0:0:
191,362,151678,1,0,0:0:0:0:
268,339,151779,1,0,0:0:0:0:
331,288,151880,1,0,0:0:0:0:
197,62,151980,6,0,P|227:99|270:122,1,90
418,142,152182,2,0,P|463:135|502:114,1,90
185,39,152383,6,0,P|147:69|124:112,1,90
104,260,152585,2,0,P|110:305|132:344,1,90
480,356,152786,5,0,0:0:0:0:
424,296,152887,1,0,0:0:0:0:
418,215,152987,1,0,0:0:0:0:
445,138,153088,1,0,0:0:0:0:
365,64,153189,1,0,0:0:0:0:
362,146,153290,1,0,0:0:0:0:
309,207,153390,1,0,0:0:0:0:
235,242,153491,1,0,0:0:0:0:
59,125,153591,5,0,0:0:0:0:
95,197,153692,1,0,0:0:0:0:
103,277,153793,1,0,0:0:0:0:
74,352,153893,1,0,0:0:0:0:
179,338,153994,1,0,0:0:0:0:
259,326,154095,1,0,0:0:0:0:
339,328,154195,1,0,0:0:0:0:
412,362,154296,1,0,0:0:0:0:
300,259,154397,6,0,P|305:214|320:171,1,90
447,79,154598,1,0,0:0:0:0:
397,9,154699,1,0,0:0:0:0:
256,23,154799,6,0,P|250:67|235:110,1,90
109,203,155000,1,0,0:0:0:0:
159,273,155101,1,0,0:0:0:0:
0,189,155202,6,0,L|214:164,1,180
12,383,155605,2,0,P|7:297|44:395,1,270
305,361,156007,6,0,L|331:183,1,180
473,224,156410,2,0,L|447:45,1,180
100,74,156813,6,0,L|457:31,1,360
145,154,157618,6,0,P|103:208|90:377,1,180
316,354,157920,1,0,0:0:0:0:
184,283,158021,2,0,P|234:274|279:290,1,90
449,226,158222,2,0,P|399:217|354:233,1,90
253,98,158423,6,0,P|179:117|42:70,1,180
334,15,158725,1,0,0:0:0:0:
401,130,158826,2,0,P|403:74|426:33,1,90
453,320,159027,2,0,P|470:278|469:234,1,90
257,371,159229,6,0,P|271:282|304:199,1,180
17,355,159531,1,0,0:0:0:0:
74,298,159631,1,0,0:0:0:0:
152,275,159732,1,0,0:0:0:0:
34,273,159833,2,0,P|23:228|25:161,1,90
30,48,160034,6,0,P|115:78|204:92,1,180
339,11,160336,1,0,0:0:0:0:
338,171,160437,2,0,P|316:116|317:34,1,90
340,339,160638,2,0,P|362:284|361:202,1,90
443,325,160840,5,0,0:0:0:0:
353,364,160940,1,0,0:0:0:0:
253,359,161041,1,0,0:0:0:0:
174,297,161142,1,0,0:0:0:0:
0,300,161242,5,0,0:0:0:0:
97,314,161342,1,0,0:0:0:0:
192,283,161443,1,0,0:0:0:0:
252,203,161544,1,0,0:0:0:0:
419,266,161645,5,0,0:0:0:0:
321,255,161745,1,0,0:0:0:0:
238,200,161846,1,0,0:0:0:0:
201,108,161947,1,0,0:0:0:0:
60,212,162048,5,0,0:0:0:0:
151,175,162148,1,0,0:0:0:0:
217,101,162249,1,0,0:0:0:0:
229,1,162350,1,0,0:0:0:0:
396,100,162450,5,0,0:0:0:0:
358,171,162551,1,0,0:0:0:0:
365,253,162652,1,0,0:0:0:0:
403,323,162752,1,0,0:0:0:0:
475,358,162853,1,0,0:0:0:0:
393,357,162954,1,0,0:0:0:0:
315,336,163054,1,0,0:0:0:0:
260,275,163155,1,0,0:0:0:0:
238,200,163256,6,0,P|275:172|322:162,3,90
183,107,163658,2,0,L|6:138,1,180
45,11,164061,6,0,L|7:175,1,90
58,242,164262,2,0,L|31:375,1,90
209,163,164464,1,0,0:0:0:0:
302,190,164564,2,0,L|395:172,1,90
356,8,164766,6,0,P|340:58|343:147,1,90
428,253,164967,2,0,P|423:297|408:340,1,90
493,100,165168,1,0,0:0:0:0:
475,24,165269,2,0,P|434:9|352:9,1,90
225,53,165470,2,0,P|180:48|138:33,1,90
131,340,165672,6,0,L|-5:365,1,90
371,291,165873,2,0,L|282:274,1,90
22,41,166074,1,0,0:0:0:0:
77,113,166175,2,0,L|54:213,1,90
225,353,166376,6,0,P|237:309|260:271,1,90
395,99,166578,2,0,P|417:60|430:17,1,90
391,235,166779,1,0,0:0:0:0:
313,169,166880,2,0,L|223:180,1,90
116,9,167081,2,0,L|205:20,1,90
61,248,167282,6,0,L|84:147,1,90
229,16,167484,2,0,L|206:117,1,90
321,361,167685,1,0,0:0:0:0:
146,309,167786,2,0,L|255:298,1,90
432,256,167987,6,0,L|406:397,1,90
491,62,168189,2,0,L|517:203,1,90
228,113,168390,1,0,0:0:0:0:
310,157,168491,2,0,L|399:144,1,90
142,82,168692,2,0,L|52:94,1,90
289,170,168893,6,0,L|324:348,1,180
325,18,169195,1,0,0:0:0:0:
430,128,169296,2,0,L|465:306,1,180
328,33,169598,1,0,0:0:0:0:
423,111,169699,6,0,L|512:106,1,90
159,23,169900,2,0,L|248:27,1,90
58,81,170101,2,0,L|21:280,1,180
61,358,170504,6,0,L|176:353,1,90
361,354,170705,2,0,L|451:358,1,90
57,282,170907,6,0,L|172:277,1,90
357,278,171108,2,0,L|447:282,1,90
56,205,171309,6,0,L|171:200,1,90
356,201,171510,2,0,L|446:205,1,90
50,129,171712,6,0,L|165:124,1,90
350,125,171913,2,0,L|440:129,1,90
448,15,172115,6,0,L|466:158,1,90
369,268,172316,2,0,L|358:358,1,90
372,21,172517,6,0,L|390:164,1,90
294,275,172718,2,0,L|283:365,1,90
295,26,172920,6,0,L|313:169,1,90
217,280,173121,2,0,L|206:370,1,90
219,32,173323,6,0,L|237:175,1,90
141,286,173524,2,0,L|130:376,1,90
23,27,173725,6,0,L|140:50,1,90
451,104,173927,2,0,L|363:87,1,90
25,103,174128,6,0,L|142:126,1,90
454,181,174330,2,0,L|366:164,1,90
22,178,174531,6,0,L|139:201,1,90
451,256,174733,2,0,L|363:239,1,90
20,255,174933,6,0,L|137:278,1,90
449,333,175135,2,0,L|361:316,1,90
47,372,175336,6,0,L|75:243,1,90
155,15,175538,2,0,L|136:103,1,90
128,383,175739,6,0,L|147:295,1,90
236,26,175941,2,0,L|217:114,1,90
465,372,176142,6,0,L|437:243,1,90
356,15,176344,2,0,L|376:103,1,90
384,383,176545,6,0,L|364:295,1,90
275,26,176747,2,0,L|295:114,1,90
9,186,176947,6,0,L|161:186,1,90
428,181,177148,1,0,0:0:0:0:
163,8,177350,2,0,L|149:159,1,90
136,359,177551,1,0,0:0:0:0:
308,33,177752,6,0,L|322:184,1,90
335,384,177953,1,0,0:0:0:0:
29,278,178155,1,0,0:0:0:0:
114,274,178256,1,0,0:0:0:0:
188,237,178356,1,0,0:0:0:0:
512,162,178558,6,0,L|367:156,1,90
70,148,178759,1,0,0:0:0:0:
351,22,178960,2,0,L|324:128,1,90
263,373,179162,1,0,0:0:0:0:
181,362,179262,1,0,0:0:0:0:
124,301,179363,6,0,P|133:256|148:214,1,90
271,264,179564,1,0,0:0:0:0:
348,294,179665,1,0,0:0:0:0:
430,278,179766,2,0,P|466:201|475:104,1,180
95,101,180168,6,0,L|490:122,1,360
37,28,180772,1,0,0:0:0:0:
270,22,180974,2,0,L|288:412,1,360
43,329,181578,1,0,0:0:0:0:
119,298,181678,1,0,0:0:0:0:
146,283,181779,5,0,0:0:0:0:
88,229,181880,1,0,0:0:0:0:
80,150,181980,2,0,P|117:126|161:116,1,90
371,227,182182,1,0,0:0:0:0:
298,200,182282,1,0,0:0:0:0:
261,129,182383,1,0,0:0:0:0:
267,51,182484,1,0,0:0:0:0:
333,10,182584,6,0,P|396:158|412:294,1,270
208,364,183189,1,0,0:0:0:0:
278,324,183289,1,0,0:0:0:0:
358,326,183390,6,0,P|199:297|-24:297,1,360
212,384,183994,1,0,0:0:0:0:
252,137,184195,1,0,0:0:0:0:
256,192,184246,12,0,185806,0:0:0:0:
0,0,186007,5,0,0:0:0:0:
255,31,186209,1,0,0:0:0:0:
512,0,186410,1,0,0:0:0:0:
452,96,186611,6,0,P|362:88|275:66,1,180
25,154,187416,2,0,P|115:147|202:125,1,180
0,295,188221,6,0,P|89:287|176:265,1,180
426,353,189026,2,0,P|336:346|250:324,1,180
0,360,191442,6,0,L|120:360,1,90
32,104,191644,2,0,P|16:192|32:280,1,180
120,288,191845,6,0,L|240:288,1,90
168,32,192046,2,0,P|184:120|168:208,1,180
240,360,192248,6,0,L|360:360,1,90
280,72,192449,2,0,P|264:160|280:248,1,180
361,294,192651,6,0,L|481:294,1,90
416,0,192851,2,0,P|432:88|416:176,1,180
44,40,193053,6,0,P|94:54|163:39,1,90
211,0,193254,1,0,0:0:0:0:
328,94,193355,2,0,P|278:108|209:93,1,90
126,195,193556,1,0,0:0:0:0:
206,342,193657,2,0,L|184:228,1,90
37,323,193858,6,0,P|77:340|182:347,1,90
333,178,194060,1,0,0:0:0:0:
290,266,194160,1,0,0:0:0:0:
335,353,194261,2,0,P|386:339|430:278,1,90
427,140,194462,2,0,P|436:183|465:217,1,90
503,49,194664,6,0,L|374:68,1,90
306,113,194865,2,0,L|216:99,1,90
120,36,195066,2,0,L|30:49,1,90
151,316,195268,1,0,0:0:0:0:
229,256,195368,1,0,0:0:0:0:
328,249,195469,6,0,P|393:220|436:187,1,90
232,369,195670,1,0,0:0:0:0:
157,303,195771,1,0,0:0:0:0:
105,217,195872,2,0,P|130:181|170:156,1,90
63,309,196073,2,0,P|38:345|-2:370,1,90
233,352,196274,6,0,L|421:364,1,180
496,329,196576,1,0,0:0:0:0:
506,166,196677,1,0,0:0:0:0:
408,144,196778,1,0,0:0:0:0:
310,157,196878,2,0,P|269:157|202:123,1,90
129,14,197080,6,0,P|129:62|111:130,1,90
42,288,197281,1,0,0:0:0:0:
11,203,197382,1,0,0:0:0:0:
24,112,197483,2,0,P|72:112|140:130,1,90
160,256,197684,2,0,P|204:264|249:264,1,90
331,369,197885,6,0,L|324:181,1,180
437,193,198288,6,0,L|443:5,1,180
340,44,198691,6,0,L|251:25,1,90
168,106,198892,2,0,L|79:87,1,90
0,193,199093,1,0,0:0:0:0:
45,270,199194,1,0,0:0:0:0:
90,348,199295,1,0,0:0:0:0:
116,341,199345,1,0,0:0:0:0:
142,335,199395,1,0,0:0:0:0:
169,330,199446,1,0,0:0:0:0:
195,326,199496,6,0,B|260:322|260:322|403:147|403:147|488:146,1,360
280,17,199798,1,0,0:0:0:0:
232,85,199899,2,0,B|257:130|257:130|11:230|11:230|36:299,1,360
496,237,200201,1,0,0:0:0:0:
438,303,200301,2,0,L|259:320,1,180
90,100,200503,6,0,P|78:57|78:13,1,90
95,271,200704,2,0,P|64:304|25:327,1,90
237,174,200905,2,0,P|281:184|320:207,1,90
384,317,201107,6,0,B|402:358|402:358|419:113|419:113|442:196,1,360
204,30,201409,1,0,0:0:0:0:
226,106,201510,2,0,B|236:175|236:175|61:20|61:20|91:104,1,360
9,329,201812,1,0,0:0:0:0:
68,384,201912,2,0,L|285:352,1,180
468,103,202113,6,0,P|415:155|333:164,1,90
333,372,202315,2,0,P|314:300|347:224,1,90
163,113,202516,2,0,P|234:132|283:199,1,90
236,336,202717,6,0,B|127:192|127:192|-5:336,1,360
318,172,203019,1,0,0:0:0:0:
282,248,203120,2,0,B|391:392|391:392|523:248,1,360
464,69,203422,1,0,0:0:0:0:
396,13,203523,2,0,L|184:4,1,180
262,88,203724,6,0,P|305:136|320:209,1,90
183,212,203925,2,0,P|139:224|95:221,1,90,0|0,3:0|3:0,3:0:0:0:
126,83,204127,2,0,P|136:39|161:2,1,90,0|0,3:0|3:0,3:0:0:0:
81,197,204328,6,0,L|58:289,1,90
241,288,204529,2,0,L|264:380,1,90
512,307,204731,1,0,0:0:0:0:
450,269,204832,1,0,0:0:0:0:
419,204,204932,1,0,0:0:0:0:
426,132,205033,1,0,0:0:0:0:
253,140,205134,6,0,P|342:138|428:230,1,180
116,229,205536,2,0,L|143:49,1,180
48,384,205939,5,0,0:0:0:0:
112,321,206040,1,0,0:0:0:0:
200,312,206140,1,0,0:0:0:0:
279,354,206241,1,0,0:0:0:0:
455,291,206342,1,0,0:0:0:0:
366,305,206443,1,0,0:0:0:0:
288,262,206543,1,0,0:0:0:0:
247,182,206644,1,0,0:0:0:0:
287,0,206744,5,0,0:0:0:0:
325,81,206845,1,0,0:0:0:0:
329,170,206945,1,0,0:0:0:0:
301,255,207046,1,0,0:0:0:0:
390,339,207147,1,0,0:0:0:0:
382,249,207248,1,0,0:0:0:0:
413,165,207348,1,0,0:0:0:0:
487,113,207449,1,0,0:0:0:0:
65,26,207550,5,0,0:0:0:0:
138,77,207651,1,0,0:0:0:0:
227,69,207751,1,0,0:0:0:0:
298,14,207852,1,0,0:0:0:0:
299,120,207952,1,0,0:0:0:0:
218,157,208053,1,0,0:0:0:0:
181,237,208153,1,0,0:0:0:0:
193,326,208254,1,0,0:0:0:0:
485,261,208355,6,0,P|442:271|370:260,1,90
206,168,208556,2,0,P|175:135|149:67,1,90
49,306,208758,6,0,P|92:316|164:305,1,90
328,213,208959,2,0,P|358:180|384:112,1,90
57,16,209160,5,0,0:0:0:0:
71,105,209261,1,0,0:0:0:0:
70,194,209361,1,0,0:0:0:0:
42,280,209462,1,0,0:0:0:0:
65,384,209563,1,0,0:0:0:0:
134,326,209664,1,0,0:0:0:0:
211,282,209764,1,0,0:0:0:0:
300,264,209865,1,0,0:0:0:0:
395,28,209966,5,0,0:0:0:0:
322,81,210067,1,0,0:0:0:0:
331,169,210167,1,0,0:0:0:0:
413,205,210268,1,0,0:0:0:0:
294,255,210368,1,0,0:0:0:0:
240,182,210469,1,0,0:0:0:0:
151,191,210569,1,0,0:0:0:0:
115,273,210670,1,0,0:0:0:0:
49,175,210771,6,0,L|138:171,1,90
185,28,210972,1,0,0:0:0:0:
230,104,211073,2,0,L|319:100,1,90
490,56,211274,1,0,0:0:0:0:
450,137,211375,1,0,0:0:0:0:
447,227,211476,1,0,0:0:0:0:
472,312,211576,2,0,P|382:329|255:310,1,180
49,349,211878,5,0,0:0:0:0:
36,361,211979,1,0,0:0:0:0:
43,266,212080,1,0,0:0:0:0:
50,166,212180,1,0,0:0:0:0:
31,154,212382,6,0,P|62:171|137:171,1,90
223,46,212583,1,0,0:0:0:0:
323,108,212684,2,0,P|292:125|217:125,1,90
406,40,212885,1,0,0:0:0:0:
478,118,212986,2,0,L|486:221,1,90
273,335,213187,6,0,L|497:334,1,225
332,122,213993,6,0,P|390:134|452:114,1,90
280,48,214194,1,0,0:0:0:0:
242,178,214295,2,0,P|184:190|122:170,1,90
180,384,214496,1,0,0:0:0:0:
99,341,214597,1,0,0:0:0:0:
39,276,214697,1,0,0:0:0:0:
0,194,214798,2,0,P|43:99|118:29,1,180
397,342,215201,6,0,L|486:331,1,90
