osu file format v14

[General]
AudioFilename: audio.mp3
AudioLeadIn: 0
PreviewTime: 60394
Countdown: 1
SampleSet: Normal
StackLeniency: 0.7
Mode: 0
LetterboxInBreaks: 0
WidescreenStoryboard: 1

[Editor]
Bookmarks: 5276,11762,18249,27614,36980,46346,53370,60394,62015,68457,74900,81343,89397,95840,105205,114571,121595,128619,130240,136682,143125,149568,156011,157622,164064,170507,176950,180172,186615,193058,199501,205944,212387
DistanceSpacing: 2
BeatDivisor: 4
GridSize: 16
TimelineZoom: 1.3

[Metadata]
Title:Curtain Call!!!!!
TitleUnicode:Curtain Call!!!!!
Artist:Gekidan Hitotose
ArtistUnicode:Gekidan Hitotose
Creator:ANuko
Version:RSI EX
Source:
Tags:
BeatmapID:1536096
BeatmapSetID:720783

[Difficulty]
HPDrainRate:4.5
CircleSize:2
OverallDifficulty:9.5
ApproachRate:9.2
SliderMultiplier:1.2
SliderTickRate:1

[Events]
//Background and Video events
0,0,"hagino_chiaki_hiiragi_mayuki_nakajima_yua_natsukawa_kuina_and_sakuragi_hinako_hinako_note_drawn_by_r.jpg",0,0
//Break Periods
//Storyboard Layer 0 (Background)
//Storyboard Layer 1 (Fail)
//Storyboard Layer 2 (Pass)
//Storyboard Layer 3 (Foreground)
//Storyboard Sound Samples

[TimingPoints]
2029,202.702702702703,4,1,0,100,1,0
18245,292.682926829268,4,1,0,100,1,0
46342,292.682926829268,3,1,0,100,1,0
53366,292.682926829268,4,1,0,100,1,0
60390,202.702702702703,4,1,0,100,1,0
62011,201.342281879195,4,1,0,100,1,1
66843,-133.333333333333,4,1,0,100,0,0
68453,-100,4,1,0,100,0,1
73286,-100,4,1,0,100,0,0
95836,292.682926829268,4,1,0,100,1,0
114567,292.682926829268,3,1,0,100,1,0
121591,292.682926829268,4,1,0,100,1,0
128615,202.702702702703,4,1,0,100,1,0
130236,201.342281879195,4,1,0,100,1,1
135068,-100,4,1,0,100,0,0
136678,-100,4,1,0,100,0,1
141511,-100,4,1,0,100,0,0
157618,201.342281879195,4,1,0,100,1,0
186611,402.684563758389,4,1,0,100,1,1
189832,201.342281879195,4,1,0,100,1,0
193053,-66.6666666666667,4,1,0,100,0,1
197885,-100,4,1,0,100,0,0

[HitObjects]
225,147,2029,5,4,0:3:0:0:
262,64,2231,1,4,0:3:0:0:
262,64,2333,1,4,0:3:0:0:
261,172,2535,1,4,0:3:0:0:
261,172,2637,1,4,0:3:0:0:
322,125,2839,5,4,0:3:0:0:
276,224,3042,1,4,0:3:0:0:
276,224,3143,1,4,0:3:0:0:
369,203,3346,1,4,0:3:0:0:
369,203,3447,1,4,0:3:0:0:
289,265,3650,5,4,0:3:0:0:
266,153,3853,1,4,0:3:0:0:
266,153,3954,1,4,0:3:0:0:
207,244,4157,1,4,0:3:0:0:
207,244,4258,1,4,0:3:0:0:
172,189,4461,5,2,0:0:0:0:
221,222,4562,1,0,0:0:0:0:
281,227,4664,1,0,0:0:0:0:
333,198,4765,1,0,0:0:0:0:
357,142,4866,5,4,0:2:0:0:
346,232,4968,1,0,0:0:0:0:
275,287,5069,1,0,0:0:0:0:
185,284,5170,1,0,0:0:0:0:
115,226,5272,5,8,0:0:0:0:
72,110,5474,1,0,0:0:0:0:
36,270,5677,1,8,0:0:0:0:
44,178,5880,1,0,0:0:0:0:
193,100,6083,5,8,0:0:0:0:
165,200,6285,1,0,0:0:0:0:
243,85,6488,1,2,0:0:0:0:
243,85,6589,1,0,0:0:0:0:
302,143,6691,1,2,0:0:0:0:
307,149,6792,1,0,0:0:0:0:
370,212,6893,5,8,0:0:0:0:
399,97,7096,1,0,0:0:0:0:
459,174,7299,1,8,0:0:0:0:
347,100,7501,1,0,0:0:0:0:
383,240,7704,5,8,0:0:0:0:
421,116,7907,1,0,0:0:0:0:
293,243,8110,1,2,0:0:0:0:
293,243,8211,1,0,0:0:0:0:
229,179,8312,1,2,0:0:0:0:
229,179,8414,1,0,0:0:0:0:
165,115,8515,5,8,0:0:0:0:
136,235,8718,1,0,0:0:0:0:
109,148,8920,1,8,0:0:0:0:
201,249,9123,1,0,0:0:0:0:
165,150,9326,5,8,0:0:0:0:
229,215,9529,1,0,0:0:0:0:
305,151,9731,1,2,0:0:0:0:
305,151,9833,1,0,0:0:0:0:
305,240,9934,1,2,0:0:0:0:
305,240,10035,1,0,0:0:0:0:
305,330,10137,5,4,0:2:0:0:
198,230,10339,1,0,0:0:0:0:
116,320,10542,1,4,0:2:0:0:
116,320,10643,1,0,0:0:0:0:
116,229,10745,1,0,0:0:0:0:
116,229,10846,1,0,0:0:0:0:
116,139,10947,5,2,0:0:0:0:
296,139,11150,1,0,0:0:0:0:
296,139,11251,1,0,0:0:0:0:
303,198,11353,1,0,0:0:0:0:
303,198,11454,1,0,0:0:0:0:
326,253,11556,1,0,0:0:0:0:
326,253,11657,1,0,0:0:0:0:
375,286,11758,5,2,0:0:0:0:
315,298,11860,1,0,0:0:0:0:
254,287,11961,1,2,0:2:0:0:
205,253,12062,1,0,0:0:0:0:
177,199,12164,5,2,0:0:0:0:
103,293,12366,1,2,0:0:0:0:
131,110,12569,5,8,0:0:0:0:
61,228,12772,1,8,0:0:0:0:
61,228,12873,1,8,0:0:0:0:
39,129,13076,1,8,0:0:0:0:
39,129,13177,1,8,0:0:0:0:
39,129,13279,1,8,0:0:0:0:
90,98,13380,5,0,0:0:0:0:
149,90,13481,1,0,0:0:0:0:
204,114,13583,1,2,0:2:0:0:
230,167,13684,1,0,0:0:0:0:
241,225,13785,5,8,0:0:0:0:
267,279,13887,1,0,0:0:0:0:
321,304,13988,1,2,0:2:0:0:
380,300,14089,1,0,0:0:0:0:
422,257,14191,5,8,0:0:0:0:
395,243,14292,1,0,0:0:0:0:
377,218,14393,1,2,0:0:0:0:
374,187,14495,1,0,0:0:0:0:
387,160,14596,5,8,0:0:0:0:
400,133,14697,1,0,0:0:0:0:
399,102,14799,1,2,0:0:0:0:
385,75,14900,1,0,0:0:0:0:
357,62,15001,5,8,0:0:0:0:
335,118,15103,1,0,0:0:0:0:
297,164,15204,1,2,0:2:0:0:
238,180,15306,1,0,0:0:0:0:
180,163,15407,5,8,0:0:0:0:
205,45,15610,1,2,0:0:0:0:
68,156,15812,5,8,0:0:0:0:
88,263,16015,1,8,0:0:0:0:
88,263,16116,1,8,0:0:0:0:
108,152,16319,5,8,0:0:0:0:
108,152,16420,1,8,0:0:0:0:
108,152,16522,1,8,0:0:0:0:
126,186,16623,5,2,0:0:0:0:
208,288,16826,1,4,0:3:0:0:
187,126,17029,1,2,0:0:0:0:
166,234,17231,1,4,0:3:0:0:
242,94,17434,5,8,0:0:0:0:
242,94,17535,1,8,0:0:0:0:
324,196,17738,1,2,0:0:0:0:
324,196,17839,5,0,0:0:0:0:
346,252,17941,1,0,0:0:0:0:
398,279,18042,1,0,0:0:0:0:
457,287,18143,1,0,0:0:0:0:
512,265,18245,5,8,0:0:0:0:
454,200,18391,1,0,0:0:0:0:
398,279,18537,1,8,0:0:0:0:
340,207,18684,1,8,0:3:0:0:
340,207,18757,1,8,0:3:0:0:
340,207,18830,1,8,0:3:0:0:
340,304,18976,1,0,0:0:0:0:
271,239,19123,1,8,0:0:0:0:
227,276,19269,1,0,0:0:0:0:
245,196,19415,5,8,0:0:0:0:
162,246,19562,1,4,0:3:0:0:
162,246,19635,1,4,0:3:0:0:
162,246,19708,1,4,0:3:0:0:
196,161,19854,1,0,0:0:0:0:
238,244,20001,1,8,0:0:0:0:
252,157,20147,1,0,0:0:0:0:
158,146,20293,1,8,0:0:0:0:
251,98,20440,1,0,0:0:0:0:
186,170,20586,5,8,0:0:0:0:
140,105,20732,1,0,0:0:0:0:
129,203,20879,1,8,0:0:0:0:
193,124,21025,1,8,0:3:0:0:
193,124,21098,1,8,0:3:0:0:
193,124,21171,1,8,0:3:0:0:
78,134,21318,1,0,0:0:0:0:
153,205,21464,1,8,0:0:0:0:
126,158,21610,1,0,0:0:0:0:
124,250,21757,5,8,0:0:0:0:
187,190,21903,1,0,0:0:0:0:
230,254,22049,1,8,0:0:0:0:
277,158,22196,1,0,0:0:0:0:
277,158,22342,1,8,0:0:0:0:
347,170,22488,1,4,0:3:0:0:
353,199,22562,1,4,0:3:0:0:
359,228,22635,1,4,0:3:0:0:
357,257,22708,1,4,0:3:0:0:
346,285,22781,1,4,0:3:0:0:
330,310,22854,1,4,0:3:0:0:
307,329,22927,5,2,0:1:0:0:
237,229,23074,1,0,0:0:0:0:
194,304,23220,1,0,0:0:0:0:
182,218,23366,1,0,0:0:0:0:
125,284,23513,5,0,0:0:0:0:
96,186,23659,1,2,0:0:0:0:
182,218,23805,1,0,0:0:0:0:
96,223,23952,1,0,0:0:0:0:
134,147,24098,5,10,0:0:0:0:
127,245,24244,1,0,0:0:0:0:
90,146,24391,1,0,0:0:0:0:
209,174,24537,1,0,0:0:0:0:
112,206,24684,5,0,0:0:0:0:
135,110,24830,1,2,0:0:0:0:
171,168,24976,1,0,0:0:0:0:
154,75,25123,1,0,0:0:0:0:
84,131,25269,5,10,0:0:0:0:
180,107,25415,1,0,0:0:0:0:
102,79,25562,1,0,0:0:0:0:
110,180,25708,1,0,0:0:0:0:
179,125,25854,5,0,0:0:0:0:
146,207,26001,1,2,0:0:0:0:
145,156,26147,1,0,0:0:0:0:
185,238,26293,1,0,0:0:0:0:
192,171,26440,5,10,0:0:0:0:
113,248,26586,2,0,L|100:332,1,60,0|4,0:0|0:3,0:0:0:0:
201,111,26879,6,0,L|188:195,1,60,2|0,0:0|0:0,0:0:0:0:
288,98,27171,1,0,0:0:0:0:
354,178,27318,1,0,0:0:0:0:
370,94,27464,1,0,0:0:0:0:
370,94,27537,1,0,0:0:0:0:
370,94,27610,5,0,0:0:0:0:
416,185,27757,1,0,0:0:0:0:
449,108,27904,1,4,0:3:0:0:
449,108,27977,1,4,0:3:0:0:
449,108,28050,1,4,0:3:0:0:
432,204,28196,5,0,0:0:0:0:
332,203,28342,1,0,0:0:0:0:
400,143,28489,1,2,0:2:0:0:
386,136,28563,1,2,0:2:0:0:
371,136,28636,1,2,0:2:0:0:
349,241,28781,5,0,0:0:0:0:
290,165,28927,1,0,0:0:0:0:
291,234,29074,1,4,0:3:0:0:
291,234,29148,1,4,0:3:0:0:
291,234,29221,1,4,0:3:0:0:
239,140,29366,5,0,0:0:0:0:
186,231,29512,1,0,0:0:0:0:
204,158,29659,1,2,0:2:0:0:
217,165,29732,1,2,0:2:0:0:
225,177,29805,1,2,0:2:0:0:
218,250,29952,5,0,0:0:0:0:
192,309,30098,1,0,0:0:0:0:
148,242,30244,1,4,0:3:0:0:
148,242,30318,1,4,0:3:0:0:
148,242,30391,1,4,0:3:0:0:
70,203,30537,5,0,0:0:0:0:
117,294,30683,1,0,0:0:0:0:
41,270,30829,1,2,0:2:0:0:
54,263,30903,1,2,0:2:0:0:
61,250,30976,1,2,0:2:0:0:
66,171,31123,5,0,0:0:0:0:
140,225,31269,1,0,0:0:0:0:
138,150,31415,1,4,0:3:0:0:
138,150,31489,1,4,0:3:0:0:
138,150,31562,1,4,0:3:0:0:
33,125,31708,5,0,0:0:0:0:
110,92,31854,1,0,0:0:0:0:
63,56,32000,1,2,0:2:0:0:
66,70,32074,1,2,0:2:0:0:
72,83,32147,1,2,0:2:0:0:
169,151,32294,5,0,0:0:0:0:
223,63,32440,1,0,0:0:0:0:
252,152,32586,1,4,0:3:0:0:
252,152,32660,1,4,0:3:0:0:
252,152,32733,1,4,0:3:0:0:
323,63,32879,5,0,0:0:0:0:
286,140,33025,1,0,0:0:0:0:
375,93,33171,1,2,0:2:0:0:
389,90,33245,1,2,0:2:0:0:
402,96,33318,1,2,0:2:0:0:
331,167,33464,5,0,0:0:0:0:
390,118,33610,1,0,0:0:0:0:
395,188,33757,1,4,0:3:0:0:
404,199,33830,1,4,0:3:0:0:
416,206,33903,1,4,0:3:0:0:
477,133,34049,5,0,0:0:0:0:
390,118,34195,1,0,0:0:0:0:
445,50,34341,1,2,0:2:0:0:
445,50,34415,1,2,0:2:0:0:
445,50,34488,1,2,0:2:0:0:
478,162,34635,5,0,0:0:0:0:
512,87,34781,1,0,0:0:0:0:
510,199,34927,1,4,0:3:0:0:
510,214,35001,1,4,0:3:0:0:
499,224,35074,1,4,0:3:0:0:
438,133,35220,5,0,0:0:0:0:
439,218,35366,1,0,0:0:0:0:
397,163,35512,1,2,0:2:0:0:
397,163,35586,1,2,0:2:0:0:
397,163,35659,1,2,0:2:0:0:
339,251,35805,5,4,0:2:0:0:
265,197,35952,1,0,0:0:0:0:
249,298,36097,1,4,0:2:0:0:
285,183,36244,1,0,0:0:0:0:
221,149,36390,5,4,0:2:0:0:
316,157,36536,1,0,0:0:0:0:
222,221,36684,1,4,0:2:0:0:
133,135,36830,1,0,0:0:0:0:
241,104,36976,5,0,0:0:0:0:
166,158,37122,1,0,0:0:0:0:
190,70,37268,1,2,0:2:0:0:
190,70,37342,1,2,0:2:0:0:
190,70,37415,1,2,0:2:0:0:
133,135,37561,5,0,0:0:0:0:
100,54,37707,1,0,0:0:0:0:
99,150,37853,1,4,0:3:0:0:
87,159,37927,1,4,0:3:0:0:
79,171,38000,1,4,0:3:0:0:
166,158,38147,5,0,0:0:0:0:
143,244,38293,1,0,0:0:0:0:
199,193,38439,1,2,0:2:0:0:
199,193,38513,1,2,0:2:0:0:
199,193,38586,1,2,0:2:0:0:
104,223,38732,5,0,0:0:0:0:
217,250,38878,1,0,0:0:0:0:
149,292,39024,1,4,0:3:0:0:
163,289,39098,1,4,0:3:0:0:
176,282,39171,1,4,0:3:0:0:
217,208,39318,5,0,0:0:0:0:
293,282,39464,1,0,0:0:0:0:
271,219,39610,1,2,0:2:0:0:
271,219,39684,1,2,0:2:0:0:
271,219,39757,1,2,0:2:0:0:
233,297,39903,5,0,0:0:0:0:
308,242,40049,1,0,0:0:0:0:
293,327,40195,1,4,0:3:0:0:
307,321,40269,1,4,0:3:0:0:
316,309,40342,1,4,0:3:0:0:
266,225,40488,5,0,0:0:0:0:
361,271,40635,1,0,0:0:0:0:
345,214,40780,1,2,0:2:0:0:
345,214,40854,1,2,0:2:0:0:
345,214,40927,1,2,0:2:0:0:
332,296,41073,5,0,0:0:0:0:
387,209,41220,1,0,0:0:0:0:
413,297,41365,1,4,0:3:0:0:
420,283,41439,1,4,0:3:0:0:
419,268,41512,1,4,0:3:0:0:
351,232,41659,5,0,0:0:0:0:
390,159,41805,1,0,0:0:0:0:
316,229,41951,1,2,0:2:0:0:
316,229,42025,1,2,0:2:0:0:
316,229,42098,1,2,0:2:0:0:
309,138,42244,5,0,0:0:0:0:
230,205,42390,1,0,0:0:0:0:
230,134,42536,1,4,0:3:0:0:
214,132,42610,1,4,0:3:0:0:
199,137,42684,1,4,0:3:0:0:
160,86,42830,5,0,0:0:0:0:
170,183,42976,1,0,0:0:0:0:
99,147,43122,1,2,0:2:0:0:
99,147,43196,1,2,0:2:0:0:
99,147,43269,1,2,0:2:0:0:
117,231,43415,5,0,0:0:0:0:
55,178,43562,1,0,0:0:0:0:
78,276,43707,1,4,0:3:0:0:
90,284,43781,1,4,0:3:0:0:
104,285,43854,1,4,0:3:0:0:
156,241,44001,5,8,0:0:0:0:
156,241,44147,1,0,0:0:0:0:
250,303,44293,1,2,0:0:0:0:
250,303,44440,1,2,0:0:0:0:
228,212,44586,5,8,0:0:0:0:
228,212,44732,1,0,0:0:0:0:
208,324,44879,1,2,0:0:0:0:
208,324,45025,1,2,0:0:0:0:
265,229,45171,5,8,0:0:0:0:
317,226,45318,1,0,0:0:0:0:
275,198,45464,1,0,0:0:0:0:
320,173,45610,1,4,0:2:0:0:
433,133,45903,6,0,L|415:188,5,30,2|0|2|0|2|0,0:0|0:0|0:0|0:0|0:0|0:0,0:0:0:0:
400,141,46342,6,2,L|385:101,1,30,2|2,0:2|0:2,0:2:0:0:
361,122,46488,2,2,L|326:91,1,30,2|2,0:2|0:2,0:2:0:0:
320,125,46634,2,2,L|273:117,1,30,2|2,0:2|0:2,0:2:0:0:
278,147,46781,2,2,L|229:165,1,30,2|2,0:2|0:2,0:2:0:0:
254,186,46927,2,2,L|213:224,1,30,2|2,0:2|0:2,0:2:0:0:
250,229,47073,2,2,L|247:274,1,30,2|2,0:2|0:2,0:2:0:0:
275,247,47220,5,6,0:1:0:0:
376,183,47512,1,6,0:1:0:0:
418,70,47805,1,6,0:1:0:0:
327,138,48098,5,2,0:2:0:0:
327,138,48171,1,2,0:2:0:0:
327,138,48244,1,2,0:2:0:0:
327,138,48317,1,2,0:2:0:0:
327,138,48390,6,2,L|334:108,3,30,2|2|2|2,0:2|0:2|0:2|0:2,0:2:0:0:
333,108,48683,5,2,0:2:0:0:
333,108,48756,1,2,0:2:0:0:
333,108,48829,1,2,0:2:0:0:
333,108,48902,1,2,0:2:0:0:
333,108,48976,6,2,L|365:80,3,30,2|2|2|2,0:2|0:2|0:2|0:2,0:2:0:0:
355,88,49268,5,2,0:2:0:0:
355,88,49342,1,2,0:2:0:0:
355,88,49415,1,2,0:2:0:0:
355,88,49488,1,2,0:2:0:0:
381,109,49561,6,2,L|430:103,3,30,2|2|2|2,0:2|0:2|0:2|0:2,0:2:0:0:
411,117,49854,6,0,P|298:153|188:113,1,240,6|0,0:0|0:0,0:0:0:0:
128,164,50732,5,8,0:0:0:0:
138,198,51024,1,8,0:0:0:0:
161,225,51317,1,8,0:0:0:0:
192,242,51610,5,4,0:2:0:0:
192,242,51756,1,4,0:2:0:0:
297,146,52049,1,4,0:2:0:0:
297,146,52195,1,4,0:2:0:0:
354,227,52488,5,4,0:2:0:0:
354,227,52634,1,4,0:2:0:0:
253,327,52927,1,4,0:2:0:0:
253,327,53073,1,4,0:2:0:0:
117,197,53366,5,2,0:2:0:0:
146,145,53512,1,0,0:0:0:0:
196,112,53658,1,2,0:0:0:0:
255,105,53805,1,0,0:0:0:0:
309,129,53951,5,2,0:2:0:0:
235,237,54244,1,2,0:0:0:0:
235,237,54390,1,2,0:0:0:0:
69,101,54683,5,0,0:0:0:0:
91,251,54975,1,0,0:0:0:0:
163,159,55268,1,0,0:0:0:0:
204,201,55414,1,0,0:0:0:0:
263,212,55561,1,0,0:0:0:0:
268,94,55707,5,0,0:0:0:0:
344,140,55853,1,0,0:0:0:0:
346,49,56000,1,0,0:0:0:0:
306,129,56146,1,0,0:0:0:0:
394,117,56292,1,0,0:0:0:0:
332,286,56585,1,0,0:0:0:0:
337,196,56731,1,0,0:0:0:0:
145,155,56878,5,0,0:0:0:0:
141,214,57024,1,0,0:0:0:0:
164,268,57170,1,0,0:0:0:0:
216,297,57317,1,0,0:0:0:0:
195,210,57463,5,0,0:0:0:0:
164,268,57609,1,0,0:0:0:0:
225,232,57756,5,0,0:0:0:0:
216,297,57902,1,0,0:0:0:0:
256,192,58048,12,0,60097,0:0:0:0:
17,204,60390,5,8,0:0:0:0:
68,173,60592,1,8,0:0:0:0:
127,166,60795,1,8,0:0:0:0:
184,184,60998,1,8,0:0:0:0:
216,234,61200,5,8,0:0:0:0:
319,295,61403,1,8,0:0:0:0:
435,265,61606,1,8,0:0:0:0:
482,155,61808,1,8,0:0:0:0:
442,40,62011,5,10,0:0:0:0:
414,156,62212,1,0,0:0:0:0:
329,70,62413,1,0,0:0:0:0:
332,99,62514,1,0,0:0:0:0:
336,128,62615,1,0,0:0:0:0:
276,119,62816,5,10,0:0:0:0:
271,230,63017,1,0,0:0:0:0:
256,203,63118,1,0,0:0:0:0:
251,173,63219,1,0,0:0:0:0:
257,143,63319,1,0,0:0:0:0:
276,119,63420,1,0,0:0:0:0:
187,54,63621,5,10,0:0:0:0:
197,164,63823,1,8,0:0:0:0:
102,118,64024,1,10,0:0:0:0:
109,147,64125,1,8,0:0:0:0:
111,176,64225,1,8,0:0:0:0:
106,205,64326,1,0,0:0:0:0:
88,229,64427,5,10,0:0:0:0:
167,127,64628,1,0,0:0:0:0:
192,234,64829,1,8,0:0:0:0:
211,211,64930,1,0,0:0:0:0:
235,193,65031,1,8,0:0:0:0:
264,186,65131,1,0,0:0:0:0:
292,195,65232,5,2,0:0:0:0:
408,169,65433,1,2,0:0:0:0:
351,275,65635,1,2,0:0:0:0:
365,293,65735,1,0,0:0:0:0:
387,302,65836,1,2,0:0:0:0:
461,205,66037,5,2,0:0:0:0:
445,96,66239,1,4,0:0:0:0:
415,102,66339,1,0,0:0:0:0:
385,108,66440,1,0,0:0:0:0:
437,217,66641,1,0,0:0:0:0:
385,108,66843,5,0,0:0:0:0:
256,192,67044,1,0,0:0:0:0:
385,108,67245,1,0,0:0:0:0:
224,176,67447,1,0,0:0:0:0:
385,108,67648,5,0,0:0:0:0:
192,160,67849,1,0,0:0:0:0:
385,108,68050,1,0,0:0:0:0:
160,144,68252,1,0,0:0:0:0:
385,108,68453,5,0,0:0:0:0:
379,155,68554,1,0,0:0:0:0:
353,195,68655,1,0,0:0:0:0:
309,214,68755,1,0,0:0:0:0:
260,211,68856,1,0,0:0:0:0:
217,189,68957,1,0,0:0:0:0:
194,147,69057,1,0,0:0:0:0:
200,99,69158,1,0,0:0:0:0:
232,63,69259,5,0,0:0:0:0:
217,189,69460,1,0,0:0:0:0:
340,196,69662,1,0,0:0:0:0:
374,163,69762,1,0,0:0:0:0:
386,116,69863,1,0,0:0:0:0:
378,68,69964,1,0,0:0:0:0:
418,93,70064,5,0,0:0:0:0:
435,258,70266,1,0,0:0:0:0:
498,175,70467,1,0,0:0:0:0:
471,41,70668,1,0,0:0:0:0:
441,79,70769,1,0,0:0:0:0:
402,107,70870,5,0,0:0:0:0:
330,12,71071,1,0,0:0:0:0:
316,131,71272,5,0,0:0:0:0:
330,12,71474,1,0,0:0:0:0:
268,114,71675,5,0,0:0:0:0:
223,132,71776,1,0,0:0:0:0:
200,173,71876,1,0,0:0:0:0:
197,221,71977,1,0,0:0:0:0:
218,264,72078,1,0,0:0:0:0:
263,278,72178,1,0,0:0:0:0:
308,262,72279,1,0,0:0:0:0:
330,219,72380,1,0,0:0:0:0:
321,172,72480,5,0,0:0:0:0:
272,168,72581,1,0,0:0:0:0:
227,187,72682,1,0,0:0:0:0:
200,226,72782,1,0,0:0:0:0:
198,274,72883,1,0,0:0:0:0:
160,244,72984,1,0,0:0:0:0:
113,234,73084,1,0,0:0:0:0:
64,233,73185,1,0,0:0:0:0:
19,251,73286,5,0,0:0:0:0:
167,155,73688,1,0,0:0:0:0:
304,220,74091,5,0,0:0:0:0:
345,107,74494,1,0,0:0:0:0:
359,133,74594,1,0,0:0:0:0:
365,162,74695,1,0,0:0:0:0:
379,160,74745,1,0,0:0:0:0:
393,156,74796,1,0,0:0:0:0:
406,149,74846,1,0,0:0:0:0:
418,141,74896,5,0,0:0:0:0:
446,72,75098,1,0,0:0:0:0:
454,208,75299,1,0,0:0:0:0:
456,108,75500,1,0,0:0:0:0:
401,240,75702,5,0,0:0:0:0:
316,181,75903,1,0,0:0:0:0:
316,181,76004,1,0,0:0:0:0:
270,219,76104,1,0,0:0:0:0:
270,219,76205,1,0,0:0:0:0:
226,260,76306,5,0,0:0:0:0:
171,283,76406,1,0,0:0:0:0:
113,265,76507,5,0,0:0:0:0:
170,190,76708,1,0,0:0:0:0:
99,363,76910,1,0,0:0:0:0:
43,263,77111,1,0,0:0:0:0:
49,233,77212,1,0,0:0:0:0:
66,208,77313,5,0,0:0:0:0:
118,180,77413,1,0,0:0:0:0:
157,134,77514,1,0,0:0:0:0:
168,74,77615,1,0,0:0:0:0:
154,16,77715,5,0,0:0:0:0:
213,5,77816,1,0,0:0:0:0:
263,38,77917,1,0,0:0:0:0:
272,96,78017,1,0,0:0:0:0:
244,149,78118,5,0,0:0:0:0:
269,164,78219,1,0,0:0:0:0:
298,170,78319,1,0,0:0:0:0:
327,166,78420,1,0,0:0:0:0:
355,157,78521,5,0,0:0:0:0:
384,156,78621,1,0,0:0:0:0:
412,164,78722,1,0,0:0:0:0:
431,186,78823,1,0,0:0:0:0:
439,214,78923,5,0,0:0:0:0:
432,213,79024,1,0,0:0:0:0:
426,212,79125,1,0,0:0:0:0:
420,210,79225,1,0,0:0:0:0:
414,208,79326,5,0,0:0:0:0:
383,207,79427,1,0,0:0:0:0:
354,216,79527,1,0,0:0:0:0:
329,233,79628,1,0,0:0:0:0:
314,259,79729,5,0,0:0:0:0:
230,173,79930,1,0,0:0:0:0:
204,290,80131,5,0,0:0:0:0:
193,261,80232,1,0,0:0:0:0:
181,233,80333,1,0,0:0:0:0:
76,292,80534,5,0,0:0:0:0:
67,263,80635,1,0,0:0:0:0:
65,233,80735,1,0,0:0:0:0:
71,203,80836,1,0,0:0:0:0:
88,178,80937,5,0,0:0:0:0:
99,150,81037,1,0,0:0:0:0:
100,119,81138,1,0,0:0:0:0:
94,89,81239,1,0,0:0:0:0:
84,60,81339,5,0,0:0:0:0:
140,39,81440,1,0,0:0:0:0:
199,50,81541,1,0,0:0:0:0:
238,94,81641,1,0,0:0:0:0:
258,150,81742,5,0,0:0:0:0:
279,128,81843,1,0,0:0:0:0:
297,104,81943,1,0,0:0:0:0:
307,75,82044,1,0,0:0:0:0:
307,44,82145,5,0,0:0:0:0:
253,69,82245,1,0,0:0:0:0:
233,125,82346,1,0,0:0:0:0:
239,184,82447,1,0,0:0:0:0:
280,227,82547,5,0,0:0:0:0:
253,241,82648,1,0,0:0:0:0:
225,252,82749,1,0,0:0:0:0:
195,257,82849,1,0,0:0:0:0:
165,250,82950,5,0,0:0:0:0:
212,213,83051,1,0,0:0:0:0:
229,156,83151,1,0,0:0:0:0:
220,96,83252,1,0,0:0:0:0:
186,45,83353,5,0,0:0:0:0:
213,32,83453,1,0,0:0:0:0:
241,41,83554,1,0,0:0:0:0:
249,69,83655,1,0,0:0:0:0:
244,98,83755,5,0,0:0:0:0:
319,126,83957,1,0,0:0:0:0:
194,219,84158,1,0,0:0:0:0:
194,219,84359,1,0,0:0:0:0:
157,142,84561,5,0,0:0:0:0:
109,178,84662,1,0,0:0:0:0:
93,235,84762,1,0,0:0:0:0:
100,294,84863,1,0,0:0:0:0:
135,342,84964,5,0,0:0:0:0:
154,319,85064,1,0,0:0:0:0:
181,306,85165,1,0,0:0:0:0:
211,306,85266,1,0,0:0:0:0:
236,321,85366,5,0,0:0:0:0:
230,261,85467,1,0,0:0:0:0:
198,209,85568,1,0,0:0:0:0:
143,185,85668,1,0,0:0:0:0:
83,191,85769,5,0,0:0:0:0:
100,166,85870,1,0,0:0:0:0:
128,156,85970,1,0,0:0:0:0:
157,163,86071,1,0,0:0:0:0:
176,186,86172,5,0,0:0:0:0:
236,98,86373,1,0,0:0:0:0:
176,186,86574,1,0,0:0:0:0:
199,205,86675,1,0,0:0:0:0:
208,233,86776,1,0,0:0:0:0:
237,116,86977,5,0,0:0:0:0:
427,185,87782,5,0,0:0:0:0:
381,296,87984,1,0,0:0:0:0:
326,321,88084,1,0,0:0:0:0:
266,314,88185,1,0,0:0:0:0:
227,268,88286,1,0,0:0:0:0:
181,229,88386,1,0,0:0:0:0:
120,230,88487,1,0,0:0:0:0:
74,269,88588,5,0,0:0:0:0:
212,114,88990,6,0,P|206:162|159:259,1,120
276,154,89393,5,0,0:0:0:0:
334,139,89494,1,0,0:0:0:0:
393,144,89594,1,0,0:0:0:0:
444,175,89695,1,0,0:0:0:0:
470,229,89796,5,0,0:0:0:0:
499,112,89997,1,0,0:0:0:0:
398,261,90198,5,0,0:0:0:0:
340,155,90400,1,0,0:0:0:0:
340,155,90500,1,0,0:0:0:0:
280,259,90702,5,0,0:0:0:0:
280,259,90802,1,0,0:0:0:0:
280,259,90903,1,0,0:0:0:0:
223,278,91004,5,0,0:0:0:0:
163,272,91104,1,0,0:0:0:0:
117,232,91205,1,0,0:0:0:0:
110,172,91306,1,0,0:0:0:0:
145,124,91406,5,0,0:0:0:0:
178,148,91507,1,0,0:0:0:0:
217,161,91608,1,0,0:0:0:0:
258,159,91708,1,0,0:0:0:0:
295,139,91809,5,0,0:0:0:0:
295,139,91910,1,0,0:0:0:0:
349,164,92011,1,0,0:0:0:0:
349,164,92111,1,0,0:0:0:0:
409,162,92212,5,0,0:0:0:0:
409,162,92313,1,0,0:0:0:0:
458,129,92413,1,0,0:0:0:0:
458,129,92514,1,0,0:0:0:0:
478,185,92615,5,0,0:0:0:0:
454,239,92715,1,0,0:0:0:0:
400,266,92816,1,0,0:0:0:0:
339,270,92917,1,0,0:0:0:0:
283,247,93017,5,0,0:0:0:0:
283,247,93219,1,0,0:0:0:0:
207,154,93420,5,0,0:0:0:0:
149,258,93621,1,0,0:0:0:0:
149,258,93722,1,0,0:0:0:0:
92,152,93923,5,0,0:0:0:0:
92,152,94024,1,0,0:0:0:0:
92,152,94125,1,0,0:0:0:0:
115,117,94225,5,0,0:0:0:0:
149,92,94326,1,0,0:0:0:0:
189,80,94427,1,0,0:0:0:0:
230,83,94527,1,0,0:0:0:0:
214,121,94628,5,0,0:0:0:0:
219,162,94729,1,0,0:0:0:0:
246,193,94829,1,0,0:0:0:0:
287,202,94930,1,0,0:0:0:0:
290,160,95031,5,0,0:0:0:0:
319,130,95131,1,0,0:0:0:0:
366,199,95333,1,0,0:0:0:0:
345,235,95433,5,0,0:0:0:0:
345,235,95534,1,0,0:0:0:0:
348,277,95635,1,0,0:0:0:0:
348,277,95735,1,0,0:0:0:0:
363,301,95836,5,0,0:0:0:0:
438,250,95982,1,0,0:0:0:0:
432,310,96128,1,0,0:0:0:0:
413,224,96275,1,0,0:0:0:0:
477,266,96421,5,0,0:0:0:0:
395,271,96567,1,0,0:0:0:0:
427,221,96714,1,0,0:0:0:0:
403,300,96860,1,0,0:0:0:0:
314,98,97299,6,0,L|320:171,1,60
202,203,97738,2,0,L|215:275,1,60
107,157,98177,5,0,0:0:0:0:
194,93,98470,1,0,0:0:0:0:
164,208,98762,1,0,0:0:0:0:
129,108,99055,1,0,0:0:0:0:
201,203,99348,5,0,0:0:0:0:
168,130,99494,1,0,0:0:0:0:
186,247,99787,1,0,0:0:0:0:
236,156,100079,1,0,0:0:0:0:
226,239,100226,1,0,0:0:0:0:
319,138,100518,5,0,0:0:0:0:
383,193,100665,1,0,0:0:0:0:
374,131,100811,1,0,0:0:0:0:
293,190,100957,1,0,0:0:0:0:
324,101,101104,5,0,0:0:0:0:
383,46,101250,1,0,0:0:0:0:
389,92,101396,1,0,0:0:0:0:
367,15,101543,1,0,0:0:0:0:
363,126,101689,6,0,L|381:181,1,30
342,158,101836,2,0,L|337:202,1,30
309,181,101982,2,0,L|289:221,1,30
268,195,102128,2,0,L|243:231,1,30
278,232,102275,6,0,L|284:270,1,30
312,259,102421,2,0,L|332:296,1,30
350,268,102567,1,0,0:0:0:0:
379,261,102640,1,0,0:0:0:0:
405,246,102714,1,0,0:0:0:0:
428,227,102787,1,0,0:0:0:0:
441,200,102860,6,0,P|391:95|277:104,1,240
208,329,104031,5,0,0:0:0:0:
160,242,104177,1,0,0:0:0:0:
130,316,104470,1,0,0:0:0:0:
110,183,104762,1,0,0:0:0:0:
160,242,104909,1,0,0:0:0:0:
197,177,105055,5,0,0:0:0:0:
197,177,105128,1,0,0:0:0:0:
197,177,105201,1,0,0:0:0:0:
242,238,105348,1,0,0:0:0:0:
273,186,105494,1,0,0:0:0:0:
290,271,105640,1,0,0:0:0:0:
296,196,105787,5,0,0:0:0:0:
360,252,105933,1,0,0:0:0:0:
353,180,106079,1,0,0:0:0:0:
353,180,106153,1,0,0:0:0:0:
353,180,106226,1,0,0:0:0:0:
298,232,106372,5,0,0:0:0:0:
268,168,106518,1,0,0:0:0:0:
256,213,106665,1,0,0:0:0:0:
316,165,106811,1,0,0:0:0:0:
222,171,106957,5,0,0:0:0:0:
190,248,107104,1,0,0:0:0:0:
182,196,107250,1,0,0:0:0:0:
182,196,107323,1,0,0:0:0:0:
182,196,107396,1,0,0:0:0:0:
237,264,107543,5,0,0:0:0:0:
257,184,107689,1,0,0:0:0:0:
200,256,107836,1,0,0:0:0:0:
279,242,107982,1,0,0:0:0:0:
224,195,108128,5,0,0:0:0:0:
263,116,108275,1,0,0:0:0:0:
189,147,108421,1,0,0:0:0:0:
189,147,108494,1,0,0:0:0:0:
189,147,108567,1,0,0:0:0:0:
220,82,108714,5,0,0:0:0:0:
240,171,108860,1,0,0:0:0:0:
271,125,109007,1,0,0:0:0:0:
186,110,109153,1,0,0:0:0:0:
231,57,109299,5,0,0:0:0:0:
186,127,109446,1,0,0:0:0:0:
172,76,109592,1,0,0:0:0:0:
172,76,109665,1,0,0:0:0:0:
172,76,109738,1,0,0:0:0:0:
122,139,109884,5,0,0:0:0:0:
139,61,110030,1,0,0:0:0:0:
60,85,110177,1,0,0:0:0:0:
131,104,110323,1,0,0:0:0:0:
101,30,110469,5,0,0:0:0:0:
23,4,110616,1,0,0:0:0:0:
30,71,110762,1,0,0:0:0:0:
30,71,110835,1,0,0:0:0:0:
30,71,110908,1,0,0:0:0:0:
90,36,111055,5,0,0:0:0:0:
56,122,111201,1,0,0:0:0:0:
0,84,111348,1,0,0:0:0:0:
18,161,111494,1,0,0:0:0:0:
74,93,111640,5,0,0:0:0:0:
60,184,111787,1,0,0:0:0:0:
115,147,111933,1,0,0:0:0:0:
115,147,112006,1,0,0:0:0:0:
115,147,112079,1,0,0:0:0:0:
42,221,112226,5,0,0:0:0:0:
132,229,112372,1,0,0:0:0:0:
87,268,112519,1,0,0:0:0:0:
55,184,112665,1,0,0:0:0:0:
30,284,112811,5,0,0:0:0:0:
88,223,112958,1,0,0:0:0:0:
98,299,113104,1,0,0:0:0:0:
98,299,113177,1,0,0:0:0:0:
98,299,113250,1,0,0:0:0:0:
147,264,113396,5,0,0:0:0:0:
201,238,113543,1,0,0:0:0:0:
260,228,113689,1,0,0:0:0:0:
319,236,113835,1,0,0:0:0:0:
366,272,113982,6,0,L|356:307,3,30
397,323,114275,6,0,L|398:368,3,30
441,344,114567,5,0,0:0:0:0:
441,344,114640,1,0,0:0:0:0:
441,344,114713,1,0,0:0:0:0:
441,344,114786,1,0,0:0:0:0:
477,317,114859,6,0,L|476:287,3,30
435,266,115152,6,0,L|463:212,1,60
483,169,115445,5,0,0:0:0:0:
367,199,115737,1,0,0:0:0:0:
247,209,116030,1,0,0:0:0:0:
299,100,116323,5,0,0:0:0:0:
247,209,116615,1,0,0:0:0:0:
367,199,116908,1,0,0:0:0:0:
370,204,117201,5,0,0:0:0:0:
402,153,117493,1,0,0:0:0:0:
395,93,117786,1,0,0:0:0:0:
347,55,118079,6,0,P|325:124|283:156,1,120
248,68,118518,1,0,0:0:0:0:
226,177,118664,1,0,0:0:0:0:
200,121,118957,5,0,0:0:0:0:
229,225,119249,1,0,0:0:0:0:
189,144,119542,1,0,0:0:0:0:
297,160,119835,6,0,P|226:131|185:146,1,120
156,170,120274,1,0,0:0:0:0:
297,160,120420,2,0,L|313:97,1,60
321,185,120713,6,0,L|289:247,1,60
354,272,121006,2,0,L|296:300,1,60
329,362,121298,2,0,L|266:344,1,60
237,333,121591,5,0,0:0:0:0:
194,245,121737,1,0,0:0:0:0:
205,285,121883,1,0,0:0:0:0:
222,208,122030,1,0,0:0:0:0:
149,286,122176,1,0,0:0:0:0:
148,194,122469,5,0,0:0:0:0:
213,132,122615,2,0,L|219:72,1,60
269,182,122908,2,0,L|255:123,1,60
347,200,123200,2,0,L|303:154,1,60
422,187,123493,1,0,0:0:0:0:
411,245,123639,1,0,0:0:0:0:
471,141,123932,5,0,0:0:0:0:
392,186,124078,1,0,0:0:0:0:
420,95,124225,1,0,0:0:0:0:
433,200,124371,1,0,0:0:0:0:
365,130,124517,6,0,L|383:54,1,60
334,148,124810,1,0,0:0:0:0:
262,67,124956,6,0,L|243:157,1,60
189,134,125249,2,0,L|140:236,1,60
103,179,125542,2,0,L|19:223,1,60
19,155,125834,1,0,0:0:0:0:
50,103,125981,1,0,0:0:0:0:
105,80,126127,1,0,0:0:0:0:
164,83,126273,6,0,P|204:90|223:75,1,60
269,48,126566,1,0,0:0:0:0:
256,192,126712,12,0,128322,0:0:0:0:
326,77,128615,5,0,0:0:0:0:
371,37,128817,1,0,0:0:0:0:
430,32,129020,1,0,0:0:0:0:
477,68,129223,1,0,0:0:0:0:
491,126,129425,5,0,0:0:0:0:
373,98,129628,1,0,0:0:0:0:
254,120,129831,1,0,0:0:0:0:
155,187,130033,1,0,0:0:0:0:
116,301,130236,5,0,0:0:0:0:
159,259,130437,1,0,0:0:0:0:
147,332,130638,1,0,0:0:0:0:
147,332,130739,1,0,0:0:0:0:
147,332,130840,1,0,0:0:0:0:
138,241,131041,5,0,0:0:0:0:
197,283,131242,1,0,0:0:0:0:
197,283,131343,1,0,0:0:0:0:
197,283,131444,1,0,0:0:0:0:
180,183,131645,1,0,0:0:0:0:
110,243,131846,5,0,0:0:0:0:
146,169,132048,1,0,0:0:0:0:
105,211,132249,1,0,0:0:0:0:
107,180,132350,1,0,0:0:0:0:
118,152,132450,1,0,0:0:0:0:
137,129,132551,1,0,0:0:0:0:
162,113,132652,5,0,0:0:0:0:
206,152,132853,1,0,0:0:0:0:
226,130,132954,1,0,0:0:0:0:
253,119,133054,1,0,0:0:0:0:
283,119,133155,1,0,0:0:0:0:
306,137,133256,1,0,0:0:0:0:
288,226,133457,5,0,0:0:0:0:
378,246,133658,1,0,0:0:0:0:
378,246,133759,1,0,0:0:0:0:
378,246,133860,1,0,0:0:0:0:
332,192,134061,1,0,0:0:0:0:
345,273,134262,5,0,0:0:0:0:
369,185,134464,1,0,0:0:0:0:
369,185,134564,2,0,L|434:217,1,60
406,92,134866,1,0,0:0:0:0:
448,48,135068,5,0,0:0:0:0:
272,96,135269,1,0,0:0:0:0:
448,48,135470,1,0,0:0:0:0:
256,144,135672,1,0,0:0:0:0:
448,48,135873,5,0,0:0:0:0:
208,96,136074,1,0,0:0:0:0:
448,48,136276,1,0,0:0:0:0:
176,144,136477,1,0,0:0:0:0:
194,95,136678,5,0,0:0:0:0:
219,135,136779,1,0,0:0:0:0:
261,157,136880,1,0,0:0:0:0:
308,164,136980,1,0,0:0:0:0:
294,117,137081,1,0,0:0:0:0:
297,68,137182,1,0,0:0:0:0:
324,29,137282,1,0,0:0:0:0:
370,16,137383,1,0,0:0:0:0:
416,26,137484,5,0,0:0:0:0:
391,66,137584,1,0,0:0:0:0:
389,114,137685,1,0,0:0:0:0:
404,159,137786,1,0,0:0:0:0:
435,195,137887,5,0,0:0:0:0:
333,213,138088,1,0,0:0:0:0:
290,298,138289,5,0,0:0:0:0:
263,337,138390,1,0,0:0:0:0:
214,338,138491,1,0,0:0:0:0:
177,306,138591,1,0,0:0:0:0:
237,307,138692,1,0,0:0:0:0:
282,267,138793,1,0,0:0:0:0:
279,207,138893,1,0,0:0:0:0:
229,173,138994,1,0,0:0:0:0:
169,183,139095,5,0,0:0:0:0:
133,245,139195,1,0,0:0:0:0:
62,258,139296,1,0,0:0:0:0:
1,218,139397,1,0,0:0:0:0:
1,218,139497,5,0,0:0:0:0:
72,153,139699,1,0,0:0:0:0:
69,57,139900,5,0,0:0:0:0:
123,83,140001,1,0,0:0:0:0:
181,91,140101,1,0,0:0:0:0:
240,85,140202,1,0,0:0:0:0:
287,48,140303,5,0,0:0:0:0:
280,107,140403,1,0,0:0:0:0:
306,161,140504,1,0,0:0:0:0:
359,188,140605,1,0,0:0:0:0:
418,189,140705,5,0,0:0:0:0:
344,284,140907,1,0,0:0:0:0:
344,284,141007,1,0,0:0:0:0:
418,189,141209,1,0,0:0:0:0:
359,188,141309,1,0,0:0:0:0:
306,161,141410,1,0,0:0:0:0:
280,107,141511,5,0,0:0:0:0:
220,211,141913,1,0,0:0:0:0:
189,94,142316,1,0,0:0:0:0:
307,115,142719,1,0,0:0:0:0:
301,85,142819,1,0,0:0:0:0:
291,56,142920,1,0,0:0:0:0:
305,56,142970,1,0,0:0:0:0:
320,58,143021,1,0,0:0:0:0:
334,59,143071,1,0,0:0:0:0:
348,60,143121,5,0,0:0:0:0:
307,115,143323,1,0,0:0:0:0:
296,20,143524,1,0,0:0:0:0:
224,84,143725,1,0,0:0:0:0:
314,34,143927,1,0,0:0:0:0:
240,121,144128,5,0,0:0:0:0:
240,121,144229,1,0,0:0:0:0:
191,155,144329,1,0,0:0:0:0:
191,155,144430,1,0,0:0:0:0:
169,211,144531,1,0,0:0:0:0:
58,164,144732,5,0,0:0:0:0:
29,293,144933,1,0,0:0:0:0:
52,288,145034,1,0,0:0:0:0:
73,276,145135,1,0,0:0:0:0:
182,321,145336,1,0,0:0:0:0:
234,212,145538,5,0,0:0:0:0:
353,200,145739,1,0,0:0:0:0:
353,200,145840,1,0,0:0:0:0:
380,147,145940,1,0,0:0:0:0:
380,147,146041,1,0,0:0:0:0:
381,86,146142,1,0,0:0:0:0:
286,34,146343,5,0,0:0:0:0:
266,56,146444,1,0,0:0:0:0:
255,84,146544,1,0,0:0:0:0:
252,113,146645,1,0,0:0:0:0:
194,95,146746,5,0,0:0:0:0:
208,120,146846,1,0,0:0:0:0:
208,150,146947,1,0,0:0:0:0:
202,179,147048,1,0,0:0:0:0:
157,139,147148,5,0,0:0:0:0:
148,167,147249,1,0,0:0:0:0:
144,196,147350,1,0,0:0:0:0:
148,225,147450,1,0,0:0:0:0:
89,211,147551,5,0,0:0:0:0:
78,239,147652,1,0,0:0:0:0:
55,258,147752,1,0,0:0:0:0:
28,271,147853,1,0,0:0:0:0:
64,319,147954,5,0,0:0:0:0:
29,204,148155,1,0,0:0:0:0:
128,270,148356,1,0,0:0:0:0:
128,270,148457,1,0,0:0:0:0:
128,270,148558,1,0,0:0:0:0:
188,167,148759,1,0,0:0:0:0:
204,326,148960,5,0,0:0:0:0:
204,326,149061,1,0,0:0:0:0:
233,320,149162,1,0,0:0:0:0:
233,320,149262,1,0,0:0:0:0:
256,301,149363,1,0,0:0:0:0:
256,301,149464,1,0,0:0:0:0:
262,271,149564,5,0,0:0:0:0:
250,211,149665,1,0,0:0:0:0:
204,171,149766,1,0,0:0:0:0:
145,179,149866,1,0,0:0:0:0:
103,222,149967,5,0,0:0:0:0:
105,191,150068,1,0,0:0:0:0:
121,166,150168,1,0,0:0:0:0:
149,156,150269,1,0,0:0:0:0:
178,163,150370,5,0,0:0:0:0:
128,129,150470,1,0,0:0:0:0:
69,144,150571,1,0,0:0:0:0:
30,190,150672,1,0,0:0:0:0:
32,249,150772,5,0,0:0:0:0:
59,237,150873,1,0,0:0:0:0:
89,236,150974,1,0,0:0:0:0:
118,239,151074,1,0,0:0:0:0:
144,252,151175,5,0,0:0:0:0:
92,220,151276,1,0,0:0:0:0:
77,162,151376,1,0,0:0:0:0:
92,103,151477,1,0,0:0:0:0:
141,69,151578,5,0,0:0:0:0:
163,88,151678,1,0,0:0:0:0:
191,99,151779,1,0,0:0:0:0:
220,101,151880,1,0,0:0:0:0:
247,89,151980,5,0,0:0:0:0:
286,202,152182,1,0,0:0:0:0:
321,211,152383,5,0,0:0:0:0:
351,91,152584,1,0,0:0:0:0:
217,175,152786,5,0,0:0:0:0:
185,226,152887,1,0,0:0:0:0:
181,285,152987,1,0,0:0:0:0:
209,338,153088,1,0,0:0:0:0:
229,316,153189,5,0,0:0:0:0:
257,308,153289,1,0,0:0:0:0:
286,311,153390,1,0,0:0:0:0:
308,330,153491,1,0,0:0:0:0:
320,356,153591,5,0,0:0:0:0:
372,325,153692,1,0,0:0:0:0:
392,268,153793,1,0,0:0:0:0:
389,208,153893,1,0,0:0:0:0:
359,210,153994,5,0,0:0:0:0:
329,203,154095,1,0,0:0:0:0:
306,183,154195,1,0,0:0:0:0:
297,154,154296,1,0,0:0:0:0:
304,124,154397,5,0,0:0:0:0:
209,197,154598,1,0,0:0:0:0:
216,113,154799,1,0,0:0:0:0:
216,113,154900,1,0,0:0:0:0:
216,113,155001,1,0,0:0:0:0:
245,216,155202,5,0,0:0:0:0:
360,66,155605,6,0,P|328:201|197:189,1,240
244,219,156209,1,0,0:0:0:0:
360,66,156410,5,0,0:0:0:0:
349,185,156611,1,0,0:0:0:0:
420,309,156813,6,0,P|452:207|338:193,1,240
348,184,157618,5,0,0:0:0:0:
277,120,157819,1,0,0:0:0:0:
269,197,158020,1,0,0:0:0:0:
269,197,158121,1,0,0:0:0:0:
252,222,158222,1,0,0:0:0:0:
252,222,158322,1,0,0:0:0:0:
223,232,158423,5,0,0:0:0:0:
190,125,158624,1,0,0:0:0:0:
190,125,158725,1,0,0:0:0:0:
161,133,158826,1,0,0:0:0:0:
161,133,158926,1,0,0:0:0:0:
137,151,159027,1,0,0:0:0:0:
92,242,159228,5,0,0:0:0:0:
153,304,159430,1,0,0:0:0:0:
153,304,159530,1,0,0:0:0:0:
174,324,159631,1,0,0:0:0:0:
174,324,159732,1,0,0:0:0:0:
201,335,159832,1,0,0:0:0:0:
201,335,159933,1,0,0:0:0:0:
229,345,160034,5,0,0:0:0:0:
229,345,160134,1,0,0:0:0:0:
258,341,160235,1,0,0:0:0:0:
258,341,160336,1,0,0:0:0:0:
282,323,160436,1,0,0:0:0:0:
282,323,160537,1,0,0:0:0:0:
295,296,160638,1,0,0:0:0:0:
295,296,160738,1,0,0:0:0:0:
286,237,160839,5,0,0:0:0:0:
271,263,160940,1,0,0:0:0:0:
250,284,161040,1,0,0:0:0:0:
222,296,161141,1,0,0:0:0:0:
200,274,161242,1,0,0:0:0:0:
174,259,161342,1,0,0:0:0:0:
144,253,161443,1,0,0:0:0:0:
115,262,161544,1,0,0:0:0:0:
90,279,161644,5,0,0:0:0:0:
143,306,161745,1,0,0:0:0:0:
202,298,161846,1,0,0:0:0:0:
244,256,161946,1,0,0:0:0:0:
253,196,162047,1,0,0:0:0:0:
264,136,162148,1,0,0:0:0:0:
310,99,162248,1,0,0:0:0:0:
369,91,162349,1,0,0:0:0:0:
420,122,162450,5,0,0:0:0:0:
409,149,162550,1,0,0:0:0:0:
389,171,162651,1,0,0:0:0:0:
362,185,162752,1,0,0:0:0:0:
332,189,162852,1,0,0:0:0:0:
301,186,162953,1,0,0:0:0:0:
275,170,163054,1,0,0:0:0:0:
264,142,163154,1,0,0:0:0:0:
253,113,163255,6,0,P|224:249|308:301,1,240
359,198,164060,5,0,0:0:0:0:
286,102,164262,1,0,0:0:0:0:
286,102,164362,1,0,0:0:0:0:
240,62,164463,5,0,0:0:0:0:
234,182,164564,1,0,0:0:0:0:
234,182,164765,1,0,0:0:0:0:
137,106,164966,1,0,0:0:0:0:
142,183,165168,1,0,0:0:0:0:
107,101,165269,5,0,0:0:0:0:
81,252,165470,1,0,0:0:0:0:
66,181,165671,5,0,0:0:0:0:
211,208,165873,1,0,0:0:0:0:
211,208,166074,1,0,0:0:0:0:
236,105,166175,1,0,0:0:0:0:
236,105,166376,5,0,0:0:0:0:
279,205,166577,1,0,0:0:0:0:
164,143,166779,1,0,0:0:0:0:
160,237,166879,1,0,0:0:0:0:
155,109,167081,1,0,0:0:0:0:
160,237,167282,5,0,0:0:0:0:
78,137,167483,1,0,0:0:0:0:
50,247,167685,1,0,0:0:0:0:
22,142,167785,1,0,0:0:0:0:
22,142,167987,5,0,0:0:0:0:
132,228,168188,1,0,0:0:0:0:
138,137,168389,1,0,0:0:0:0:
132,228,168490,1,0,0:0:0:0:
182,85,168691,1,0,0:0:0:0:
225,219,168893,5,0,0:0:0:0:
267,120,169094,1,0,0:0:0:0:
267,120,169195,1,0,0:0:0:0:
267,120,169295,5,0,0:0:0:0:
307,200,169497,1,0,0:0:0:0:
307,200,169597,1,0,0:0:0:0:
307,200,169698,5,0,0:0:0:0:
348,134,169899,1,0,0:0:0:0:
316,251,170101,6,0,L|211:162,1,120
144,84,170503,5,0,0:0:0:0:
114,79,170604,1,0,0:0:0:0:
88,94,170705,1,0,0:0:0:0:
70,118,170805,1,0,0:0:0:0:
88,142,170906,5,0,0:0:0:0:
96,170,171007,1,0,0:0:0:0:
94,199,171107,1,0,0:0:0:0:
79,225,171208,1,0,0:0:0:0:
52,240,171309,5,0,0:0:0:0:
65,266,171409,1,0,0:0:0:0:
89,283,171510,1,0,0:0:0:0:
118,286,171611,1,0,0:0:0:0:
147,279,171711,5,0,0:0:0:0:
174,267,171812,1,0,0:0:0:0:
204,266,171913,1,0,0:0:0:0:
233,272,172013,1,0,0:0:0:0:
235,242,172114,5,0,0:0:0:0:
244,213,172215,1,0,0:0:0:0:
266,193,172315,1,0,0:0:0:0:
294,183,172416,1,0,0:0:0:0:
323,189,172517,5,0,0:0:0:0:
346,169,172618,1,0,0:0:0:0:
357,141,172718,1,0,0:0:0:0:
357,110,172819,1,0,0:0:0:0:
343,83,172920,5,0,0:0:0:0:
314,90,173020,1,0,0:0:0:0:
283,88,173121,1,0,0:0:0:0:
257,71,173222,1,0,0:0:0:0:
243,44,173322,5,0,0:0:0:0:
227,69,173423,1,0,0:0:0:0:
228,99,173524,1,0,0:0:0:0:
238,126,173624,1,0,0:0:0:0:
260,145,173725,5,0,0:0:0:0:
247,172,173826,1,0,0:0:0:0:
246,201,173926,1,0,0:0:0:0:
254,229,174027,1,0,0:0:0:0:
273,251,174128,5,0,0:0:0:0:
293,229,174228,1,0,0:0:0:0:
321,218,174329,1,0,0:0:0:0:
351,218,174430,1,0,0:0:0:0:
375,235,174530,5,0,0:0:0:0:
390,209,174631,1,0,0:0:0:0:
387,179,174732,1,0,0:0:0:0:
381,149,174832,1,0,0:0:0:0:
351,156,174933,5,0,0:0:0:0:
321,150,175034,1,0,0:0:0:0:
299,129,175134,1,0,0:0:0:0:
291,99,175235,1,0,0:0:0:0:
300,70,175336,5,0,0:0:0:0:
270,74,175436,1,0,0:0:0:0:
264,103,175537,1,0,0:0:0:0:
280,127,175638,1,0,0:0:0:0:
309,131,175738,5,0,0:0:0:0:
332,149,175839,1,0,0:0:0:0:
325,178,175940,1,0,0:0:0:0:
295,182,176040,1,0,0:0:0:0:
266,171,176141,5,0,0:0:0:0:
239,184,176242,1,0,0:0:0:0:
238,213,176342,1,0,0:0:0:0:
254,237,176443,1,0,0:0:0:0:
282,245,176544,5,0,0:0:0:0:
299,268,176644,1,0,0:0:0:0:
283,293,176745,1,0,0:0:0:0:
252,292,176846,1,0,0:0:0:0:
222,293,176946,5,0,0:0:0:0:
193,301,177047,1,0,0:0:0:0:
168,319,177148,1,0,0:0:0:0:
154,345,177248,1,0,0:0:0:0:
148,374,177349,5,0,0:0:0:0:
141,332,177450,1,0,0:0:0:0:
121,295,177550,1,0,0:0:0:0:
96,260,177651,1,0,0:0:0:0:
61,235,177752,5,0,0:0:0:0:
96,194,177852,1,0,0:0:0:0:
146,175,177953,1,0,0:0:0:0:
200,174,178054,1,0,0:0:0:0:
247,199,178154,5,0,0:0:0:0:
294,245,178255,1,0,0:0:0:0:
357,262,178356,1,0,0:0:0:0:
421,253,178456,1,0,0:0:0:0:
473,223,178557,5,0,0:0:0:0:
496,167,178658,1,0,0:0:0:0:
477,110,178758,1,0,0:0:0:0:
418,94,178859,1,0,0:0:0:0:
386,145,178960,5,0,0:0:0:0:
340,183,179060,1,0,0:0:0:0:
281,197,179161,1,0,0:0:0:0:
222,183,179262,1,0,0:0:0:0:
187,134,179362,5,0,0:0:0:0:
135,164,179463,1,0,0:0:0:0:
110,218,179564,1,0,0:0:0:0:
114,277,179664,1,0,0:0:0:0:
149,325,179765,5,0,0:0:0:0:
208,315,179866,1,0,0:0:0:0:
253,277,179966,1,0,0:0:0:0:
278,222,180067,1,0,0:0:0:0:
256,192,180168,12,0,185805,0:0:0:0:
256,56,186007,5,0,0:0:0:0:
256,128,186208,1,0,0:0:0:0:
256,200,186409,1,0,0:0:0:0:
256,56,186611,5,14,0:2:0:0:
256,56,187416,5,14,0:2:0:0:
256,56,188221,5,14,0:2:0:0:
256,56,189027,5,14,0:2:0:0:
256,56,189832,5,0,0:0:0:0:
151,164,190033,1,0,0:0:0:0:
164,51,190234,1,0,0:0:0:0:
187,152,190436,1,0,0:0:0:0:
256,56,190637,5,0,0:0:0:0:
173,266,190838,1,0,0:0:0:0:
149,162,190939,1,0,0:0:0:0:
283,271,191241,1,0,0:0:0:0:
149,162,191442,1,0,0:0:0:0:
256,56,191644,5,0,0:0:0:0:
192,208,191845,1,0,0:0:0:0:
256,56,192046,5,0,0:0:0:0:
208,224,192248,1,0,0:0:0:0:
256,56,192449,5,0,0:0:0:0:
224,240,192650,1,0,0:0:0:0:
400,176,192852,1,0,0:0:0:0:
313,180,193053,5,0,0:0:0:0:
281,206,193154,1,0,0:0:0:0:
268,248,193254,1,0,0:0:0:0:
269,293,193355,1,0,0:0:0:0:
288,333,193456,1,0,0:0:0:0:
323,305,193556,1,0,0:0:0:0:
366,292,193657,1,0,0:0:0:0:
410,295,193758,1,0,0:0:0:0:
371,272,193858,5,0,0:0:0:0:
363,227,193959,1,0,0:0:0:0:
374,183,194060,1,0,0:0:0:0:
406,152,194160,1,0,0:0:0:0:
396,196,194261,1,0,0:0:0:0:
363,227,194362,1,0,0:0:0:0:
318,230,194462,1,0,0:0:0:0:
210,128,194664,5,0,0:0:0:0:
210,128,194764,1,0,0:0:0:0:
210,128,194865,1,0,0:0:0:0:
203,199,194966,1,0,0:0:0:0:
236,262,195066,1,0,0:0:0:0:
236,262,195167,1,0,0:0:0:0:
163,264,195268,1,0,0:0:0:0:
102,226,195368,1,0,0:0:0:0:
93,160,195469,5,0,0:0:0:0:
93,160,195570,1,0,0:0:0:0:
70,198,195670,1,0,0:0:0:0:
70,198,195771,1,0,0:0:0:0:
62,242,195872,1,0,0:0:0:0:
62,242,195972,1,0,0:0:0:0:
73,285,196073,1,0,0:0:0:0:
73,285,196174,1,0,0:0:0:0:
99,321,196274,5,0,0:0:0:0:
152,311,196375,1,0,0:0:0:0:
190,273,196476,1,0,0:0:0:0:
201,220,196576,1,0,0:0:0:0:
225,268,196677,1,0,0:0:0:0:
278,278,196778,1,0,0:0:0:0:
331,272,196878,1,0,0:0:0:0:
372,237,196979,1,0,0:0:0:0:
402,171,197080,5,0,0:0:0:0:
369,246,197180,1,0,0:0:0:0:
306,296,197281,1,0,0:0:0:0:
227,312,197382,1,0,0:0:0:0:
149,289,197483,1,0,0:0:0:0:
91,232,197583,1,0,0:0:0:0:
66,155,197684,1,0,0:0:0:0:
80,77,197785,1,0,0:0:0:0:
137,22,197885,5,0,0:0:0:0:
243,113,198288,1,0,0:0:0:0:
272,61,198691,5,0,0:0:0:0:
243,113,198892,1,0,0:0:0:0:
272,61,199093,1,0,0:0:0:0:
272,121,199194,1,0,0:0:0:0:
272,181,199295,1,0,0:0:0:0:
272,240,199395,1,0,0:0:0:0:
272,300,199496,5,0,0:0:0:0:
323,209,199697,1,0,0:0:0:0:
350,280,199899,1,0,0:0:0:0:
272,240,200100,1,0,0:0:0:0:
373,211,200301,5,0,0:0:0:0:
313,270,200503,1,0,0:0:0:0:
327,177,200704,1,0,0:0:0:0:
355,258,200905,1,0,0:0:0:0:
355,258,201006,1,0,0:0:0:0:
355,258,201107,5,0,0:0:0:0:
400,244,201207,1,0,0:0:0:0:
428,205,201308,1,0,0:0:0:0:
306,207,201509,1,0,0:0:0:0:
398,185,201711,1,0,0:0:0:0:
322,146,201912,5,0,0:0:0:0:
295,131,202013,1,0,0:0:0:0:
265,126,202113,1,0,0:0:0:0:
235,129,202214,1,0,0:0:0:0:
208,142,202315,5,0,0:0:0:0:
177,178,202415,1,0,0:0:0:0:
138,206,202516,1,0,0:0:0:0:
91,217,202617,1,0,0:0:0:0:
43,210,202717,5,0,0:0:0:0:
76,259,202818,1,0,0:0:0:0:
133,276,202919,1,0,0:0:0:0:
192,276,203019,1,0,0:0:0:0:
165,222,203120,5,0,0:0:0:0:
173,162,203221,1,0,0:0:0:0:
218,123,203321,1,0,0:0:0:0:
278,125,203422,1,0,0:0:0:0:
229,160,203523,5,0,0:0:0:0:
196,209,203623,1,0,0:0:0:0:
206,268,203724,1,0,0:0:0:0:
257,298,203825,1,0,0:0:0:0:
314,283,203925,5,0,0:0:0:0:
278,235,204026,1,0,0:0:0:0:
276,175,204127,1,0,0:0:0:0:
301,119,204227,1,0,0:0:0:0:
357,92,204328,5,0,0:0:0:0:
349,199,204529,1,0,0:0:0:0:
328,83,204731,1,0,0:0:0:0:
286,87,204832,1,0,0:0:0:0:
244,92,204932,1,0,0:0:0:0:
196,181,205134,5,0,0:0:0:0:
207,227,205268,1,0,0:0:0:0:
241,260,205402,1,0,0:0:0:0:
275,226,205536,5,0,0:0:0:0:
315,200,205670,1,0,0:0:0:0:
362,191,205805,1,0,0:0:0:0:
370,270,205939,5,0,0:0:0:0:
317,300,206040,1,0,0:0:0:0:
258,312,206140,1,0,0:0:0:0:
199,298,206241,1,0,0:0:0:0:
154,257,206342,5,0,0:0:0:0:
182,249,206442,1,0,0:0:0:0:
208,234,206543,1,0,0:0:0:0:
225,209,206644,1,0,0:0:0:0:
227,179,206744,5,0,0:0:0:0:
286,184,206845,1,0,0:0:0:0:
320,233,206946,1,0,0:0:0:0:
315,292,207046,1,0,0:0:0:0:
275,337,207147,5,0,0:0:0:0:
305,337,207248,1,0,0:0:0:0:
334,330,207348,1,0,0:0:0:0:
359,314,207449,1,0,0:0:0:0:
377,290,207550,5,0,0:0:0:0:
337,245,207650,1,0,0:0:0:0:
278,232,207751,1,0,0:0:0:0:
219,246,207852,1,0,0:0:0:0:
194,300,207952,5,0,0:0:0:0:
223,307,208053,1,0,0:0:0:0:
252,302,208154,1,0,0:0:0:0:
278,288,208254,1,0,0:0:0:0:
297,265,208355,5,0,0:0:0:0:
297,265,208556,1,0,0:0:0:0:
341,123,208758,5,0,0:0:0:0:
341,123,208959,1,0,0:0:0:0:
274,192,209160,5,0,0:0:0:0:
228,230,209261,1,0,0:0:0:0:
170,247,209362,1,0,0:0:0:0:
110,241,209462,1,0,0:0:0:0:
64,201,209563,5,0,0:0:0:0:
92,191,209664,1,0,0:0:0:0:
112,169,209764,1,0,0:0:0:0:
118,139,209865,1,0,0:0:0:0:
109,110,209966,5,0,0:0:0:0:
166,94,210066,1,0,0:0:0:0:
223,112,210167,1,0,0:0:0:0:
251,164,210268,1,0,0:0:0:0:
243,223,210368,5,0,0:0:0:0:
243,223,210469,1,0,0:0:0:0:
300,205,210570,1,0,0:0:0:0:
300,205,210670,1,0,0:0:0:0:
359,213,210771,5,0,0:0:0:0:
307,244,210872,1,0,0:0:0:0:
250,225,210972,1,0,0:0:0:0:
246,164,211073,1,0,0:0:0:0:
293,127,211174,5,0,0:0:0:0:
352,167,211274,1,0,0:0:0:0:
421,146,211375,1,0,0:0:0:0:
449,79,211476,1,0,0:0:0:0:
441,12,211576,5,0,0:0:0:0:
441,12,211677,1,0,0:0:0:0:
458,36,211778,1,0,0:0:0:0:
458,36,211878,1,0,0:0:0:0:
465,65,211979,1,0,0:0:0:0:
465,65,212080,1,0,0:0:0:0:
462,94,212180,1,0,0:0:0:0:
462,94,212281,1,0,0:0:0:0:
450,121,212382,5,0,0:0:0:0:
390,113,212483,1,0,0:0:0:0:
332,128,212583,1,0,0:0:0:0:
297,177,212684,1,0,0:0:0:0:
299,116,212785,5,0,0:0:0:0:
268,64,212885,1,0,0:0:0:0:
208,53,212986,1,0,0:0:0:0:
151,73,213087,1,0,0:0:0:0:
122,125,213187,6,0,P|239:164|222:268,1,240
390,83,213993,5,0,0:0:0:0:
369,138,214093,1,0,0:0:0:0:
401,87,214194,1,0,0:0:0:0:
461,82,214295,1,0,0:0:0:0:
505,121,214395,5,0,0:0:0:0:
446,106,214496,1,0,0:0:0:0:
465,162,214597,1,0,0:0:0:0:
442,217,214697,1,0,0:0:0:0:
392,251,214798,5,0,0:0:0:0:
178,141,215201,5,0,0:0:0:0:
