osu file format v14

[General]
AudioFilename: audio.mp3
AudioLeadIn: 0
PreviewTime: 14918
Countdown: 1
SampleSet: None
StackLeniency: 0.7
Mode: 0
LetterboxInBreaks: 0
WidescreenStoryboard: 0

[Editor]
DistanceSpacing: 0.6
BeatDivisor: 4
GridSize: 4
TimelineZoom: 1

[Metadata]
Title:Vremya priklyucheniy
TitleUnicode:Время Приключений
Artist:Geese Song
ArtistUnicode:Geese Song
Creator:tilk1233
Version:Goose
Source:Empire of Geese
Tags:Выпуск к Дню Рождения проекта Гусей Blue (Da Ba Dee)
BeatmapID:1932037
BeatmapSetID:924905

[Difficulty]
HPDrainRate:6
CircleSize:4
OverallDifficulty:7
ApproachRate:9
SliderMultiplier:1.4
SliderTickRate:1

[Events]
//Background and Video events
0,0,"427409.png",0,0
//Break Periods
2,28477,29318
2,43477,44318
//Storyboard Layer 0 (Background)
//Storyboard Layer 1 (Fail)
//Storyboard Layer 2 (Pass)
//Storyboard Layer 3 (Foreground)
//Storyboard Sound Samples

[TimingPoints]
121,468.75,4,2,0,40,1,0
1761,-125,4,2,0,40,0,0
2230,-100,4,2,0,40,0,0
5511,-125,4,2,0,40,0,0
5980,-100,4,2,0,40,0,0
6683,-100,4,1,0,50,0,0
9261,-125,4,1,0,55,0,0
9730,-100,4,1,0,55,0,0
13246,-166.666666666667,4,1,0,55,0,0
14183,-166.666666666667,4,1,0,5,0,0
14918,468.75,4,1,0,75,1,0
14918,-83.3333333333333,4,1,0,75,0,1
28511,-83.3333333333333,4,1,0,75,0,0
29918,-83.3333333333333,4,1,0,75,0,1
43277,-83.3333333333333,4,1,0,75,0,0
44918,-83.3333333333333,4,1,0,75,0,0
52418,-90.9090909090909,4,1,0,50,0,0
58277,-100,4,1,0,40,0,0
59214,-100,4,3,0,30,0,0

[Colours]
Combo1 : 48,155,207
Combo2 : 191,64,64
Combo3 : 128,64,191
Combo4 : 162,162,223

[HitObjects]
140,281,121,6,0,L|162:190,1,70,4|0,0:0|0:0,0:0:0:0:
183,126,589,1,0,0:0:0:0:
183,126,824,1,0,0:0:0:0:
262,170,1058,6,0,P|303:177|346:164,1,70,2|0,0:0|0:0,0:0:0:0:
413,133,1527,1,0,0:0:0:0:
464,207,1761,6,0,L|445:324,1,112,2|0,0:0|0:0,0:0:0:0:
363,355,2464,5,0,0:0:0:0:
299,291,2699,1,0,0:0:0:0:
299,291,2933,2,0,P|258:283|219:290,1,70,2|0,0:0|0:0,0:0:0:0:
189,368,3402,2,0,P|223:376|258:373,1,70,2|0,0:0|0:0,0:0:0:0:
137,230,3871,6,0,L|130:299,1,70,4|0,0:0|0:0,0:0:0:0:
72,370,4339,1,0,0:0:0:0:
16,299,4574,1,0,0:0:0:0:
26,208,4808,2,0,L|33:139,1,70,2|0,0:0|0:0,0:0:0:0:
96,73,5277,1,0,0:0:0:0:
160,138,5511,6,0,P|219:153|284:133,1,112,2|0,0:0|0:0,0:0:0:0:
342,89,6214,5,0,0:0:0:0:
414,145,6449,1,0,0:0:0:0:
378,9,6683,6,0,P|342:2|304:10,1,70,8|0,0:0|0:0,0:0:0:0:
171,42,7152,2,0,P|207:49|245:41,1,70,8|0,0:0|0:0,0:0:0:0:
72,8,7621,6,0,P|65:44|73:82,1,70,4|0,0:0|0:0,0:0:0:0:
126,165,8089,1,0,0:0:0:0:
126,165,8324,1,0,0:0:0:0:
207,99,8558,2,0,P|245:93|290:102,1,70,2|0,0:0|0:0,0:0:0:0:
355,165,9027,1,0,0:0:0:0:
243,199,9261,6,0,B|240:238|240:238|256:278|256:278|250:327,1,112,2|0,0:0|0:0,0:0:0:0:
169,372,9964,1,0,0:0:0:0:
252,307,10199,1,0,0:0:0:0:
334,372,10433,2,0,P|378:378|413:364,1,70,2|0,0:0|0:0,0:0:0:0:
431,269,10902,2,0,P|442:301|466:327,1,70,2|0,0:0|0:0,0:0:0:0:
508,196,11371,6,0,P|481:173|448:163,1,70,4|0,0:0|0:0,0:0:0:0:
345,144,11839,1,0,0:0:0:0:
356,248,12074,1,0,0:0:0:0:
246,180,12308,6,0,P|237:146|244:112,1,70,2|0,0:0|0:0,0:0:0:0:
289,16,12777,1,0,0:0:0:0:
289,16,13011,1,0,0:0:0:0:
345,144,13246,6,0,L|345:326,1,167.999994873047,4|0,0:0|0:0,0:0:0:0:
67,312,14918,6,0,L|67:221,1,83.9999974365235,4|0,0:0|0:0,0:0:0:0:
67,85,15386,1,8,0:0:0:0:
185,166,15621,1,0,0:0:0:0:
96,55,15855,1,0,0:0:0:0:
156,196,16090,1,0,0:0:0:0:
222,46,16324,1,8,0:0:0:0:
222,46,16558,2,0,P|270:38|326:47,1,83.9999974365235
458,207,17027,5,0,0:0:0:0:
267,159,17261,1,8,0:0:0:0:
316,283,17496,1,0,0:0:0:0:
349,123,17730,5,0,0:0:0:0:
194,264,17964,1,0,0:0:0:0:
191,61,18199,1,8,0:0:0:0:
36,202,18433,1,0,0:0:0:0:
152,362,18668,2,0,P|198:371|242:358,1,83.9999974365235
359,207,19136,5,8,0:0:0:0:
233,362,19371,1,0,0:0:0:0:
186,196,19605,2,0,P|229:177|283:177,1,83.9999974365235
131,310,20074,1,8,0:0:0:0:
131,310,20308,2,0,P|92:282|69:233,1,83.9999974365235
179,23,20777,5,0,0:0:0:0:
53,174,21011,1,8,0:0:0:0:
15,2,21246,1,0,0:0:0:0:
142,143,21480,2,0,P|193:150|243:131,1,83.9999974365235
368,13,21949,5,8,0:0:0:0:
307,196,22183,1,0,0:0:0:0:
183,43,22418,2,0,P|132:36|82:55,1,83.9999974365235
157,239,22886,5,8,0:0:0:0:
266,94,23121,1,0,0:0:0:0:
334,267,23355,2,0,L|334:356,1,83.9999974365235
403,94,23824,1,8,0:0:0:0:
512,239,24059,1,0,0:0:0:0:
498,44,24293,2,0,P|476:15|431:-10,1,83.9999974365235
334,171,24761,5,8,0:0:0:0:
512,133,24996,1,0,0:0:0:0:
308,66,25230,2,0,P|271:83|244:115,1,83.9999974365235
361,277,25699,5,8,0:0:0:0:
409,85,25933,1,0,0:0:0:0:
230,204,26168,2,0,P|186:181|165:154,1,83.9999974365235
134,290,26636,5,8,0:0:0:0:
134,290,26871,1,0,0:0:0:0:
244,350,27105,1,0,0:0:0:0:
354,290,27339,2,0,P|401:283|442:291,1,83.9999974365235,0|8,0:0|0:0,0:0:0:0:
354,384,27808,1,0,0:0:0:0:
274,268,28043,2,0,P|267:221|275:180,1,83.9999974365235
39,81,29918,6,0,P|32:128|40:169,1,83.9999974365235,4|0,0:0|0:0,0:0:0:0:
115,328,30386,1,8,0:0:0:0:
195,163,30621,1,0,0:0:0:0:
275,328,30855,2,0,P|321:334|362:327,1,83.9999974365235
474,166,31324,1,8,0:0:0:0:
474,355,31558,1,0,0:0:0:0:
320,208,31793,2,0,P|313:161|321:120,1,83.9999974365235
160,243,32261,5,8,0:0:0:0:
49,78,32496,1,0,0:0:0:0:
48,257,32730,2,0,L|48:355,1,83.9999974365235
158,147,33199,5,8,0:0:0:0:
269,312,33434,1,0,0:0:0:0:
270,133,33668,2,0,L|270:35,1,83.9999974365235
396,238,34136,5,8,0:0:0:0:
396,238,34371,1,0,0:0:0:0:
485,112,34605,2,0,P|496:63|484:11,1,83.9999974365235
494,212,35074,5,8,0:0:0:0:
369,63,35308,1,0,0:0:0:0:
246,210,35543,2,0,P|196:221|145:209,1,83.9999974365235
307,346,36011,5,8,0:0:0:0:
375,166,36246,1,0,0:0:0:0:
307,346,36480,2,0,P|265:350|225:339,1,83.9999974365235
137,166,36949,5,8,0:0:0:0:
375,166,37183,1,0,0:0:0:0:
170,64,37418,2,0,P|128:59|88:70,1,83.9999974365235
375,166,37886,5,8,0:0:0:0:
137,166,38120,1,0,0:0:0:0:
342,64,38355,2,0,P|384:59|424:70,1,83.9999974365235
256,253,38824,1,8,0:0:0:0:
256,253,39058,1,0,0:0:0:0:
170,64,39293,2,0,P|128:59|88:70,1,83.9999974365235
70,322,39761,5,8,0:0:0:0:
137,166,39996,1,0,0:0:0:0:
224,355,40230,2,0,P|270:360|309:345,1,83.9999974365235
433,199,40699,5,8,0:0:0:0:
396,384,40933,1,0,0:0:0:0:
256,253,41168,2,0,L|240:146,1,83.9999974365235
226,32,41636,5,8,0:0:0:0:
119,100,41871,1,0,0:0:0:0:
138,224,42105,2,0,L|150:307,1,83.9999974365235
265,359,42574,1,8,0:0:0:0:
361,278,42808,1,0,0:0:0:0:
361,278,43043,2,0,L|341:187,1,83.9999974365235
150,104,44918,6,0,L|170:194,1,83.9999974365235,4|0,0:0|0:0,0:0:0:0:
200,324,45386,1,8,0:0:0:0:
297,218,45621,1,0,0:0:0:0:
394,324,45855,1,0,0:0:0:0:
491,218,46089,1,0,0:0:0:0:
394,112,46324,2,0,L|392:27,2,83.9999974365235,8|0|0,0:0|0:0|0:0,0:0:0:0:
394,324,47027,5,0,0:0:0:0:
283,127,47261,1,8,0:0:0:0:
266,277,47496,1,0,0:0:0:0:
377,80,47730,2,0,P|423:73|469:84,1,83.9999974365235
416,202,48199,5,8,0:0:0:0:
416,202,48433,1,0,0:0:0:0:
283,127,48668,2,0,P|282:75|294:41,1,83.9999974365235
138,158,49136,5,8,0:0:0:0:
258,249,49371,1,0,0:0:0:0:
189,64,49605,2,0,P|148:52|107:55,1,83.9999974365235
260,163,50074,1,8,0:0:0:0:
260,163,50308,1,0,0:0:0:0:
323,64,50543,2,0,P|363:52|404:55,1,83.9999974365235
349,258,51011,5,8,0:0:0:0:
189,64,51246,1,0,0:0:0:0:
163,258,51480,1,0,0:0:0:0:
323,64,51715,1,0,0:0:0:0:
96,150,51949,1,8,0:0:0:0:
416,150,52183,1,0,0:0:0:0:
256,267,52418,6,0,L|256:351,1,77.0000023498536,4|0,0:0|0:0,0:0:0:0:
260,177,52886,1,0,0:0:0:0:
260,177,53121,1,0,0:0:0:0:
169,89,53355,1,0,0:0:0:0:
191,237,53589,1,0,0:0:0:0:
258,78,53824,1,0,0:0:0:0:
126,163,54058,2,0,P|96:134|83:94,1,77.0000023498536
29,232,54527,5,0,0:0:0:0:
29,232,54761,1,0,0:0:0:0:
81,346,54996,1,0,0:0:0:0:
191,237,55230,2,0,P|230:227|273:232,1,77.0000023498536
375,306,55699,5,0,0:0:0:0:
237,354,55933,1,0,0:0:0:0:
375,306,56168,2,0,P|395:269|397:222,1,77.0000023498536
399,102,56636,5,0,0:0:0:0:
493,186,56871,1,0,0:0:0:0:
493,186,57105,1,0,0:0:0:0:
490,76,57339,1,0,0:0:0:0:
401,228,57574,1,0,0:0:0:0:
312,104,57808,2,0,P|268:96|234:102,1,77.0000023498536
269,203,58277,5,0,0:0:0:0:
199,275,58746,1,0,0:0:0:0:
129,347,59214,5,0,0:0:0:0:
59,275,59449,1,0,0:0:0:0:
59,275,59566,1,0,0:0:0:0:
129,203,59800,5,0,0:0:0:0:
129,203,59918,2,0,L|139:126,1,70,8|2,0:0|0:0,0:0:0:0:
151,51,60386,5,8,0:0:0:0:
