osu file format v14

[General]
AudioFilename: z6.mp3
AudioLeadIn: 0
PreviewTime: -1
Countdown: 0
SampleSet: None
StackLeniency: 0.7
Mode: 3
LetterboxInBreaks: 1
SpecialStyle: 0
WidescreenStoryboard: 0

[Editor]
DistanceSpacing: 0.8
BeatDivisor: 12
GridSize: 16
TimelineZoom: 1

[Metadata]
Title:Z6
TitleUnicode:Z6
Artist:Gear Project
ArtistUnicode:Gear Project
Creator:booty
Version:Challenge
Source:SM
Tags:
BeatmapID:1566276
BeatmapSetID:742590

[Difficulty]
HPDrainRate:7
CircleSize:4
OverallDifficulty:7
ApproachRate:5
SliderMultiplier:1.4
SliderTickRate:1

[Events]
//Background and Video events
0,0,"Z6-BG.jpg",0,0
//Break Periods
//Storyboard Layer 0 (Background)
//Storyboard Layer 1 (Fail)
//Storyboard Layer 2 (Pass)
//Storyboard Layer 3 (Foreground)
//Storyboard Sound Samples

[TimingPoints]
0,300,4,1,0,0,1,0

[HitObjects]
64,192,26,5,0,0:0:0:0:
448,192,26,1,0,0:0:0:0:
192,192,101,1,0,0:0:0:0:
320,192,176,1,0,0:0:0:0:
192,192,251,1,0,0:0:0:0:
448,192,326,1,0,0:0:0:0:
192,192,401,1,0,0:0:0:0:
320,192,476,1,0,0:0:0:0:
192,192,551,1,0,0:0:0:0:
64,192,626,1,0,0:0:0:0:
448,192,626,1,0,0:0:0:0:
192,192,701,1,0,0:0:0:0:
320,192,776,1,0,0:0:0:0:
192,192,851,1,0,0:0:0:0:
448,192,851,1,0,0:0:0:0:
320,192,926,1,0,0:0:0:0:
64,192,1001,1,0,0:0:0:0:
192,192,1076,1,0,0:0:0:0:
448,192,1076,1,0,0:0:0:0:
320,192,1151,1,0,0:0:0:0:
64,192,1226,1,0,0:0:0:0:
192,192,1226,1,0,0:0:0:0:
320,192,1301,1,0,0:0:0:0:
192,192,1376,1,0,0:0:0:0:
320,192,1451,1,0,0:0:0:0:
64,192,1526,1,0,0:0:0:0:
320,192,1601,1,0,0:0:0:0:
192,192,1676,1,0,0:0:0:0:
320,192,1751,1,0,0:0:0:0:
64,192,1826,1,0,0:0:0:0:
448,192,1826,1,0,0:0:0:0:
320,192,1901,1,0,0:0:0:0:
448,192,1976,1,0,0:0:0:0:
64,192,2051,1,0,0:0:0:0:
192,192,2051,1,0,0:0:0:0:
320,192,2126,1,0,0:0:0:0:
192,192,2201,1,0,0:0:0:0:
320,192,2276,1,0,0:0:0:0:
448,192,2276,1,0,0:0:0:0:
64,192,2351,1,0,0:0:0:0:
192,192,2351,1,0,0:0:0:0:
320,192,2426,1,0,0:0:0:0:
448,192,2426,1,0,0:0:0:0:
64,192,2501,1,0,0:0:0:0:
320,192,2576,1,0,0:0:0:0:
64,192,2651,1,0,0:0:0:0:
448,192,2726,1,0,0:0:0:0:
64,192,2801,1,0,0:0:0:0:
320,192,2876,1,0,0:0:0:0:
64,192,2951,1,0,0:0:0:0:
320,192,3026,1,0,0:0:0:0:
448,192,3026,1,0,0:0:0:0:
192,192,3101,1,0,0:0:0:0:
64,192,3176,1,0,0:0:0:0:
192,192,3251,1,0,0:0:0:0:
448,192,3251,1,0,0:0:0:0:
320,192,3326,1,0,0:0:0:0:
192,192,3401,1,0,0:0:0:0:
64,192,3476,1,0,0:0:0:0:
448,192,3476,1,0,0:0:0:0:
192,192,3551,1,0,0:0:0:0:
320,192,3626,1,0,0:0:0:0:
448,192,3626,1,0,0:0:0:0:
192,192,3701,1,0,0:0:0:0:
320,192,3776,1,0,0:0:0:0:
448,192,3776,1,0,0:0:0:0:
192,192,3851,1,0,0:0:0:0:
320,192,3926,1,0,0:0:0:0:
448,192,3926,1,0,0:0:0:0:
192,192,4001,1,0,0:0:0:0:
320,192,4076,1,0,0:0:0:0:
448,192,4076,1,0,0:0:0:0:
192,192,4151,1,0,0:0:0:0:
320,192,4226,1,0,0:0:0:0:
448,192,4226,1,0,0:0:0:0:
192,192,4301,1,0,0:0:0:0:
320,192,4376,1,0,0:0:0:0:
448,192,4376,1,0,0:0:0:0:
192,192,4451,1,0,0:0:0:0:
320,192,4526,1,0,0:0:0:0:
448,192,4526,1,0,0:0:0:0:
64,192,4601,1,0,0:0:0:0:
192,192,4601,1,0,0:0:0:0:
320,192,4676,1,0,0:0:0:0:
448,192,4676,1,0,0:0:0:0:
64,192,4751,1,0,0:0:0:0:
192,192,4751,1,0,0:0:0:0:
320,192,4826,1,0,0:0:0:0:
448,192,4826,1,0,0:0:0:0:
192,192,4901,1,0,0:0:0:0:
320,192,4976,1,0,0:0:0:0:
192,192,5051,1,0,0:0:0:0:
448,192,5126,1,0,0:0:0:0:
192,192,5201,1,0,0:0:0:0:
320,192,5276,1,0,0:0:0:0:
192,192,5351,1,0,0:0:0:0:
64,192,5426,1,0,0:0:0:0:
448,192,5426,1,0,0:0:0:0:
320,192,5501,1,0,0:0:0:0:
192,192,5576,1,0,0:0:0:0:
64,192,5651,1,0,0:0:0:0:
448,192,5651,1,0,0:0:0:0:
320,192,5726,1,0,0:0:0:0:
192,192,5801,1,0,0:0:0:0:
64,192,5876,1,0,0:0:0:0:
320,192,5876,1,0,0:0:0:0:
448,192,5951,1,0,0:0:0:0:
64,192,6026,1,0,0:0:0:0:
192,192,6026,1,0,0:0:0:0:
320,192,6101,1,0,0:0:0:0:
64,192,6176,1,0,0:0:0:0:
320,192,6251,1,0,0:0:0:0:
192,192,6326,1,0,0:0:0:0:
320,192,6401,1,0,0:0:0:0:
64,192,6476,1,0,0:0:0:0:
320,192,6551,1,0,0:0:0:0:
192,192,6626,1,0,0:0:0:0:
448,192,6626,1,0,0:0:0:0:
320,192,6701,1,0,0:0:0:0:
192,192,6776,1,0,0:0:0:0:
64,192,6851,1,0,0:0:0:0:
320,192,6851,1,0,0:0:0:0:
448,192,6926,1,0,0:0:0:0:
320,192,7001,1,0,0:0:0:0:
64,192,7076,1,0,0:0:0:0:
192,192,7076,1,0,0:0:0:0:
320,192,7151,1,0,0:0:0:0:
448,192,7151,1,0,0:0:0:0:
64,192,7226,1,0,0:0:0:0:
192,192,7226,1,0,0:0:0:0:
320,192,7301,1,0,0:0:0:0:
192,192,7376,1,0,0:0:0:0:
320,192,7451,1,0,0:0:0:0:
64,192,7526,1,0,0:0:0:0:
320,192,7601,1,0,0:0:0:0:
192,192,7676,1,0,0:0:0:0:
320,192,7751,1,0,0:0:0:0:
64,192,7826,1,0,0:0:0:0:
448,192,7826,1,0,0:0:0:0:
320,192,7901,1,0,0:0:0:0:
192,192,7976,1,0,0:0:0:0:
64,192,8051,1,0,0:0:0:0:
320,192,8051,1,0,0:0:0:0:
448,192,8126,1,0,0:0:0:0:
320,192,8201,1,0,0:0:0:0:
192,192,8276,1,0,0:0:0:0:
448,192,8276,1,0,0:0:0:0:
320,192,8351,1,0,0:0:0:0:
64,192,8426,1,0,0:0:0:0:
192,192,8426,1,0,0:0:0:0:
320,192,8501,1,0,0:0:0:0:
64,192,8576,1,0,0:0:0:0:
192,192,8576,1,0,0:0:0:0:
320,192,8651,1,0,0:0:0:0:
64,192,8726,1,0,0:0:0:0:
192,192,8726,1,0,0:0:0:0:
320,192,8801,1,0,0:0:0:0:
64,192,8876,1,0,0:0:0:0:
192,192,8876,1,0,0:0:0:0:
320,192,8951,1,0,0:0:0:0:
64,192,9026,1,0,0:0:0:0:
192,192,9026,1,0,0:0:0:0:
320,192,9101,1,0,0:0:0:0:
64,192,9176,1,0,0:0:0:0:
192,192,9176,1,0,0:0:0:0:
320,192,9251,1,0,0:0:0:0:
64,192,9326,1,0,0:0:0:0:
192,192,9326,1,0,0:0:0:0:
320,192,9401,1,0,0:0:0:0:
448,192,9401,1,0,0:0:0:0:
64,192,9476,1,0,0:0:0:0:
192,192,9476,1,0,0:0:0:0:
320,192,9551,1,0,0:0:0:0:
448,192,9551,1,0,0:0:0:0:
64,192,9626,1,0,0:0:0:0:
192,0,9626,128,0,10076:1:0:0:0:
64,192,10226,1,0,0:0:0:0:
320,192,10226,1,0,0:0:0:0:
192,192,10301,1,0,0:0:0:0:
448,192,10301,1,0,0:0:0:0:
64,192,10376,1,0,0:0:0:0:
320,192,10376,1,0,0:0:0:0:
192,192,10451,1,0,0:0:0:0:
448,192,10526,1,0,0:0:0:0:
320,192,10551,1,0,0:0:0:0:
192,192,10576,1,0,0:0:0:0:
64,192,10601,1,0,0:0:0:0:
448,192,10626,1,0,0:0:0:0:
320,192,10651,1,0,0:0:0:0:
192,192,10676,1,0,0:0:0:0:
64,192,10701,1,0,0:0:0:0:
448,192,10726,1,0,0:0:0:0:
320,192,10751,1,0,0:0:0:0:
192,192,10776,1,0,0:0:0:0:
64,192,10801,1,0,0:0:0:0:
320,192,10826,1,0,0:0:0:0:
448,192,10826,1,0,0:0:0:0:
192,192,10901,1,0,0:0:0:0:
64,192,10976,1,0,0:0:0:0:
320,192,10976,1,0,0:0:0:0:
192,192,11051,1,0,0:0:0:0:
64,192,11126,1,0,0:0:0:0:
448,192,11126,1,0,0:0:0:0:
320,192,11201,1,0,0:0:0:0:
64,192,11276,1,0,0:0:0:0:
192,192,11276,1,0,0:0:0:0:
320,192,11351,1,0,0:0:0:0:
192,192,11426,1,0,0:0:0:0:
448,192,11426,1,0,0:0:0:0:
64,192,11501,1,0,0:0:0:0:
320,192,11576,1,0,0:0:0:0:
448,192,11576,1,0,0:0:0:0:
64,192,11651,1,0,0:0:0:0:
192,192,11726,1,0,0:0:0:0:
320,192,11726,1,0,0:0:0:0:
448,192,11801,1,0,0:0:0:0:
64,192,11876,1,0,0:0:0:0:
320,192,11876,1,0,0:0:0:0:
192,192,11951,1,0,0:0:0:0:
320,192,12026,1,0,0:0:0:0:
448,192,12026,1,0,0:0:0:0:
64,192,12101,1,0,0:0:0:0:
192,192,12176,1,0,0:0:0:0:
320,192,12176,1,0,0:0:0:0:
448,192,12251,1,0,0:0:0:0:
64,192,12326,1,0,0:0:0:0:
320,192,12326,1,0,0:0:0:0:
192,192,12401,1,0,0:0:0:0:
320,192,12476,1,0,0:0:0:0:
448,192,12476,1,0,0:0:0:0:
64,192,12551,1,0,0:0:0:0:
192,192,12626,1,0,0:0:0:0:
320,192,12626,1,0,0:0:0:0:
448,192,12701,1,0,0:0:0:0:
64,192,12776,1,0,0:0:0:0:
320,192,12776,1,0,0:0:0:0:
192,192,12851,1,0,0:0:0:0:
320,192,12926,1,0,0:0:0:0:
448,192,12926,1,0,0:0:0:0:
64,192,13001,1,0,0:0:0:0:
192,192,13001,1,0,0:0:0:0:
320,192,13076,1,0,0:0:0:0:
448,192,13076,1,0,0:0:0:0:
64,192,13151,1,0,0:0:0:0:
192,192,13151,1,0,0:0:0:0:
320,192,13226,1,0,0:0:0:0:
448,192,13226,1,0,0:0:0:0:
64,192,13301,1,0,0:0:0:0:
192,192,13376,1,0,0:0:0:0:
320,192,13376,1,0,0:0:0:0:
448,192,13451,1,0,0:0:0:0:
64,192,13526,1,0,0:0:0:0:
192,192,13526,1,0,0:0:0:0:
320,192,13601,1,0,0:0:0:0:
192,192,13676,1,0,0:0:0:0:
448,192,13676,1,0,0:0:0:0:
64,192,13751,1,0,0:0:0:0:
320,192,13826,1,0,0:0:0:0:
448,192,13826,1,0,0:0:0:0:
192,192,13901,1,0,0:0:0:0:
64,192,13976,1,0,0:0:0:0:
448,192,13976,1,0,0:0:0:0:
320,192,14051,1,0,0:0:0:0:
64,192,14126,1,0,0:0:0:0:
192,192,14126,1,0,0:0:0:0:
448,192,14201,1,0,0:0:0:0:
192,192,14276,1,0,0:0:0:0:
320,192,14276,1,0,0:0:0:0:
64,192,14351,1,0,0:0:0:0:
320,192,14426,1,0,0:0:0:0:
448,192,14426,1,0,0:0:0:0:
192,192,14501,1,0,0:0:0:0:
64,192,14576,1,0,0:0:0:0:
448,192,14576,1,0,0:0:0:0:
320,192,14651,1,0,0:0:0:0:
64,192,14726,1,0,0:0:0:0:
192,192,14726,1,0,0:0:0:0:
448,192,14801,1,0,0:0:0:0:
192,192,14876,1,0,0:0:0:0:
320,192,14876,1,0,0:0:0:0:
64,192,14951,1,0,0:0:0:0:
320,192,15026,1,0,0:0:0:0:
448,192,15026,1,0,0:0:0:0:
64,192,15101,1,0,0:0:0:0:
192,192,15101,1,0,0:0:0:0:
320,192,15176,1,0,0:0:0:0:
448,192,15176,1,0,0:0:0:0:
192,192,15251,1,0,0:0:0:0:
64,192,15326,1,0,0:0:0:0:
448,192,15326,1,0,0:0:0:0:
192,192,15401,1,0,0:0:0:0:
320,192,15401,1,0,0:0:0:0:
64,192,15476,1,0,0:0:0:0:
448,192,15476,1,0,0:0:0:0:
192,192,15551,1,0,0:0:0:0:
320,192,15551,1,0,0:0:0:0:
64,192,15626,1,0,0:0:0:0:
448,192,15626,1,0,0:0:0:0:
320,192,15701,1,0,0:0:0:0:
64,192,15776,1,0,0:0:0:0:
192,192,15776,1,0,0:0:0:0:
448,192,15851,1,0,0:0:0:0:
192,192,15926,1,0,0:0:0:0:
320,192,15926,1,0,0:0:0:0:
64,192,16001,1,0,0:0:0:0:
320,192,16076,1,0,0:0:0:0:
448,192,16076,1,0,0:0:0:0:
192,192,16151,1,0,0:0:0:0:
64,192,16226,1,0,0:0:0:0:
320,192,16226,1,0,0:0:0:0:
192,192,16301,1,0,0:0:0:0:
320,192,16376,1,0,0:0:0:0:
448,192,16376,1,0,0:0:0:0:
64,192,16451,1,0,0:0:0:0:
192,192,16526,1,0,0:0:0:0:
320,192,16526,1,0,0:0:0:0:
448,192,16601,1,0,0:0:0:0:
64,192,16676,1,0,0:0:0:0:
320,192,16676,1,0,0:0:0:0:
192,192,16751,1,0,0:0:0:0:
320,192,16826,1,0,0:0:0:0:
448,192,16826,1,0,0:0:0:0:
192,192,16901,1,0,0:0:0:0:
64,192,16976,1,0,0:0:0:0:
448,192,16976,1,0,0:0:0:0:
320,192,17051,1,0,0:0:0:0:
64,192,17126,1,0,0:0:0:0:
192,192,17126,1,0,0:0:0:0:
320,192,17201,1,0,0:0:0:0:
192,192,17276,1,0,0:0:0:0:
448,192,17276,1,0,0:0:0:0:
64,192,17351,1,0,0:0:0:0:
320,192,17426,1,0,0:0:0:0:
448,192,17426,1,0,0:0:0:0:
192,192,17501,1,0,0:0:0:0:
64,192,17576,1,0,0:0:0:0:
320,192,17576,1,0,0:0:0:0:
448,192,17651,1,0,0:0:0:0:
192,192,17726,1,0,0:0:0:0:
320,192,17726,1,0,0:0:0:0:
64,192,17801,1,0,0:0:0:0:
448,192,17801,1,0,0:0:0:0:
192,192,17876,1,0,0:0:0:0:
320,192,17876,1,0,0:0:0:0:
64,192,17951,1,0,0:0:0:0:
448,192,17951,1,0,0:0:0:0:
192,192,18026,1,0,0:0:0:0:
320,192,18026,1,0,0:0:0:0:
64,192,18101,1,0,0:0:0:0:
320,192,18176,1,0,0:0:0:0:
448,192,18176,1,0,0:0:0:0:
192,192,18251,1,0,0:0:0:0:
64,192,18326,1,0,0:0:0:0:
320,192,18326,1,0,0:0:0:0:
448,192,18401,1,0,0:0:0:0:
192,192,18476,1,0,0:0:0:0:
320,192,18476,1,0,0:0:0:0:
448,192,18551,1,0,0:0:0:0:
64,192,18626,1,0,0:0:0:0:
320,192,18626,1,0,0:0:0:0:
192,192,18701,1,0,0:0:0:0:
320,192,18776,1,0,0:0:0:0:
448,192,18776,1,0,0:0:0:0:
192,192,18851,1,0,0:0:0:0:
64,192,18926,1,0,0:0:0:0:
320,192,18926,1,0,0:0:0:0:
448,192,19001,1,0,0:0:0:0:
64,192,19076,1,0,0:0:0:0:
320,192,19076,1,0,0:0:0:0:
192,192,19151,1,0,0:0:0:0:
320,192,19226,1,0,0:0:0:0:
448,192,19226,1,0,0:0:0:0:
64,192,19301,1,0,0:0:0:0:
192,192,19301,1,0,0:0:0:0:
320,192,19376,1,0,0:0:0:0:
448,192,19376,1,0,0:0:0:0:
192,192,19526,1,0,0:0:0:0:
320,192,19526,1,0,0:0:0:0:
64,192,19676,1,0,0:0:0:0:
320,192,19676,1,0,0:0:0:0:
192,192,19751,1,0,0:0:0:0:
448,192,19751,1,0,0:0:0:0:
64,192,19826,1,0,0:0:0:0:
320,192,19826,1,0,0:0:0:0:
192,192,19901,1,0,0:0:0:0:
448,192,19901,1,0,0:0:0:0:
64,192,19976,1,0,0:0:0:0:
320,192,19976,1,0,0:0:0:0:
192,192,20051,1,0,0:0:0:0:
448,192,20051,1,0,0:0:0:0:
64,192,20126,1,0,0:0:0:0:
320,192,20126,1,0,0:0:0:0:
192,192,20201,1,0,0:0:0:0:
448,192,20201,1,0,0:0:0:0:
64,192,20276,1,0,0:0:0:0:
320,192,20276,1,0,0:0:0:0:
192,192,20351,1,0,0:0:0:0:
448,192,20351,1,0,0:0:0:0:
64,192,20426,1,0,0:0:0:0:
320,192,20426,1,0,0:0:0:0:
192,192,20501,1,0,0:0:0:0:
320,192,20576,1,0,0:0:0:0:
448,192,20576,1,0,0:0:0:0:
64,192,20651,1,0,0:0:0:0:
320,192,20726,1,0,0:0:0:0:
448,192,20726,1,0,0:0:0:0:
192,192,20801,1,0,0:0:0:0:
64,192,20876,1,0,0:0:0:0:
448,192,20876,1,0,0:0:0:0:
320,192,20951,1,0,0:0:0:0:
64,192,21026,1,0,0:0:0:0:
192,192,21026,1,0,0:0:0:0:
320,192,21101,1,0,0:0:0:0:
192,192,21176,1,0,0:0:0:0:
448,192,21176,1,0,0:0:0:0:
64,192,21251,1,0,0:0:0:0:
192,192,21326,1,0,0:0:0:0:
320,192,21326,1,0,0:0:0:0:
448,192,21401,1,0,0:0:0:0:
64,192,21476,1,0,0:0:0:0:
192,192,21476,1,0,0:0:0:0:
448,192,21551,1,0,0:0:0:0:
192,192,21626,1,0,0:0:0:0:
320,192,21626,1,0,0:0:0:0:
64,192,21701,1,0,0:0:0:0:
320,192,21776,1,0,0:0:0:0:
448,192,21776,1,0,0:0:0:0:
192,192,21851,1,0,0:0:0:0:
320,192,21926,1,0,0:0:0:0:
448,192,21926,1,0,0:0:0:0:
64,192,22001,1,0,0:0:0:0:
192,192,22076,1,0,0:0:0:0:
320,192,22076,1,0,0:0:0:0:
64,192,22151,1,0,0:0:0:0:
320,192,22226,1,0,0:0:0:0:
448,192,22226,1,0,0:0:0:0:
192,192,22301,1,0,0:0:0:0:
64,192,22376,1,0,0:0:0:0:
448,192,22376,1,0,0:0:0:0:
320,192,22451,1,0,0:0:0:0:
64,192,22526,1,0,0:0:0:0:
192,192,22526,1,0,0:0:0:0:
320,192,22601,1,0,0:0:0:0:
448,192,22601,1,0,0:0:0:0:
64,192,22676,1,0,0:0:0:0:
192,192,22676,1,0,0:0:0:0:
320,192,22751,1,0,0:0:0:0:
448,192,22751,1,0,0:0:0:0:
64,192,22826,1,0,0:0:0:0:
192,192,22826,1,0,0:0:0:0:
320,192,22901,1,0,0:0:0:0:
192,192,22976,1,0,0:0:0:0:
448,192,22976,1,0,0:0:0:0:
320,192,23051,1,0,0:0:0:0:
64,192,23126,1,0,0:0:0:0:
448,192,23126,1,0,0:0:0:0:
192,192,23201,1,0,0:0:0:0:
64,192,23276,1,0,0:0:0:0:
320,192,23276,1,0,0:0:0:0:
192,192,23351,1,0,0:0:0:0:
320,192,23426,1,0,0:0:0:0:
448,192,23426,1,0,0:0:0:0:
64,192,23501,1,0,0:0:0:0:
192,192,23576,1,0,0:0:0:0:
320,192,23576,1,0,0:0:0:0:
64,192,23651,1,0,0:0:0:0:
320,192,23726,1,0,0:0:0:0:
448,192,23726,1,0,0:0:0:0:
192,192,23801,1,0,0:0:0:0:
64,192,23876,1,0,0:0:0:0:
320,192,23876,1,0,0:0:0:0:
448,192,23951,1,0,0:0:0:0:
192,192,24026,1,0,0:0:0:0:
320,192,24026,1,0,0:0:0:0:
64,192,24101,1,0,0:0:0:0:
320,192,24176,1,0,0:0:0:0:
448,192,24176,1,0,0:0:0:0:
64,192,24251,1,0,0:0:0:0:
192,192,24326,1,0,0:0:0:0:
320,192,24326,1,0,0:0:0:0:
448,192,24401,1,0,0:0:0:0:
64,192,24476,1,0,0:0:0:0:
192,192,24476,1,0,0:0:0:0:
320,192,24551,1,0,0:0:0:0:
64,192,24626,1,0,0:0:0:0:
448,192,24626,1,0,0:0:0:0:
192,192,24701,1,0,0:0:0:0:
320,192,24701,1,0,0:0:0:0:
64,192,24776,1,0,0:0:0:0:
448,192,24776,1,0,0:0:0:0:
192,192,24851,1,0,0:0:0:0:
320,192,24926,1,0,0:0:0:0:
448,192,24926,1,0,0:0:0:0:
64,192,25001,1,0,0:0:0:0:
192,192,25001,1,0,0:0:0:0:
320,192,25076,1,0,0:0:0:0:
448,192,25076,1,0,0:0:0:0:
192,192,25151,1,0,0:0:0:0:
64,192,25226,1,0,0:0:0:0:
320,192,25226,1,0,0:0:0:0:
448,192,25226,1,0,0:0:0:0:
192,192,25301,1,0,0:0:0:0:
320,192,25376,1,0,0:0:0:0:
448,192,25376,1,0,0:0:0:0:
64,192,25451,1,0,0:0:0:0:
192,192,25526,1,0,0:0:0:0:
320,192,25526,1,0,0:0:0:0:
64,192,25601,1,0,0:0:0:0:
320,192,25676,1,0,0:0:0:0:
448,192,25676,1,0,0:0:0:0:
192,192,25751,1,0,0:0:0:0:
64,192,25826,1,0,0:0:0:0:
320,192,25826,1,0,0:0:0:0:
448,192,25901,1,0,0:0:0:0:
64,192,25976,1,0,0:0:0:0:
320,192,25976,1,0,0:0:0:0:
192,192,26051,1,0,0:0:0:0:
64,192,26126,1,0,0:0:0:0:
448,192,26126,1,0,0:0:0:0:
320,192,26201,1,0,0:0:0:0:
192,192,26276,1,0,0:0:0:0:
448,192,26276,1,0,0:0:0:0:
64,192,26351,1,0,0:0:0:0:
192,192,26426,1,0,0:0:0:0:
320,192,26426,1,0,0:0:0:0:
448,192,26426,1,0,0:0:0:0:
64,192,26501,1,0,0:0:0:0:
320,192,26576,1,0,0:0:0:0:
448,192,26576,1,0,0:0:0:0:
192,192,26651,1,0,0:0:0:0:
64,192,26726,1,0,0:0:0:0:
320,192,26726,1,0,0:0:0:0:
448,192,26801,1,0,0:0:0:0:
192,192,26876,1,0,0:0:0:0:
320,192,26876,1,0,0:0:0:0:
448,192,26951,1,0,0:0:0:0:
64,192,27026,1,0,0:0:0:0:
192,192,27026,1,0,0:0:0:0:
320,192,27101,1,0,0:0:0:0:
64,192,27176,1,0,0:0:0:0:
448,192,27176,1,0,0:0:0:0:
192,192,27251,1,0,0:0:0:0:
320,192,27326,1,0,0:0:0:0:
448,192,27326,1,0,0:0:0:0:
64,192,27401,1,0,0:0:0:0:
192,192,27401,1,0,0:0:0:0:
320,192,27476,1,0,0:0:0:0:
448,192,27476,1,0,0:0:0:0:
192,192,27551,1,0,0:0:0:0:
64,192,27626,1,0,0:0:0:0:
320,192,27626,1,0,0:0:0:0:
448,192,27626,1,0,0:0:0:0:
192,192,27701,1,0,0:0:0:0:
320,192,27776,1,0,0:0:0:0:
448,192,27776,1,0,0:0:0:0:
64,192,27851,1,0,0:0:0:0:
192,192,27926,1,0,0:0:0:0:
448,192,27926,1,0,0:0:0:0:
320,192,28001,1,0,0:0:0:0:
64,192,28076,1,0,0:0:0:0:
192,192,28076,1,0,0:0:0:0:
448,192,28151,1,0,0:0:0:0:
64,192,28226,1,0,0:0:0:0:
192,192,28226,1,0,0:0:0:0:
320,192,28226,1,0,0:0:0:0:
448,192,28301,1,0,0:0:0:0:
192,192,28376,1,0,0:0:0:0:
320,192,28376,1,0,0:0:0:0:
64,192,28451,1,0,0:0:0:0:
320,192,28526,1,0,0:0:0:0:
448,192,28526,1,0,0:0:0:0:
192,192,28601,1,0,0:0:0:0:
64,192,28676,1,0,0:0:0:0:
320,192,28676,1,0,0:0:0:0:
448,192,28751,1,0,0:0:0:0:
64,192,28826,1,0,0:0:0:0:
192,192,28826,1,0,0:0:0:0:
320,192,28826,1,0,0:0:0:0:
448,192,28901,1,0,0:0:0:0:
64,192,28976,1,0,0:0:0:0:
192,192,28976,1,0,0:0:0:0:
320,192,29051,1,0,0:0:0:0:
448,192,29051,1,0,0:0:0:0:
64,192,29126,1,0,0:0:0:0:
192,192,29126,1,0,0:0:0:0:
320,192,29201,1,0,0:0:0:0:
448,192,29201,1,0,0:0:0:0:
64,192,29276,1,0,0:0:0:0:
192,192,29276,1,0,0:0:0:0:
320,192,29351,1,0,0:0:0:0:
448,192,29351,1,0,0:0:0:0:
64,192,29426,1,0,0:0:0:0:
192,192,29426,1,0,0:0:0:0:
192,192,29726,1,0,0:0:0:0:
320,192,29726,1,0,0:0:0:0:
448,192,29726,1,0,0:0:0:0:
64,192,29801,1,0,0:0:0:0:
320,192,29876,1,0,0:0:0:0:
448,192,29876,1,0,0:0:0:0:
64,192,29951,1,0,0:0:0:0:
192,192,30026,1,0,0:0:0:0:
320,192,30026,1,0,0:0:0:0:
448,192,30026,1,0,0:0:0:0:
192,192,30176,1,0,0:0:0:0:
64,192,30326,1,0,0:0:0:0:
320,192,30326,1,0,0:0:0:0:
448,192,30476,1,0,0:0:0:0:
64,192,30551,1,0,0:0:0:0:
320,192,30626,1,0,0:0:0:0:
192,192,30776,1,0,0:0:0:0:
448,192,30776,1,0,0:0:0:0:
64,192,30926,1,0,0:0:0:0:
320,192,31001,1,0,0:0:0:0:
192,192,31076,1,0,0:0:0:0:
320,192,31226,1,0,0:0:0:0:
320,192,31376,1,0,0:0:0:0:
64,192,31526,1,0,0:0:0:0:
192,192,31526,1,0,0:0:0:0:
448,192,31676,1,0,0:0:0:0:
320,192,31751,1,0,0:0:0:0:
64,192,31826,1,0,0:0:0:0:
320,192,31976,1,0,0:0:0:0:
448,192,31976,1,0,0:0:0:0:
64,192,32126,1,0,0:0:0:0:
192,192,32201,1,0,0:0:0:0:
320,192,32276,1,0,0:0:0:0:
448,192,32426,1,0,0:0:0:0:
448,192,32576,1,0,0:0:0:0:
192,192,32726,1,0,0:0:0:0:
320,192,32726,1,0,0:0:0:0:
448,192,32876,1,0,0:0:0:0:
192,192,32951,1,0,0:0:0:0:
320,192,33026,1,0,0:0:0:0:
64,192,33176,1,0,0:0:0:0:
448,192,33176,1,0,0:0:0:0:
192,192,33326,1,0,0:0:0:0:
64,192,33401,1,0,0:0:0:0:
448,192,33476,1,0,0:0:0:0:
320,192,33626,1,0,0:0:0:0:
320,192,33776,1,0,0:0:0:0:
64,192,33926,1,0,0:0:0:0:
192,192,33926,1,0,0:0:0:0:
320,192,34076,1,0,0:0:0:0:
192,192,34151,1,0,0:0:0:0:
448,192,34226,1,0,0:0:0:0:
448,192,34376,1,0,0:0:0:0:
192,192,34526,1,0,0:0:0:0:
192,192,34676,1,0,0:0:0:0:
320,192,34676,1,0,0:0:0:0:
64,192,34826,1,0,0:0:0:0:
448,192,34826,1,0,0:0:0:0:
320,192,34901,1,0,0:0:0:0:
192,192,34976,1,0,0:0:0:0:
64,192,35051,1,0,0:0:0:0:
320,192,35126,1,0,0:0:0:0:
192,192,35201,1,0,0:0:0:0:
320,192,35276,1,0,0:0:0:0:
448,192,35351,1,0,0:0:0:0:
64,192,35426,1,0,0:0:0:0:
320,192,35426,1,0,0:0:0:0:
192,192,35501,1,0,0:0:0:0:
448,192,35576,1,0,0:0:0:0:
192,192,35651,1,0,0:0:0:0:
320,192,35726,1,0,0:0:0:0:
64,192,35801,1,0,0:0:0:0:
448,192,35876,1,0,0:0:0:0:
320,192,35951,1,0,0:0:0:0:
64,192,36026,1,0,0:0:0:0:
192,192,36026,1,0,0:0:0:0:
448,192,36101,1,0,0:0:0:0:
192,192,36176,1,0,0:0:0:0:
64,192,36251,1,0,0:0:0:0:
320,192,36326,1,0,0:0:0:0:
192,192,36401,1,0,0:0:0:0:
448,192,36476,1,0,0:0:0:0:
64,192,36551,1,0,0:0:0:0:
192,192,36626,1,0,0:0:0:0:
320,192,36626,1,0,0:0:0:0:
448,192,36701,1,0,0:0:0:0:
64,192,36776,1,0,0:0:0:0:
320,192,36851,1,0,0:0:0:0:
192,192,36926,1,0,0:0:0:0:
320,192,37001,1,0,0:0:0:0:
448,192,37076,1,0,0:0:0:0:
64,192,37151,1,0,0:0:0:0:
192,192,37226,1,0,0:0:0:0:
448,192,37226,1,0,0:0:0:0:
320,192,37301,1,0,0:0:0:0:
192,192,37376,1,0,0:0:0:0:
448,192,37376,1,0,0:0:0:0:
320,192,37451,1,0,0:0:0:0:
192,192,37526,1,0,0:0:0:0:
448,192,37526,1,0,0:0:0:0:
320,192,37601,1,0,0:0:0:0:
192,192,37676,1,0,0:0:0:0:
448,192,37676,1,0,0:0:0:0:
320,192,37751,1,0,0:0:0:0:
192,192,37826,1,0,0:0:0:0:
448,192,37826,1,0,0:0:0:0:
320,192,37901,1,0,0:0:0:0:
192,192,37976,1,0,0:0:0:0:
448,192,37976,1,0,0:0:0:0:
320,192,38051,1,0,0:0:0:0:
192,192,38126,1,0,0:0:0:0:
448,192,38126,1,0,0:0:0:0:
320,192,38201,1,0,0:0:0:0:
192,192,38276,1,0,0:0:0:0:
448,192,38276,1,0,0:0:0:0:
320,192,38351,1,0,0:0:0:0:
64,192,38426,1,0,0:0:0:0:
448,192,38426,1,0,0:0:0:0:
320,192,38463,1,0,0:0:0:0:
192,192,38501,1,0,0:0:0:0:
64,192,38538,1,0,0:0:0:0:
448,192,38576,1,0,0:0:0:0:
320,192,38613,1,0,0:0:0:0:
192,192,38651,1,0,0:0:0:0:
64,192,38688,1,0,0:0:0:0:
448,192,38726,1,0,0:0:0:0:
320,192,38763,1,0,0:0:0:0:
192,192,38801,1,0,0:0:0:0:
64,192,38838,1,0,0:0:0:0:
448,192,38876,1,0,0:0:0:0:
320,192,38913,1,0,0:0:0:0:
192,192,38951,1,0,0:0:0:0:
64,192,38988,1,0,0:0:0:0:
320,192,39026,1,0,0:0:0:0:
448,192,39026,1,0,0:0:0:0:
64,192,39101,1,0,0:0:0:0:
192,192,39101,1,0,0:0:0:0:
320,192,39176,1,0,0:0:0:0:
448,192,39176,1,0,0:0:0:0:
192,192,39251,1,0,0:0:0:0:
448,192,39326,1,0,0:0:0:0:
320,192,39351,1,0,0:0:0:0:
192,192,39376,1,0,0:0:0:0:
64,192,39401,1,0,0:0:0:0:
448,192,39426,1,0,0:0:0:0:
320,192,39451,1,0,0:0:0:0:
192,192,39476,1,0,0:0:0:0:
64,192,39501,1,0,0:0:0:0:
448,192,39526,1,0,0:0:0:0:
320,192,39551,1,0,0:0:0:0:
192,192,39576,1,0,0:0:0:0:
64,192,39601,1,0,0:0:0:0:
320,192,39626,1,0,0:0:0:0:
448,192,39626,1,0,0:0:0:0:
192,192,39701,1,0,0:0:0:0:
64,192,39776,1,0,0:0:0:0:
320,192,39776,1,0,0:0:0:0:
448,192,39851,1,0,0:0:0:0:
64,192,39926,1,0,0:0:0:0:
192,192,39926,1,0,0:0:0:0:
448,192,40001,1,0,0:0:0:0:
64,192,40076,1,0,0:0:0:0:
320,192,40076,1,0,0:0:0:0:
192,192,40151,1,0,0:0:0:0:
320,192,40226,1,0,0:0:0:0:
448,192,40226,1,0,0:0:0:0:
64,192,40301,1,0,0:0:0:0:
192,192,40376,1,0,0:0:0:0:
448,192,40376,1,0,0:0:0:0:
320,192,40451,1,0,0:0:0:0:
64,192,40526,1,0,0:0:0:0:
448,192,40526,1,0,0:0:0:0:
192,192,40601,1,0,0:0:0:0:
320,192,40676,1,0,0:0:0:0:
448,192,40676,1,0,0:0:0:0:
64,192,40751,1,0,0:0:0:0:
192,192,40826,1,0,0:0:0:0:
320,192,40826,1,0,0:0:0:0:
64,192,40901,1,0,0:0:0:0:
320,192,40976,1,0,0:0:0:0:
448,192,40976,1,0,0:0:0:0:
192,192,41051,1,0,0:0:0:0:
320,192,41126,1,0,0:0:0:0:
448,192,41126,1,0,0:0:0:0:
64,192,41201,1,0,0:0:0:0:
192,192,41276,1,0,0:0:0:0:
320,192,41276,1,0,0:0:0:0:
448,192,41351,1,0,0:0:0:0:
64,192,41426,1,0,0:0:0:0:
320,192,41426,1,0,0:0:0:0:
448,192,41501,1,0,0:0:0:0:
64,192,41576,1,0,0:0:0:0:
192,192,41576,1,0,0:0:0:0:
320,192,41651,1,0,0:0:0:0:
192,192,41726,1,0,0:0:0:0:
448,192,41726,1,0,0:0:0:0:
64,192,41801,1,0,0:0:0:0:
320,192,41801,1,0,0:0:0:0:
192,192,41876,1,0,0:0:0:0:
448,192,41876,1,0,0:0:0:0:
64,192,41951,1,0,0:0:0:0:
320,192,41951,1,0,0:0:0:0:
192,192,42026,1,0,0:0:0:0:
448,192,42026,1,0,0:0:0:0:
320,192,42101,1,0,0:0:0:0:
64,192,42176,1,0,0:0:0:0:
192,192,42176,1,0,0:0:0:0:
448,192,42251,1,0,0:0:0:0:
192,192,42326,1,0,0:0:0:0:
320,192,42326,1,0,0:0:0:0:
64,192,42401,1,0,0:0:0:0:
320,192,42476,1,0,0:0:0:0:
448,192,42476,1,0,0:0:0:0:
192,192,42551,1,0,0:0:0:0:
64,192,42626,1,0,0:0:0:0:
320,192,42626,1,0,0:0:0:0:
192,192,42701,1,0,0:0:0:0:
64,192,42776,1,0,0:0:0:0:
448,192,42776,1,0,0:0:0:0:
320,192,42851,1,0,0:0:0:0:
64,192,42926,1,0,0:0:0:0:
192,192,42926,1,0,0:0:0:0:
448,192,43001,1,0,0:0:0:0:
192,192,43076,1,0,0:0:0:0:
320,192,43076,1,0,0:0:0:0:
64,192,43151,1,0,0:0:0:0:
320,192,43226,1,0,0:0:0:0:
448,192,43226,1,0,0:0:0:0:
64,192,43301,1,0,0:0:0:0:
192,192,43376,1,0,0:0:0:0:
320,192,43376,1,0,0:0:0:0:
448,192,43451,1,0,0:0:0:0:
64,192,43526,1,0,0:0:0:0:
192,192,43526,1,0,0:0:0:0:
448,192,43601,1,0,0:0:0:0:
64,192,43676,1,0,0:0:0:0:
320,192,43676,1,0,0:0:0:0:
192,192,43751,1,0,0:0:0:0:
64,192,43826,1,0,0:0:0:0:
448,192,43826,1,0,0:0:0:0:
192,192,43901,1,0,0:0:0:0:
320,192,43901,1,0,0:0:0:0:
64,192,43976,1,0,0:0:0:0:
448,192,43976,1,0,0:0:0:0:
320,192,44051,1,0,0:0:0:0:
64,192,44126,1,0,0:0:0:0:
192,192,44126,1,0,0:0:0:0:
320,192,44201,1,0,0:0:0:0:
448,192,44201,1,0,0:0:0:0:
64,192,44276,1,0,0:0:0:0:
192,192,44276,1,0,0:0:0:0:
320,192,44351,1,0,0:0:0:0:
448,192,44351,1,0,0:0:0:0:
64,192,44426,1,0,0:0:0:0:
192,192,44426,1,0,0:0:0:0:
448,192,44501,1,0,0:0:0:0:
192,192,44576,1,0,0:0:0:0:
320,192,44576,1,0,0:0:0:0:
448,192,44651,1,0,0:0:0:0:
64,192,44726,1,0,0:0:0:0:
320,192,44726,1,0,0:0:0:0:
192,192,44801,1,0,0:0:0:0:
64,192,44876,1,0,0:0:0:0:
448,192,44876,1,0,0:0:0:0:
320,192,44951,1,0,0:0:0:0:
64,192,45026,1,0,0:0:0:0:
192,192,45026,1,0,0:0:0:0:
448,192,45101,1,0,0:0:0:0:
192,192,45176,1,0,0:0:0:0:
320,192,45176,1,0,0:0:0:0:
64,192,45251,1,0,0:0:0:0:
320,192,45326,1,0,0:0:0:0:
448,192,45326,1,0,0:0:0:0:
192,192,45401,1,0,0:0:0:0:
64,192,45476,1,0,0:0:0:0:
320,192,45476,1,0,0:0:0:0:
192,192,45551,1,0,0:0:0:0:
64,192,45626,1,0,0:0:0:0:
448,192,45626,1,0,0:0:0:0:
320,192,45701,1,0,0:0:0:0:
192,192,45776,1,0,0:0:0:0:
448,192,45776,1,0,0:0:0:0:
64,192,45851,1,0,0:0:0:0:
192,192,45926,1,0,0:0:0:0:
320,192,45926,1,0,0:0:0:0:
448,192,46001,1,0,0:0:0:0:
64,192,46076,1,0,0:0:0:0:
320,192,46076,1,0,0:0:0:0:
192,192,46151,1,0,0:0:0:0:
320,192,46226,1,0,0:0:0:0:
448,192,46226,1,0,0:0:0:0:
64,192,46301,1,0,0:0:0:0:
192,192,46376,1,0,0:0:0:0:
320,192,46376,1,0,0:0:0:0:
448,192,46451,1,0,0:0:0:0:
192,192,46526,1,0,0:0:0:0:
320,192,46526,1,0,0:0:0:0:
64,192,46601,1,0,0:0:0:0:
448,192,46601,1,0,0:0:0:0:
192,192,46676,1,0,0:0:0:0:
320,192,46676,1,0,0:0:0:0:
64,192,46751,1,0,0:0:0:0:
448,192,46751,1,0,0:0:0:0:
192,192,46826,1,0,0:0:0:0:
320,192,46826,1,0,0:0:0:0:
64,192,46901,1,0,0:0:0:0:
320,192,46976,1,0,0:0:0:0:
448,192,46976,1,0,0:0:0:0:
192,192,47051,1,0,0:0:0:0:
64,192,47126,1,0,0:0:0:0:
448,192,47126,1,0,0:0:0:0:
320,192,47201,1,0,0:0:0:0:
64,192,47276,1,0,0:0:0:0:
192,192,47276,1,0,0:0:0:0:
448,192,47351,1,0,0:0:0:0:
192,192,47426,1,0,0:0:0:0:
320,192,47426,1,0,0:0:0:0:
64,192,47501,1,0,0:0:0:0:
320,192,47576,1,0,0:0:0:0:
448,192,47576,1,0,0:0:0:0:
192,192,47651,1,0,0:0:0:0:
64,192,47726,1,0,0:0:0:0:
320,192,47726,1,0,0:0:0:0:
448,192,47801,1,0,0:0:0:0:
192,192,47876,1,0,0:0:0:0:
320,192,47876,1,0,0:0:0:0:
448,192,47951,1,0,0:0:0:0:
64,192,48026,1,0,0:0:0:0:
320,192,48026,1,0,0:0:0:0:
192,192,48101,1,0,0:0:0:0:
448,192,48101,1,0,0:0:0:0:
64,192,48176,1,0,0:0:0:0:
320,192,48176,1,0,0:0:0:0:
192,192,48326,1,0,0:0:0:0:
320,192,48326,1,0,0:0:0:0:
64,192,48476,1,0,0:0:0:0:
192,192,48476,1,0,0:0:0:0:
320,192,48551,1,0,0:0:0:0:
448,192,48551,1,0,0:0:0:0:
64,192,48626,1,0,0:0:0:0:
192,192,48626,1,0,0:0:0:0:
320,192,48701,1,0,0:0:0:0:
448,192,48701,1,0,0:0:0:0:
64,192,48776,1,0,0:0:0:0:
192,192,48776,1,0,0:0:0:0:
320,192,48851,1,0,0:0:0:0:
448,192,48851,1,0,0:0:0:0:
64,192,48926,1,0,0:0:0:0:
192,192,48926,1,0,0:0:0:0:
320,192,49001,1,0,0:0:0:0:
448,192,49001,1,0,0:0:0:0:
64,192,49076,1,0,0:0:0:0:
192,192,49076,1,0,0:0:0:0:
320,192,49151,1,0,0:0:0:0:
448,192,49151,1,0,0:0:0:0:
64,192,49226,1,0,0:0:0:0:
192,192,49226,1,0,0:0:0:0:
320,192,49301,1,0,0:0:0:0:
192,192,49376,1,0,0:0:0:0:
448,192,49376,1,0,0:0:0:0:
64,192,49451,1,0,0:0:0:0:
192,192,49526,1,0,0:0:0:0:
320,192,49526,1,0,0:0:0:0:
448,192,49601,1,0,0:0:0:0:
64,192,49676,1,0,0:0:0:0:
320,192,49676,1,0,0:0:0:0:
192,192,49751,1,0,0:0:0:0:
320,192,49826,1,0,0:0:0:0:
448,192,49826,1,0,0:0:0:0:
64,192,49901,1,0,0:0:0:0:
192,192,49976,1,0,0:0:0:0:
320,192,49976,1,0,0:0:0:0:
64,192,50051,1,0,0:0:0:0:
320,192,50126,1,0,0:0:0:0:
448,192,50126,1,0,0:0:0:0:
192,192,50201,1,0,0:0:0:0:
64,192,50276,1,0,0:0:0:0:
320,192,50276,1,0,0:0:0:0:
448,192,50351,1,0,0:0:0:0:
64,192,50426,1,0,0:0:0:0:
192,192,50426,1,0,0:0:0:0:
320,192,50501,1,0,0:0:0:0:
192,192,50576,1,0,0:0:0:0:
448,192,50576,1,0,0:0:0:0:
64,192,50651,1,0,0:0:0:0:
192,192,50726,1,0,0:0:0:0:
320,192,50726,1,0,0:0:0:0:
448,192,50801,1,0,0:0:0:0:
64,192,50876,1,0,0:0:0:0:
192,192,50876,1,0,0:0:0:0:
320,192,50951,1,0,0:0:0:0:
64,192,51026,1,0,0:0:0:0:
448,192,51026,1,0,0:0:0:0:
192,192,51101,1,0,0:0:0:0:
64,192,51176,1,0,0:0:0:0:
320,192,51176,1,0,0:0:0:0:
448,192,51251,1,0,0:0:0:0:
192,192,51326,1,0,0:0:0:0:
320,192,51326,1,0,0:0:0:0:
64,192,51401,1,0,0:0:0:0:
448,192,51401,1,0,0:0:0:0:
192,192,51476,1,0,0:0:0:0:
320,192,51476,1,0,0:0:0:0:
64,192,51551,1,0,0:0:0:0:
448,192,51551,1,0,0:0:0:0:
192,192,51626,1,0,0:0:0:0:
320,192,51626,1,0,0:0:0:0:
448,192,51701,1,0,0:0:0:0:
64,192,51776,1,0,0:0:0:0:
192,192,51776,1,0,0:0:0:0:
320,192,51851,1,0,0:0:0:0:
192,192,51926,1,0,0:0:0:0:
448,192,51926,1,0,0:0:0:0:
64,192,52001,1,0,0:0:0:0:
320,192,52076,1,0,0:0:0:0:
448,192,52076,1,0,0:0:0:0:
192,192,52151,1,0,0:0:0:0:
64,192,52226,1,0,0:0:0:0:
448,192,52226,1,0,0:0:0:0:
320,192,52301,1,0,0:0:0:0:
64,192,52376,1,0,0:0:0:0:
192,192,52376,1,0,0:0:0:0:
448,192,52451,1,0,0:0:0:0:
192,192,52526,1,0,0:0:0:0:
320,192,52526,1,0,0:0:0:0:
64,192,52601,1,0,0:0:0:0:
320,192,52676,1,0,0:0:0:0:
448,192,52676,1,0,0:0:0:0:
192,192,52751,1,0,0:0:0:0:
64,192,52826,1,0,0:0:0:0:
320,192,52826,1,0,0:0:0:0:
192,192,52901,1,0,0:0:0:0:
320,192,52976,1,0,0:0:0:0:
448,192,52976,1,0,0:0:0:0:
64,192,53051,1,0,0:0:0:0:
192,192,53126,1,0,0:0:0:0:
320,192,53126,1,0,0:0:0:0:
448,192,53201,1,0,0:0:0:0:
64,192,53276,1,0,0:0:0:0:
192,192,53276,1,0,0:0:0:0:
320,192,53351,1,0,0:0:0:0:
64,192,53426,1,0,0:0:0:0:
192,192,53426,1,0,0:0:0:0:
320,192,53501,1,0,0:0:0:0:
448,192,53501,1,0,0:0:0:0:
64,192,53576,1,0,0:0:0:0:
192,192,53576,1,0,0:0:0:0:
448,192,53651,1,0,0:0:0:0:
192,192,53726,1,0,0:0:0:0:
320,192,53726,1,0,0:0:0:0:
64,192,53801,1,0,0:0:0:0:
448,192,53801,1,0,0:0:0:0:
192,192,53876,1,0,0:0:0:0:
320,192,53876,1,0,0:0:0:0:
448,192,53951,1,0,0:0:0:0:
64,192,54026,1,0,0:0:0:0:
192,192,54026,1,0,0:0:0:0:
320,192,54026,1,0,0:0:0:0:
448,192,54101,1,0,0:0:0:0:
192,192,54176,1,0,0:0:0:0:
320,192,54176,1,0,0:0:0:0:
64,192,54251,1,0,0:0:0:0:
192,192,54326,1,0,0:0:0:0:
448,192,54326,1,0,0:0:0:0:
320,192,54401,1,0,0:0:0:0:
64,192,54476,1,0,0:0:0:0:
448,192,54476,1,0,0:0:0:0:
192,192,54551,1,0,0:0:0:0:
64,192,54626,1,0,0:0:0:0:
320,192,54626,1,0,0:0:0:0:
448,192,54701,1,0,0:0:0:0:
64,192,54776,1,0,0:0:0:0:
192,192,54776,1,0,0:0:0:0:
320,192,54851,1,0,0:0:0:0:
192,192,54926,1,0,0:0:0:0:
448,192,54926,1,0,0:0:0:0:
64,192,55001,1,0,0:0:0:0:
320,192,55076,1,0,0:0:0:0:
448,192,55076,1,0,0:0:0:0:
192,192,55151,1,0,0:0:0:0:
64,192,55226,1,0,0:0:0:0:
320,192,55226,1,0,0:0:0:0:
448,192,55226,1,0,0:0:0:0:
192,192,55301,1,0,0:0:0:0:
320,192,55376,1,0,0:0:0:0:
448,192,55376,1,0,0:0:0:0:
64,192,55451,1,0,0:0:0:0:
192,192,55526,1,0,0:0:0:0:
320,192,55526,1,0,0:0:0:0:
448,192,55601,1,0,0:0:0:0:
64,192,55676,1,0,0:0:0:0:
192,192,55676,1,0,0:0:0:0:
320,192,55751,1,0,0:0:0:0:
64,192,55826,1,0,0:0:0:0:
448,192,55826,1,0,0:0:0:0:
192,192,55901,1,0,0:0:0:0:
320,192,55976,1,0,0:0:0:0:
448,192,55976,1,0,0:0:0:0:
64,192,56051,1,0,0:0:0:0:
320,192,56126,1,0,0:0:0:0:
448,192,56126,1,0,0:0:0:0:
64,192,56201,1,0,0:0:0:0:
192,192,56201,1,0,0:0:0:0:
320,192,56276,1,0,0:0:0:0:
448,192,56276,1,0,0:0:0:0:
192,192,56351,1,0,0:0:0:0:
64,192,56426,1,0,0:0:0:0:
320,192,56426,1,0,0:0:0:0:
448,192,56426,1,0,0:0:0:0:
192,192,56501,1,0,0:0:0:0:
320,192,56576,1,0,0:0:0:0:
448,192,56576,1,0,0:0:0:0:
64,192,56651,1,0,0:0:0:0:
192,192,56726,1,0,0:0:0:0:
320,192,56726,1,0,0:0:0:0:
448,192,56801,1,0,0:0:0:0:
64,192,56876,1,0,0:0:0:0:
192,192,56876,1,0,0:0:0:0:
448,192,56951,1,0,0:0:0:0:
64,192,57026,1,0,0:0:0:0:
192,192,57026,1,0,0:0:0:0:
320,192,57026,1,0,0:0:0:0:
448,192,57101,1,0,0:0:0:0:
64,192,57176,1,0,0:0:0:0:
192,192,57176,1,0,0:0:0:0:
320,192,57251,1,0,0:0:0:0:
192,192,57326,1,0,0:0:0:0:
448,192,57326,1,0,0:0:0:0:
64,192,57401,1,0,0:0:0:0:
320,192,57476,1,0,0:0:0:0:
448,192,57476,1,0,0:0:0:0:
192,192,57551,1,0,0:0:0:0:
64,192,57626,1,0,0:0:0:0:
320,192,57626,1,0,0:0:0:0:
448,192,57626,1,0,0:0:0:0:
192,192,57701,1,0,0:0:0:0:
64,192,57776,1,0,0:0:0:0:
448,192,57776,1,0,0:0:0:0:
192,192,57851,1,0,0:0:0:0:
320,192,57851,1,0,0:0:0:0:
64,192,57926,1,0,0:0:0:0:
448,192,57926,1,0,0:0:0:0:
192,192,58001,1,0,0:0:0:0:
320,192,58001,1,0,0:0:0:0:
64,192,58076,1,0,0:0:0:0:
448,192,58076,1,0,0:0:0:0:
192,192,58151,1,0,0:0:0:0:
320,192,58151,1,0,0:0:0:0:
64,192,58226,1,0,0:0:0:0:
448,192,58226,1,0,0:0:0:0:
64,192,58526,1,0,0:0:0:0:
192,192,58526,1,0,0:0:0:0:
448,192,58526,1,0,0:0:0:0:
320,192,58601,1,0,0:0:0:0:
192,192,58676,1,0,0:0:0:0:
448,192,58676,1,0,0:0:0:0:
320,192,58751,1,0,0:0:0:0:
64,192,58826,1,0,0:0:0:0:
192,192,58826,1,0,0:0:0:0:
448,192,58826,1,0,0:0:0:0:
320,192,58901,1,0,0:0:0:0:
192,192,58976,1,0,0:0:0:0:
64,192,59051,1,0,0:0:0:0:
320,192,59126,1,0,0:0:0:0:
448,192,59126,1,0,0:0:0:0:
448,192,59426,1,0,0:0:0:0:
320,192,59501,1,0,0:0:0:0:
192,192,59576,1,0,0:0:0:0:
64,192,59651,1,0,0:0:0:0:
192,192,59726,1,0,0:0:0:0:
320,192,59726,1,0,0:0:0:0:
64,192,60026,1,0,0:0:0:0:
320,192,60026,1,0,0:0:0:0:
192,192,60101,1,0,0:0:0:0:
320,192,60176,1,0,0:0:0:0:
448,192,60251,1,0,0:0:0:0:
64,192,60326,1,0,0:0:0:0:
192,192,60326,1,0,0:0:0:0:
192,192,60626,1,0,0:0:0:0:
320,192,60701,1,0,0:0:0:0:
448,192,60776,1,0,0:0:0:0:
192,192,60851,1,0,0:0:0:0:
64,192,60926,1,0,0:0:0:0:
320,192,60926,1,0,0:0:0:0:
192,192,61226,1,0,0:0:0:0:
320,192,61226,1,0,0:0:0:0:
448,192,61301,1,0,0:0:0:0:
64,192,61376,1,0,0:0:0:0:
192,192,61451,1,0,0:0:0:0:
320,192,61526,1,0,0:0:0:0:
448,192,61526,1,0,0:0:0:0:
192,192,61826,1,0,0:0:0:0:
320,192,61901,1,0,0:0:0:0:
64,192,61976,1,0,0:0:0:0:
192,192,62051,1,0,0:0:0:0:
320,192,62126,1,0,0:0:0:0:
448,192,62126,1,0,0:0:0:0:
64,192,62426,1,0,0:0:0:0:
448,192,62426,1,0,0:0:0:0:
192,192,62501,1,0,0:0:0:0:
448,192,62576,1,0,0:0:0:0:
320,192,62651,1,0,0:0:0:0:
64,192,62726,1,0,0:0:0:0:
192,192,62726,1,0,0:0:0:0:
64,192,63026,1,0,0:0:0:0:
192,192,63101,1,0,0:0:0:0:
448,192,63176,1,0,0:0:0:0:
320,192,63251,1,0,0:0:0:0:
64,192,63326,1,0,0:0:0:0:
192,192,63326,1,0,0:0:0:0:
192,192,63626,1,0,0:0:0:0:
448,192,63626,1,0,0:0:0:0:
320,192,63701,1,0,0:0:0:0:
192,192,63776,1,0,0:0:0:0:
448,192,63851,1,0,0:0:0:0:
64,192,63926,1,0,0:0:0:0:
320,192,63926,1,0,0:0:0:0:
448,192,64226,1,0,0:0:0:0:
320,192,64301,1,0,0:0:0:0:
192,192,64376,1,0,0:0:0:0:
448,192,64451,1,0,0:0:0:0:
64,192,64526,1,0,0:0:0:0:
320,192,64526,1,0,0:0:0:0:
64,192,64826,1,0,0:0:0:0:
320,192,64826,1,0,0:0:0:0:
192,192,64901,1,0,0:0:0:0:
320,192,64976,1,0,0:0:0:0:
448,192,65051,1,0,0:0:0:0:
64,192,65126,1,0,0:0:0:0:
192,192,65126,1,0,0:0:0:0:
64,192,65426,1,0,0:0:0:0:
192,192,65501,1,0,0:0:0:0:
320,192,65576,1,0,0:0:0:0:
448,192,65651,1,0,0:0:0:0:
64,192,65726,1,0,0:0:0:0:
192,192,65726,1,0,0:0:0:0:
64,192,66026,1,0,0:0:0:0:
448,192,66026,1,0,0:0:0:0:
320,192,66101,1,0,0:0:0:0:
192,192,66176,1,0,0:0:0:0:
64,192,66251,1,0,0:0:0:0:
320,192,66326,1,0,0:0:0:0:
448,192,66326,1,0,0:0:0:0:
192,192,66401,1,0,0:0:0:0:
64,192,66476,1,0,0:0:0:0:
448,192,66551,1,0,0:0:0:0:
192,192,66626,1,0,0:0:0:0:
320,192,66626,1,0,0:0:0:0:
64,192,66701,1,0,0:0:0:0:
448,192,66776,1,0,0:0:0:0:
320,192,66851,1,0,0:0:0:0:
64,192,66926,1,0,0:0:0:0:
192,192,66926,1,0,0:0:0:0:
320,192,67001,1,0,0:0:0:0:
192,192,67076,1,0,0:0:0:0:
64,192,67151,1,0,0:0:0:0:
192,192,67226,1,0,0:0:0:0:
448,192,67226,1,0,0:0:0:0:
320,192,67301,1,0,0:0:0:0:
64,192,67376,1,0,0:0:0:0:
192,192,67376,1,0,0:0:0:0:
448,192,67451,1,0,0:0:0:0:
192,192,67526,1,0,0:0:0:0:
320,192,67526,1,0,0:0:0:0:
448,192,67601,1,0,0:0:0:0:
64,192,67676,1,0,0:0:0:0:
320,192,67676,1,0,0:0:0:0:
192,192,67751,1,0,0:0:0:0:
320,192,67826,1,0,0:0:0:0:
448,192,67826,1,0,0:0:0:0:
64,192,67901,1,0,0:0:0:0:
192,192,67976,1,0,0:0:0:0:
448,192,67976,1,0,0:0:0:0:
320,192,68051,1,0,0:0:0:0:
64,192,68126,1,0,0:0:0:0:
192,192,68126,1,0,0:0:0:0:
448,192,68201,1,0,0:0:0:0:
64,192,68276,1,0,0:0:0:0:
320,192,68276,1,0,0:0:0:0:
192,192,68351,1,0,0:0:0:0:
64,192,68426,1,0,0:0:0:0:
320,192,68426,1,0,0:0:0:0:
448,192,68426,1,0,0:0:0:0:
448,192,68626,1,0,0:0:0:0:
64,192,68826,1,0,0:0:0:0:
448,192,68826,1,0,0:0:0:0:
320,192,69026,1,0,0:0:0:0:
192,192,69126,1,0,0:0:0:0:
64,192,69226,1,0,0:0:0:0:
192,192,69426,1,0,0:0:0:0:
448,192,69426,1,0,0:0:0:0:
448,192,69626,1,0,0:0:0:0:
192,192,69726,1,0,0:0:0:0:
320,192,69826,1,0,0:0:0:0:
192,192,70026,1,0,0:0:0:0:
192,192,70226,1,0,0:0:0:0:
320,192,70426,1,0,0:0:0:0:
448,192,70426,1,0,0:0:0:0:
320,192,70626,1,0,0:0:0:0:
64,192,70726,1,0,0:0:0:0:
192,192,70826,1,0,0:0:0:0:
192,192,71026,1,0,0:0:0:0:
320,192,71026,1,0,0:0:0:0:
64,192,71226,1,0,0:0:0:0:
320,192,71326,1,0,0:0:0:0:
448,192,71426,1,0,0:0:0:0:
64,192,71626,1,0,0:0:0:0:
320,192,71626,1,0,0:0:0:0:
320,192,71826,1,0,0:0:0:0:
64,192,72026,1,0,0:0:0:0:
192,192,72026,1,0,0:0:0:0:
448,192,72226,1,0,0:0:0:0:
192,192,72326,1,0,0:0:0:0:
320,192,72426,1,0,0:0:0:0:
192,192,72626,1,0,0:0:0:0:
448,192,72626,1,0,0:0:0:0:
64,192,72826,1,0,0:0:0:0:
448,192,72926,1,0,0:0:0:0:
320,192,73026,1,0,0:0:0:0:
192,192,73226,1,0,0:0:0:0:
192,192,73426,1,0,0:0:0:0:
320,192,73626,1,0,0:0:0:0:
448,192,73626,1,0,0:0:0:0:
192,192,73826,1,0,0:0:0:0:
64,192,73926,1,0,0:0:0:0:
320,192,74026,1,0,0:0:0:0:
448,192,74026,1,0,0:0:0:0:
64,192,74226,1,0,0:0:0:0:
192,192,74226,1,0,0:0:0:0:
448,192,74226,1,0,0:0:0:0:
64,192,74526,1,0,0:0:0:0:
192,192,74526,1,0,0:0:0:0:
448,192,74526,1,0,0:0:0:0:
320,192,74626,1,0,0:0:0:0:
64,192,74826,1,0,0:0:0:0:
192,192,74826,1,0,0:0:0:0:
448,192,74826,1,0,0:0:0:0:
320,192,75026,1,0,0:0:0:0:
192,192,75226,1,0,0:0:0:0:
320,192,75226,1,0,0:0:0:0:
64,192,75426,1,0,0:0:0:0:
448,192,75526,1,0,0:0:0:0:
320,192,75626,1,0,0:0:0:0:
64,192,75826,1,0,0:0:0:0:
192,192,75826,1,0,0:0:0:0:
320,192,76026,1,0,0:0:0:0:
448,192,76126,1,0,0:0:0:0:
64,192,76226,1,0,0:0:0:0:
64,192,76426,1,0,0:0:0:0:
192,192,76426,1,0,0:0:0:0:
448,192,76426,1,0,0:0:0:0:
192,192,76626,1,0,0:0:0:0:
64,192,76826,1,0,0:0:0:0:
192,192,76826,1,0,0:0:0:0:
320,192,77026,1,0,0:0:0:0:
448,192,77126,1,0,0:0:0:0:
192,192,77226,1,0,0:0:0:0:
320,192,77426,1,0,0:0:0:0:
448,192,77426,1,0,0:0:0:0:
64,192,77626,1,0,0:0:0:0:
320,192,77726,1,0,0:0:0:0:
192,192,77826,1,0,0:0:0:0:
192,192,78026,1,0,0:0:0:0:
320,192,78026,1,0,0:0:0:0:
448,192,78026,1,0,0:0:0:0:
64,192,78226,1,0,0:0:0:0:
192,192,78426,1,0,0:0:0:0:
320,192,78426,1,0,0:0:0:0:
320,192,78626,1,0,0:0:0:0:
64,192,78726,1,0,0:0:0:0:
192,192,78826,1,0,0:0:0:0:
320,192,78826,1,0,0:0:0:0:
448,192,78826,1,0,0:0:0:0:
320,192,79026,1,0,0:0:0:0:
192,192,79226,1,0,0:0:0:0:
448,192,79226,1,0,0:0:0:0:
320,192,79326,1,0,0:0:0:0:
64,192,79426,1,0,0:0:0:0:
64,192,79626,1,0,0:0:0:0:
192,192,79626,1,0,0:0:0:0:
448,192,79626,1,0,0:0:0:0:
192,192,79826,1,0,0:0:0:0:
448,192,79826,1,0,0:0:0:0:
64,192,80026,1,0,0:0:0:0:
192,192,80026,1,0,0:0:0:0:
448,192,80026,1,0,0:0:0:0:
192,192,80226,1,0,0:0:0:0:
448,192,80226,1,0,0:0:0:0:
64,192,80426,1,0,0:0:0:0:
192,192,80426,1,0,0:0:0:0:
448,192,80426,1,0,0:0:0:0:
320,192,80526,1,0,0:0:0:0:
192,192,80626,1,0,0:0:0:0:
448,192,80626,1,0,0:0:0:0:
320,192,80726,1,0,0:0:0:0:
64,192,80826,1,0,0:0:0:0:
192,192,80826,1,0,0:0:0:0:
448,192,80826,1,0,0:0:0:0:
320,192,80926,1,0,0:0:0:0:
192,192,81026,1,0,0:0:0:0:
448,192,81026,1,0,0:0:0:0:
320,192,81126,1,0,0:0:0:0:
192,0,81226,128,0,82626:1:0:0:0:
320,192,85426,1,0,0:0:0:0:
448,192,85426,1,0,0:0:0:0:
64,192,85492,1,0,0:0:0:0:
192,192,85492,1,0,0:0:0:0:
320,192,85559,1,0,0:0:0:0:
448,192,85559,1,0,0:0:0:0:
192,192,85626,1,0,0:0:0:0:
64,192,85726,1,0,0:0:0:0:
192,192,85751,1,0,0:0:0:0:
320,192,85776,1,0,0:0:0:0:
448,192,85801,1,0,0:0:0:0:
64,192,85826,1,0,0:0:0:0:
192,192,85851,1,0,0:0:0:0:
320,192,85876,1,0,0:0:0:0:
448,192,85901,1,0,0:0:0:0:
64,192,85926,1,0,0:0:0:0:
192,192,85951,1,0,0:0:0:0:
320,192,85976,1,0,0:0:0:0:
448,192,86001,1,0,0:0:0:0:
64,192,86026,1,0,0:0:0:0:
192,192,86026,1,0,0:0:0:0:
320,192,86101,1,0,0:0:0:0:
192,192,86176,1,0,0:0:0:0:
448,192,86176,1,0,0:0:0:0:
64,192,86251,1,0,0:0:0:0:
192,192,86326,1,0,0:0:0:0:
320,192,86326,1,0,0:0:0:0:
448,192,86401,1,0,0:0:0:0:
64,192,86476,1,0,0:0:0:0:
320,192,86476,1,0,0:0:0:0:
192,192,86551,1,0,0:0:0:0:
320,192,86626,1,0,0:0:0:0:
448,192,86626,1,0,0:0:0:0:
64,192,86701,1,0,0:0:0:0:
192,192,86776,1,0,0:0:0:0:
320,192,86776,1,0,0:0:0:0:
448,192,86851,1,0,0:0:0:0:
64,192,86926,1,0,0:0:0:0:
320,192,86926,1,0,0:0:0:0:
192,192,87001,1,0,0:0:0:0:
320,192,87076,1,0,0:0:0:0:
448,192,87076,1,0,0:0:0:0:
64,192,87151,1,0,0:0:0:0:
192,192,87226,1,0,0:0:0:0:
448,192,87226,1,0,0:0:0:0:
320,192,87301,1,0,0:0:0:0:
64,192,87376,1,0,0:0:0:0:
448,192,87376,1,0,0:0:0:0:
192,192,87451,1,0,0:0:0:0:
320,192,87526,1,0,0:0:0:0:
448,192,87526,1,0,0:0:0:0:
64,192,87601,1,0,0:0:0:0:
192,192,87676,1,0,0:0:0:0:
448,192,87676,1,0,0:0:0:0:
320,192,87751,1,0,0:0:0:0:
64,192,87826,1,0,0:0:0:0:
192,192,87826,1,0,0:0:0:0:
448,192,87901,1,0,0:0:0:0:
192,192,87976,1,0,0:0:0:0:
320,192,87976,1,0,0:0:0:0:
64,192,88051,1,0,0:0:0:0:
320,192,88126,1,0,0:0:0:0:
448,192,88126,1,0,0:0:0:0:
64,192,88201,1,0,0:0:0:0:
192,192,88201,1,0,0:0:0:0:
320,192,88276,1,0,0:0:0:0:
448,192,88276,1,0,0:0:0:0:
64,192,88351,1,0,0:0:0:0:
192,192,88351,1,0,0:0:0:0:
320,192,88426,1,0,0:0:0:0:
448,192,88426,1,0,0:0:0:0:
192,192,88501,1,0,0:0:0:0:
64,192,88576,1,0,0:0:0:0:
320,192,88576,1,0,0:0:0:0:
192,192,88651,1,0,0:0:0:0:
320,192,88726,1,0,0:0:0:0:
448,192,88726,1,0,0:0:0:0:
64,192,88801,1,0,0:0:0:0:
192,192,88876,1,0,0:0:0:0:
320,192,88876,1,0,0:0:0:0:
448,192,88951,1,0,0:0:0:0:
64,192,89026,1,0,0:0:0:0:
192,192,89026,1,0,0:0:0:0:
320,192,89101,1,0,0:0:0:0:
64,192,89176,1,0,0:0:0:0:
448,192,89176,1,0,0:0:0:0:
192,192,89251,1,0,0:0:0:0:
320,192,89326,1,0,0:0:0:0:
448,192,89326,1,0,0:0:0:0:
64,192,89401,1,0,0:0:0:0:
320,192,89476,1,0,0:0:0:0:
448,192,89476,1,0,0:0:0:0:
192,192,89551,1,0,0:0:0:0:
64,192,89626,1,0,0:0:0:0:
320,192,89626,1,0,0:0:0:0:
192,192,89701,1,0,0:0:0:0:
320,192,89776,1,0,0:0:0:0:
448,192,89776,1,0,0:0:0:0:
64,192,89851,1,0,0:0:0:0:
192,192,89926,1,0,0:0:0:0:
320,192,89926,1,0,0:0:0:0:
64,192,90001,1,0,0:0:0:0:
320,192,90076,1,0,0:0:0:0:
448,192,90076,1,0,0:0:0:0:
192,192,90151,1,0,0:0:0:0:
320,192,90226,1,0,0:0:0:0:
448,192,90226,1,0,0:0:0:0:
64,192,90301,1,0,0:0:0:0:
192,192,90301,1,0,0:0:0:0:
320,192,90376,1,0,0:0:0:0:
448,192,90376,1,0,0:0:0:0:
192,192,90451,1,0,0:0:0:0:
64,192,90526,1,0,0:0:0:0:
320,192,90526,1,0,0:0:0:0:
192,192,90601,1,0,0:0:0:0:
448,192,90601,1,0,0:0:0:0:
64,192,90676,1,0,0:0:0:0:
320,192,90676,1,0,0:0:0:0:
192,192,90751,1,0,0:0:0:0:
448,192,90751,1,0,0:0:0:0:
64,192,90826,1,0,0:0:0:0:
320,192,90826,1,0,0:0:0:0:
448,192,90901,1,0,0:0:0:0:
192,192,90976,1,0,0:0:0:0:
320,192,90976,1,0,0:0:0:0:
64,192,91051,1,0,0:0:0:0:
