osu file format v14

[General]
AudioFilename: z6_1.25.mp3
AudioLeadIn: 0
PreviewTime: 0
Countdown: 0
SampleSet: None
StackLeniency: 0.7
Mode: 3
LetterboxInBreaks: 1
SpecialStyle: 0
WidescreenStoryboard: 0

[Editor]
DistanceSpacing: 0.8
BeatDivisor: 12
GridSize: 16
TimelineZoom: 1

[Metadata]
Title:Z6
TitleUnicode:Z6
Artist:Gear Project
ArtistUnicode:Gear Project
Creator:booty
Version:Challenge x1.25
Source:SM
Tags:
BeatmapID:1566274
BeatmapSetID:742590

[Difficulty]
HPDrainRate:7
CircleSize:4
OverallDifficulty:7
ApproachRate:5
SliderMultiplier:1.4
SliderTickRate:1

[Events]
//Background and Video events
0,0,"Z6-BG.jpg",0,0
//Break Periods
//Storyboard Layer 0 (Background)
//Storyboard Layer 1 (Fail)
//Storyboard Layer 2 (Pass)
//Storyboard Layer 3 (Foreground)
//Storyboard Sound Samples

[TimingPoints]
0,240,4,1,0,0,1,0

[HitObjects]
64,192,20,5,0,0:0:0:0:
448,192,20,1,0,0:0:0:0:
192,192,80,1,0,0:0:0:0:
320,192,140,1,0,0:0:0:0:
192,192,200,1,0,0:0:0:0:
448,192,260,1,0,0:0:0:0:
192,192,320,1,0,0:0:0:0:
320,192,380,1,0,0:0:0:0:
192,192,440,1,0,0:0:0:0:
64,192,500,1,0,0:0:0:0:
448,192,500,1,0,0:0:0:0:
192,192,560,1,0,0:0:0:0:
320,192,620,1,0,0:0:0:0:
192,192,680,1,0,0:0:0:0:
448,192,680,1,0,0:0:0:0:
320,192,740,1,0,0:0:0:0:
64,192,800,1,0,0:0:0:0:
192,192,860,1,0,0:0:0:0:
448,192,860,1,0,0:0:0:0:
320,192,920,1,0,0:0:0:0:
64,192,980,1,0,0:0:0:0:
192,192,980,1,0,0:0:0:0:
320,192,1040,1,0,0:0:0:0:
192,192,1100,1,0,0:0:0:0:
320,192,1160,1,0,0:0:0:0:
64,192,1220,1,0,0:0:0:0:
320,192,1280,1,0,0:0:0:0:
192,192,1340,1,0,0:0:0:0:
320,192,1400,1,0,0:0:0:0:
64,192,1460,1,0,0:0:0:0:
448,192,1460,1,0,0:0:0:0:
320,192,1520,1,0,0:0:0:0:
448,192,1580,1,0,0:0:0:0:
64,192,1640,1,0,0:0:0:0:
192,192,1640,1,0,0:0:0:0:
320,192,1700,1,0,0:0:0:0:
192,192,1760,1,0,0:0:0:0:
320,192,1820,1,0,0:0:0:0:
448,192,1820,1,0,0:0:0:0:
64,192,1880,1,0,0:0:0:0:
192,192,1880,1,0,0:0:0:0:
320,192,1940,1,0,0:0:0:0:
448,192,1940,1,0,0:0:0:0:
64,192,2000,1,0,0:0:0:0:
320,192,2060,1,0,0:0:0:0:
64,192,2120,1,0,0:0:0:0:
448,192,2180,1,0,0:0:0:0:
64,192,2240,1,0,0:0:0:0:
320,192,2300,1,0,0:0:0:0:
64,192,2360,1,0,0:0:0:0:
320,192,2420,1,0,0:0:0:0:
448,192,2420,1,0,0:0:0:0:
192,192,2480,1,0,0:0:0:0:
64,192,2540,1,0,0:0:0:0:
192,192,2600,1,0,0:0:0:0:
448,192,2600,1,0,0:0:0:0:
320,192,2660,1,0,0:0:0:0:
192,192,2720,1,0,0:0:0:0:
64,192,2780,1,0,0:0:0:0:
448,192,2780,1,0,0:0:0:0:
192,192,2840,1,0,0:0:0:0:
320,192,2900,1,0,0:0:0:0:
448,192,2900,1,0,0:0:0:0:
192,192,2960,1,0,0:0:0:0:
320,192,3020,1,0,0:0:0:0:
448,192,3020,1,0,0:0:0:0:
192,192,3080,1,0,0:0:0:0:
320,192,3140,1,0,0:0:0:0:
448,192,3140,1,0,0:0:0:0:
192,192,3200,1,0,0:0:0:0:
320,192,3260,1,0,0:0:0:0:
448,192,3260,1,0,0:0:0:0:
192,192,3320,1,0,0:0:0:0:
320,192,3380,1,0,0:0:0:0:
448,192,3380,1,0,0:0:0:0:
192,192,3440,1,0,0:0:0:0:
320,192,3500,1,0,0:0:0:0:
448,192,3500,1,0,0:0:0:0:
192,192,3560,1,0,0:0:0:0:
320,192,3620,1,0,0:0:0:0:
448,192,3620,1,0,0:0:0:0:
64,192,3680,1,0,0:0:0:0:
192,192,3680,1,0,0:0:0:0:
320,192,3740,1,0,0:0:0:0:
448,192,3740,1,0,0:0:0:0:
64,192,3800,1,0,0:0:0:0:
192,192,3800,1,0,0:0:0:0:
320,192,3860,1,0,0:0:0:0:
448,192,3860,1,0,0:0:0:0:
192,192,3920,1,0,0:0:0:0:
320,192,3980,1,0,0:0:0:0:
192,192,4040,1,0,0:0:0:0:
448,192,4100,1,0,0:0:0:0:
192,192,4160,1,0,0:0:0:0:
320,192,4220,1,0,0:0:0:0:
192,192,4280,1,0,0:0:0:0:
64,192,4340,1,0,0:0:0:0:
448,192,4340,1,0,0:0:0:0:
320,192,4400,1,0,0:0:0:0:
192,192,4460,1,0,0:0:0:0:
64,192,4520,1,0,0:0:0:0:
448,192,4520,1,0,0:0:0:0:
320,192,4580,1,0,0:0:0:0:
192,192,4640,1,0,0:0:0:0:
64,192,4700,1,0,0:0:0:0:
320,192,4700,1,0,0:0:0:0:
448,192,4760,1,0,0:0:0:0:
64,192,4820,1,0,0:0:0:0:
192,192,4820,1,0,0:0:0:0:
320,192,4880,1,0,0:0:0:0:
64,192,4940,1,0,0:0:0:0:
320,192,5000,1,0,0:0:0:0:
192,192,5060,1,0,0:0:0:0:
320,192,5120,1,0,0:0:0:0:
64,192,5180,1,0,0:0:0:0:
320,192,5240,1,0,0:0:0:0:
192,192,5300,1,0,0:0:0:0:
448,192,5300,1,0,0:0:0:0:
320,192,5360,1,0,0:0:0:0:
192,192,5420,1,0,0:0:0:0:
64,192,5480,1,0,0:0:0:0:
320,192,5480,1,0,0:0:0:0:
448,192,5540,1,0,0:0:0:0:
320,192,5600,1,0,0:0:0:0:
64,192,5660,1,0,0:0:0:0:
192,192,5660,1,0,0:0:0:0:
320,192,5720,1,0,0:0:0:0:
448,192,5720,1,0,0:0:0:0:
64,192,5780,1,0,0:0:0:0:
192,192,5780,1,0,0:0:0:0:
320,192,5840,1,0,0:0:0:0:
192,192,5900,1,0,0:0:0:0:
320,192,5960,1,0,0:0:0:0:
64,192,6020,1,0,0:0:0:0:
320,192,6080,1,0,0:0:0:0:
192,192,6140,1,0,0:0:0:0:
320,192,6200,1,0,0:0:0:0:
64,192,6260,1,0,0:0:0:0:
448,192,6260,1,0,0:0:0:0:
320,192,6320,1,0,0:0:0:0:
192,192,6380,1,0,0:0:0:0:
64,192,6440,1,0,0:0:0:0:
320,192,6440,1,0,0:0:0:0:
448,192,6500,1,0,0:0:0:0:
320,192,6560,1,0,0:0:0:0:
192,192,6620,1,0,0:0:0:0:
448,192,6620,1,0,0:0:0:0:
320,192,6680,1,0,0:0:0:0:
64,192,6740,1,0,0:0:0:0:
192,192,6740,1,0,0:0:0:0:
320,192,6800,1,0,0:0:0:0:
64,192,6860,1,0,0:0:0:0:
192,192,6860,1,0,0:0:0:0:
320,192,6920,1,0,0:0:0:0:
64,192,6980,1,0,0:0:0:0:
192,192,6980,1,0,0:0:0:0:
320,192,7040,1,0,0:0:0:0:
64,192,7100,1,0,0:0:0:0:
192,192,7100,1,0,0:0:0:0:
320,192,7160,1,0,0:0:0:0:
64,192,7220,1,0,0:0:0:0:
192,192,7220,1,0,0:0:0:0:
320,192,7280,1,0,0:0:0:0:
64,192,7340,1,0,0:0:0:0:
192,192,7340,1,0,0:0:0:0:
320,192,7400,1,0,0:0:0:0:
64,192,7460,1,0,0:0:0:0:
192,192,7460,1,0,0:0:0:0:
320,192,7520,1,0,0:0:0:0:
448,192,7520,1,0,0:0:0:0:
64,192,7580,1,0,0:0:0:0:
192,192,7580,1,0,0:0:0:0:
320,192,7640,1,0,0:0:0:0:
448,192,7640,1,0,0:0:0:0:
64,192,7700,1,0,0:0:0:0:
192,0,7700,128,0,8060:1:0:0:0:
64,192,8180,1,0,0:0:0:0:
320,192,8180,1,0,0:0:0:0:
192,192,8240,1,0,0:0:0:0:
448,192,8240,1,0,0:0:0:0:
64,192,8300,1,0,0:0:0:0:
320,192,8300,1,0,0:0:0:0:
192,192,8360,1,0,0:0:0:0:
448,192,8420,1,0,0:0:0:0:
320,192,8440,1,0,0:0:0:0:
192,192,8460,1,0,0:0:0:0:
64,192,8480,1,0,0:0:0:0:
448,192,8500,1,0,0:0:0:0:
320,192,8520,1,0,0:0:0:0:
192,192,8540,1,0,0:0:0:0:
64,192,8560,1,0,0:0:0:0:
448,192,8580,1,0,0:0:0:0:
320,192,8600,1,0,0:0:0:0:
192,192,8620,1,0,0:0:0:0:
64,192,8640,1,0,0:0:0:0:
320,192,8660,1,0,0:0:0:0:
448,192,8660,1,0,0:0:0:0:
192,192,8720,1,0,0:0:0:0:
64,192,8780,1,0,0:0:0:0:
320,192,8780,1,0,0:0:0:0:
192,192,8840,1,0,0:0:0:0:
64,192,8900,1,0,0:0:0:0:
448,192,8900,1,0,0:0:0:0:
320,192,8960,1,0,0:0:0:0:
64,192,9020,1,0,0:0:0:0:
192,192,9020,1,0,0:0:0:0:
320,192,9080,1,0,0:0:0:0:
192,192,9140,1,0,0:0:0:0:
448,192,9140,1,0,0:0:0:0:
64,192,9200,1,0,0:0:0:0:
320,192,9260,1,0,0:0:0:0:
448,192,9260,1,0,0:0:0:0:
64,192,9320,1,0,0:0:0:0:
192,192,9380,1,0,0:0:0:0:
320,192,9380,1,0,0:0:0:0:
448,192,9440,1,0,0:0:0:0:
64,192,9500,1,0,0:0:0:0:
320,192,9500,1,0,0:0:0:0:
192,192,9560,1,0,0:0:0:0:
320,192,9620,1,0,0:0:0:0:
448,192,9620,1,0,0:0:0:0:
64,192,9680,1,0,0:0:0:0:
192,192,9740,1,0,0:0:0:0:
320,192,9740,1,0,0:0:0:0:
448,192,9800,1,0,0:0:0:0:
64,192,9860,1,0,0:0:0:0:
320,192,9860,1,0,0:0:0:0:
192,192,9920,1,0,0:0:0:0:
320,192,9980,1,0,0:0:0:0:
448,192,9980,1,0,0:0:0:0:
64,192,10040,1,0,0:0:0:0:
192,192,10100,1,0,0:0:0:0:
320,192,10100,1,0,0:0:0:0:
448,192,10160,1,0,0:0:0:0:
64,192,10220,1,0,0:0:0:0:
320,192,10220,1,0,0:0:0:0:
192,192,10280,1,0,0:0:0:0:
320,192,10340,1,0,0:0:0:0:
448,192,10340,1,0,0:0:0:0:
64,192,10400,1,0,0:0:0:0:
192,192,10400,1,0,0:0:0:0:
320,192,10460,1,0,0:0:0:0:
448,192,10460,1,0,0:0:0:0:
64,192,10520,1,0,0:0:0:0:
192,192,10520,1,0,0:0:0:0:
320,192,10580,1,0,0:0:0:0:
448,192,10580,1,0,0:0:0:0:
64,192,10640,1,0,0:0:0:0:
192,192,10700,1,0,0:0:0:0:
320,192,10700,1,0,0:0:0:0:
448,192,10760,1,0,0:0:0:0:
64,192,10820,1,0,0:0:0:0:
192,192,10820,1,0,0:0:0:0:
320,192,10880,1,0,0:0:0:0:
192,192,10940,1,0,0:0:0:0:
448,192,10940,1,0,0:0:0:0:
64,192,11000,1,0,0:0:0:0:
320,192,11060,1,0,0:0:0:0:
448,192,11060,1,0,0:0:0:0:
192,192,11120,1,0,0:0:0:0:
64,192,11180,1,0,0:0:0:0:
448,192,11180,1,0,0:0:0:0:
320,192,11240,1,0,0:0:0:0:
64,192,11300,1,0,0:0:0:0:
192,192,11300,1,0,0:0:0:0:
448,192,11360,1,0,0:0:0:0:
192,192,11420,1,0,0:0:0:0:
320,192,11420,1,0,0:0:0:0:
64,192,11480,1,0,0:0:0:0:
320,192,11540,1,0,0:0:0:0:
448,192,11540,1,0,0:0:0:0:
192,192,11600,1,0,0:0:0:0:
64,192,11660,1,0,0:0:0:0:
448,192,11660,1,0,0:0:0:0:
320,192,11720,1,0,0:0:0:0:
64,192,11780,1,0,0:0:0:0:
192,192,11780,1,0,0:0:0:0:
448,192,11840,1,0,0:0:0:0:
192,192,11900,1,0,0:0:0:0:
320,192,11900,1,0,0:0:0:0:
64,192,11960,1,0,0:0:0:0:
320,192,12020,1,0,0:0:0:0:
448,192,12020,1,0,0:0:0:0:
64,192,12080,1,0,0:0:0:0:
192,192,12080,1,0,0:0:0:0:
320,192,12140,1,0,0:0:0:0:
448,192,12140,1,0,0:0:0:0:
192,192,12200,1,0,0:0:0:0:
64,192,12260,1,0,0:0:0:0:
448,192,12260,1,0,0:0:0:0:
192,192,12320,1,0,0:0:0:0:
320,192,12320,1,0,0:0:0:0:
64,192,12380,1,0,0:0:0:0:
448,192,12380,1,0,0:0:0:0:
192,192,12440,1,0,0:0:0:0:
320,192,12440,1,0,0:0:0:0:
64,192,12500,1,0,0:0:0:0:
448,192,12500,1,0,0:0:0:0:
320,192,12560,1,0,0:0:0:0:
64,192,12620,1,0,0:0:0:0:
192,192,12620,1,0,0:0:0:0:
448,192,12680,1,0,0:0:0:0:
192,192,12740,1,0,0:0:0:0:
320,192,12740,1,0,0:0:0:0:
64,192,12800,1,0,0:0:0:0:
320,192,12860,1,0,0:0:0:0:
448,192,12860,1,0,0:0:0:0:
192,192,12920,1,0,0:0:0:0:
64,192,12980,1,0,0:0:0:0:
320,192,12980,1,0,0:0:0:0:
192,192,13040,1,0,0:0:0:0:
320,192,13100,1,0,0:0:0:0:
448,192,13100,1,0,0:0:0:0:
64,192,13160,1,0,0:0:0:0:
192,192,13220,1,0,0:0:0:0:
320,192,13220,1,0,0:0:0:0:
448,192,13280,1,0,0:0:0:0:
64,192,13340,1,0,0:0:0:0:
320,192,13340,1,0,0:0:0:0:
192,192,13400,1,0,0:0:0:0:
320,192,13460,1,0,0:0:0:0:
448,192,13460,1,0,0:0:0:0:
192,192,13520,1,0,0:0:0:0:
64,192,13580,1,0,0:0:0:0:
448,192,13580,1,0,0:0:0:0:
320,192,13640,1,0,0:0:0:0:
64,192,13700,1,0,0:0:0:0:
192,192,13700,1,0,0:0:0:0:
320,192,13760,1,0,0:0:0:0:
192,192,13820,1,0,0:0:0:0:
448,192,13820,1,0,0:0:0:0:
64,192,13880,1,0,0:0:0:0:
320,192,13940,1,0,0:0:0:0:
448,192,13940,1,0,0:0:0:0:
192,192,14000,1,0,0:0:0:0:
64,192,14060,1,0,0:0:0:0:
320,192,14060,1,0,0:0:0:0:
448,192,14120,1,0,0:0:0:0:
192,192,14180,1,0,0:0:0:0:
320,192,14180,1,0,0:0:0:0:
64,192,14240,1,0,0:0:0:0:
448,192,14240,1,0,0:0:0:0:
192,192,14300,1,0,0:0:0:0:
320,192,14300,1,0,0:0:0:0:
64,192,14360,1,0,0:0:0:0:
448,192,14360,1,0,0:0:0:0:
192,192,14420,1,0,0:0:0:0:
320,192,14420,1,0,0:0:0:0:
64,192,14480,1,0,0:0:0:0:
320,192,14540,1,0,0:0:0:0:
448,192,14540,1,0,0:0:0:0:
192,192,14600,1,0,0:0:0:0:
64,192,14660,1,0,0:0:0:0:
320,192,14660,1,0,0:0:0:0:
448,192,14720,1,0,0:0:0:0:
192,192,14780,1,0,0:0:0:0:
320,192,14780,1,0,0:0:0:0:
448,192,14840,1,0,0:0:0:0:
64,192,14900,1,0,0:0:0:0:
320,192,14900,1,0,0:0:0:0:
192,192,14960,1,0,0:0:0:0:
320,192,15020,1,0,0:0:0:0:
448,192,15020,1,0,0:0:0:0:
192,192,15080,1,0,0:0:0:0:
64,192,15140,1,0,0:0:0:0:
320,192,15140,1,0,0:0:0:0:
448,192,15200,1,0,0:0:0:0:
64,192,15260,1,0,0:0:0:0:
320,192,15260,1,0,0:0:0:0:
192,192,15320,1,0,0:0:0:0:
320,192,15380,1,0,0:0:0:0:
448,192,15380,1,0,0:0:0:0:
64,192,15440,1,0,0:0:0:0:
192,192,15440,1,0,0:0:0:0:
320,192,15500,1,0,0:0:0:0:
448,192,15500,1,0,0:0:0:0:
192,192,15620,1,0,0:0:0:0:
320,192,15620,1,0,0:0:0:0:
64,192,15740,1,0,0:0:0:0:
320,192,15740,1,0,0:0:0:0:
192,192,15800,1,0,0:0:0:0:
448,192,15800,1,0,0:0:0:0:
64,192,15860,1,0,0:0:0:0:
320,192,15860,1,0,0:0:0:0:
192,192,15920,1,0,0:0:0:0:
448,192,15920,1,0,0:0:0:0:
64,192,15980,1,0,0:0:0:0:
320,192,15980,1,0,0:0:0:0:
192,192,16040,1,0,0:0:0:0:
448,192,16040,1,0,0:0:0:0:
64,192,16100,1,0,0:0:0:0:
320,192,16100,1,0,0:0:0:0:
192,192,16160,1,0,0:0:0:0:
448,192,16160,1,0,0:0:0:0:
64,192,16220,1,0,0:0:0:0:
320,192,16220,1,0,0:0:0:0:
192,192,16280,1,0,0:0:0:0:
448,192,16280,1,0,0:0:0:0:
64,192,16340,1,0,0:0:0:0:
320,192,16340,1,0,0:0:0:0:
192,192,16400,1,0,0:0:0:0:
320,192,16460,1,0,0:0:0:0:
448,192,16460,1,0,0:0:0:0:
64,192,16520,1,0,0:0:0:0:
320,192,16580,1,0,0:0:0:0:
448,192,16580,1,0,0:0:0:0:
192,192,16640,1,0,0:0:0:0:
64,192,16700,1,0,0:0:0:0:
448,192,16700,1,0,0:0:0:0:
320,192,16760,1,0,0:0:0:0:
64,192,16820,1,0,0:0:0:0:
192,192,16820,1,0,0:0:0:0:
320,192,16880,1,0,0:0:0:0:
192,192,16940,1,0,0:0:0:0:
448,192,16940,1,0,0:0:0:0:
64,192,17000,1,0,0:0:0:0:
192,192,17060,1,0,0:0:0:0:
320,192,17060,1,0,0:0:0:0:
448,192,17120,1,0,0:0:0:0:
64,192,17180,1,0,0:0:0:0:
192,192,17180,1,0,0:0:0:0:
448,192,17240,1,0,0:0:0:0:
192,192,17300,1,0,0:0:0:0:
320,192,17300,1,0,0:0:0:0:
64,192,17360,1,0,0:0:0:0:
320,192,17420,1,0,0:0:0:0:
448,192,17420,1,0,0:0:0:0:
192,192,17480,1,0,0:0:0:0:
320,192,17540,1,0,0:0:0:0:
448,192,17540,1,0,0:0:0:0:
64,192,17600,1,0,0:0:0:0:
192,192,17660,1,0,0:0:0:0:
320,192,17660,1,0,0:0:0:0:
64,192,17720,1,0,0:0:0:0:
320,192,17780,1,0,0:0:0:0:
448,192,17780,1,0,0:0:0:0:
192,192,17840,1,0,0:0:0:0:
64,192,17900,1,0,0:0:0:0:
448,192,17900,1,0,0:0:0:0:
320,192,17960,1,0,0:0:0:0:
64,192,18020,1,0,0:0:0:0:
192,192,18020,1,0,0:0:0:0:
320,192,18080,1,0,0:0:0:0:
448,192,18080,1,0,0:0:0:0:
64,192,18140,1,0,0:0:0:0:
192,192,18140,1,0,0:0:0:0:
320,192,18200,1,0,0:0:0:0:
448,192,18200,1,0,0:0:0:0:
64,192,18260,1,0,0:0:0:0:
192,192,18260,1,0,0:0:0:0:
320,192,18320,1,0,0:0:0:0:
192,192,18380,1,0,0:0:0:0:
448,192,18380,1,0,0:0:0:0:
320,192,18440,1,0,0:0:0:0:
64,192,18500,1,0,0:0:0:0:
448,192,18500,1,0,0:0:0:0:
192,192,18560,1,0,0:0:0:0:
64,192,18620,1,0,0:0:0:0:
320,192,18620,1,0,0:0:0:0:
192,192,18680,1,0,0:0:0:0:
320,192,18740,1,0,0:0:0:0:
448,192,18740,1,0,0:0:0:0:
64,192,18800,1,0,0:0:0:0:
192,192,18860,1,0,0:0:0:0:
320,192,18860,1,0,0:0:0:0:
64,192,18920,1,0,0:0:0:0:
320,192,18980,1,0,0:0:0:0:
448,192,18980,1,0,0:0:0:0:
192,192,19040,1,0,0:0:0:0:
64,192,19100,1,0,0:0:0:0:
320,192,19100,1,0,0:0:0:0:
448,192,19160,1,0,0:0:0:0:
192,192,19220,1,0,0:0:0:0:
320,192,19220,1,0,0:0:0:0:
64,192,19280,1,0,0:0:0:0:
320,192,19340,1,0,0:0:0:0:
448,192,19340,1,0,0:0:0:0:
64,192,19400,1,0,0:0:0:0:
192,192,19460,1,0,0:0:0:0:
320,192,19460,1,0,0:0:0:0:
448,192,19520,1,0,0:0:0:0:
64,192,19580,1,0,0:0:0:0:
192,192,19580,1,0,0:0:0:0:
320,192,19640,1,0,0:0:0:0:
64,192,19700,1,0,0:0:0:0:
448,192,19700,1,0,0:0:0:0:
192,192,19760,1,0,0:0:0:0:
320,192,19760,1,0,0:0:0:0:
64,192,19820,1,0,0:0:0:0:
448,192,19820,1,0,0:0:0:0:
192,192,19880,1,0,0:0:0:0:
320,192,19940,1,0,0:0:0:0:
448,192,19940,1,0,0:0:0:0:
64,192,20000,1,0,0:0:0:0:
192,192,20000,1,0,0:0:0:0:
320,192,20060,1,0,0:0:0:0:
448,192,20060,1,0,0:0:0:0:
192,192,20120,1,0,0:0:0:0:
64,192,20180,1,0,0:0:0:0:
320,192,20180,1,0,0:0:0:0:
448,192,20180,1,0,0:0:0:0:
192,192,20240,1,0,0:0:0:0:
320,192,20300,1,0,0:0:0:0:
448,192,20300,1,0,0:0:0:0:
64,192,20360,1,0,0:0:0:0:
192,192,20420,1,0,0:0:0:0:
320,192,20420,1,0,0:0:0:0:
64,192,20480,1,0,0:0:0:0:
320,192,20540,1,0,0:0:0:0:
448,192,20540,1,0,0:0:0:0:
192,192,20600,1,0,0:0:0:0:
64,192,20660,1,0,0:0:0:0:
320,192,20660,1,0,0:0:0:0:
448,192,20720,1,0,0:0:0:0:
64,192,20780,1,0,0:0:0:0:
320,192,20780,1,0,0:0:0:0:
192,192,20840,1,0,0:0:0:0:
64,192,20900,1,0,0:0:0:0:
448,192,20900,1,0,0:0:0:0:
320,192,20960,1,0,0:0:0:0:
192,192,21020,1,0,0:0:0:0:
448,192,21020,1,0,0:0:0:0:
64,192,21080,1,0,0:0:0:0:
192,192,21140,1,0,0:0:0:0:
320,192,21140,1,0,0:0:0:0:
448,192,21140,1,0,0:0:0:0:
64,192,21200,1,0,0:0:0:0:
320,192,21260,1,0,0:0:0:0:
448,192,21260,1,0,0:0:0:0:
192,192,21320,1,0,0:0:0:0:
64,192,21380,1,0,0:0:0:0:
320,192,21380,1,0,0:0:0:0:
448,192,21440,1,0,0:0:0:0:
192,192,21500,1,0,0:0:0:0:
320,192,21500,1,0,0:0:0:0:
448,192,21560,1,0,0:0:0:0:
64,192,21620,1,0,0:0:0:0:
192,192,21620,1,0,0:0:0:0:
320,192,21680,1,0,0:0:0:0:
64,192,21740,1,0,0:0:0:0:
448,192,21740,1,0,0:0:0:0:
192,192,21800,1,0,0:0:0:0:
320,192,21860,1,0,0:0:0:0:
448,192,21860,1,0,0:0:0:0:
64,192,21920,1,0,0:0:0:0:
192,192,21920,1,0,0:0:0:0:
320,192,21980,1,0,0:0:0:0:
448,192,21980,1,0,0:0:0:0:
192,192,22040,1,0,0:0:0:0:
64,192,22100,1,0,0:0:0:0:
320,192,22100,1,0,0:0:0:0:
448,192,22100,1,0,0:0:0:0:
192,192,22160,1,0,0:0:0:0:
320,192,22220,1,0,0:0:0:0:
448,192,22220,1,0,0:0:0:0:
64,192,22280,1,0,0:0:0:0:
192,192,22340,1,0,0:0:0:0:
448,192,22340,1,0,0:0:0:0:
320,192,22400,1,0,0:0:0:0:
64,192,22460,1,0,0:0:0:0:
192,192,22460,1,0,0:0:0:0:
448,192,22520,1,0,0:0:0:0:
64,192,22580,1,0,0:0:0:0:
192,192,22580,1,0,0:0:0:0:
320,192,22580,1,0,0:0:0:0:
448,192,22640,1,0,0:0:0:0:
192,192,22700,1,0,0:0:0:0:
320,192,22700,1,0,0:0:0:0:
64,192,22760,1,0,0:0:0:0:
320,192,22820,1,0,0:0:0:0:
448,192,22820,1,0,0:0:0:0:
192,192,22880,1,0,0:0:0:0:
64,192,22940,1,0,0:0:0:0:
320,192,22940,1,0,0:0:0:0:
448,192,23000,1,0,0:0:0:0:
64,192,23060,1,0,0:0:0:0:
192,192,23060,1,0,0:0:0:0:
320,192,23060,1,0,0:0:0:0:
448,192,23120,1,0,0:0:0:0:
64,192,23180,1,0,0:0:0:0:
192,192,23180,1,0,0:0:0:0:
320,192,23240,1,0,0:0:0:0:
448,192,23240,1,0,0:0:0:0:
64,192,23300,1,0,0:0:0:0:
192,192,23300,1,0,0:0:0:0:
320,192,23360,1,0,0:0:0:0:
448,192,23360,1,0,0:0:0:0:
64,192,23420,1,0,0:0:0:0:
192,192,23420,1,0,0:0:0:0:
320,192,23480,1,0,0:0:0:0:
448,192,23480,1,0,0:0:0:0:
64,192,23540,1,0,0:0:0:0:
192,192,23540,1,0,0:0:0:0:
192,192,23780,1,0,0:0:0:0:
320,192,23780,1,0,0:0:0:0:
448,192,23780,1,0,0:0:0:0:
64,192,23840,1,0,0:0:0:0:
320,192,23900,1,0,0:0:0:0:
448,192,23900,1,0,0:0:0:0:
64,192,23960,1,0,0:0:0:0:
192,192,24020,1,0,0:0:0:0:
320,192,24020,1,0,0:0:0:0:
448,192,24020,1,0,0:0:0:0:
192,192,24140,1,0,0:0:0:0:
64,192,24260,1,0,0:0:0:0:
320,192,24260,1,0,0:0:0:0:
448,192,24380,1,0,0:0:0:0:
64,192,24440,1,0,0:0:0:0:
320,192,24500,1,0,0:0:0:0:
192,192,24620,1,0,0:0:0:0:
448,192,24620,1,0,0:0:0:0:
64,192,24740,1,0,0:0:0:0:
320,192,24800,1,0,0:0:0:0:
192,192,24860,1,0,0:0:0:0:
320,192,24980,1,0,0:0:0:0:
320,192,25100,1,0,0:0:0:0:
64,192,25220,1,0,0:0:0:0:
192,192,25220,1,0,0:0:0:0:
448,192,25340,1,0,0:0:0:0:
320,192,25400,1,0,0:0:0:0:
64,192,25460,1,0,0:0:0:0:
320,192,25580,1,0,0:0:0:0:
448,192,25580,1,0,0:0:0:0:
64,192,25700,1,0,0:0:0:0:
192,192,25760,1,0,0:0:0:0:
320,192,25820,1,0,0:0:0:0:
448,192,25940,1,0,0:0:0:0:
448,192,26060,1,0,0:0:0:0:
192,192,26180,1,0,0:0:0:0:
320,192,26180,1,0,0:0:0:0:
448,192,26300,1,0,0:0:0:0:
192,192,26360,1,0,0:0:0:0:
320,192,26420,1,0,0:0:0:0:
64,192,26540,1,0,0:0:0:0:
448,192,26540,1,0,0:0:0:0:
192,192,26660,1,0,0:0:0:0:
64,192,26720,1,0,0:0:0:0:
448,192,26780,1,0,0:0:0:0:
320,192,26900,1,0,0:0:0:0:
320,192,27020,1,0,0:0:0:0:
64,192,27140,1,0,0:0:0:0:
192,192,27140,1,0,0:0:0:0:
320,192,27260,1,0,0:0:0:0:
192,192,27320,1,0,0:0:0:0:
448,192,27380,1,0,0:0:0:0:
448,192,27500,1,0,0:0:0:0:
192,192,27620,1,0,0:0:0:0:
192,192,27740,1,0,0:0:0:0:
320,192,27740,1,0,0:0:0:0:
64,192,27860,1,0,0:0:0:0:
448,192,27860,1,0,0:0:0:0:
320,192,27920,1,0,0:0:0:0:
192,192,27980,1,0,0:0:0:0:
64,192,28040,1,0,0:0:0:0:
320,192,28100,1,0,0:0:0:0:
192,192,28160,1,0,0:0:0:0:
320,192,28220,1,0,0:0:0:0:
448,192,28280,1,0,0:0:0:0:
64,192,28340,1,0,0:0:0:0:
320,192,28340,1,0,0:0:0:0:
192,192,28400,1,0,0:0:0:0:
448,192,28460,1,0,0:0:0:0:
192,192,28520,1,0,0:0:0:0:
320,192,28580,1,0,0:0:0:0:
64,192,28640,1,0,0:0:0:0:
448,192,28700,1,0,0:0:0:0:
320,192,28760,1,0,0:0:0:0:
64,192,28820,1,0,0:0:0:0:
192,192,28820,1,0,0:0:0:0:
448,192,28880,1,0,0:0:0:0:
192,192,28940,1,0,0:0:0:0:
64,192,29000,1,0,0:0:0:0:
320,192,29060,1,0,0:0:0:0:
192,192,29120,1,0,0:0:0:0:
448,192,29180,1,0,0:0:0:0:
64,192,29240,1,0,0:0:0:0:
192,192,29300,1,0,0:0:0:0:
320,192,29300,1,0,0:0:0:0:
448,192,29360,1,0,0:0:0:0:
64,192,29420,1,0,0:0:0:0:
320,192,29480,1,0,0:0:0:0:
192,192,29540,1,0,0:0:0:0:
320,192,29600,1,0,0:0:0:0:
448,192,29660,1,0,0:0:0:0:
64,192,29720,1,0,0:0:0:0:
192,192,29780,1,0,0:0:0:0:
448,192,29780,1,0,0:0:0:0:
320,192,29840,1,0,0:0:0:0:
192,192,29900,1,0,0:0:0:0:
448,192,29900,1,0,0:0:0:0:
320,192,29960,1,0,0:0:0:0:
192,192,30020,1,0,0:0:0:0:
448,192,30020,1,0,0:0:0:0:
320,192,30080,1,0,0:0:0:0:
192,192,30140,1,0,0:0:0:0:
448,192,30140,1,0,0:0:0:0:
320,192,30200,1,0,0:0:0:0:
192,192,30260,1,0,0:0:0:0:
448,192,30260,1,0,0:0:0:0:
320,192,30320,1,0,0:0:0:0:
192,192,30380,1,0,0:0:0:0:
448,192,30380,1,0,0:0:0:0:
320,192,30440,1,0,0:0:0:0:
192,192,30500,1,0,0:0:0:0:
448,192,30500,1,0,0:0:0:0:
320,192,30560,1,0,0:0:0:0:
192,192,30620,1,0,0:0:0:0:
448,192,30620,1,0,0:0:0:0:
320,192,30680,1,0,0:0:0:0:
64,192,30740,1,0,0:0:0:0:
448,192,30740,1,0,0:0:0:0:
320,192,30770,1,0,0:0:0:0:
192,192,30800,1,0,0:0:0:0:
64,192,30830,1,0,0:0:0:0:
448,192,30860,1,0,0:0:0:0:
320,192,30890,1,0,0:0:0:0:
192,192,30920,1,0,0:0:0:0:
64,192,30950,1,0,0:0:0:0:
448,192,30980,1,0,0:0:0:0:
320,192,31010,1,0,0:0:0:0:
192,192,31040,1,0,0:0:0:0:
64,192,31070,1,0,0:0:0:0:
448,192,31100,1,0,0:0:0:0:
320,192,31130,1,0,0:0:0:0:
192,192,31160,1,0,0:0:0:0:
64,192,31190,1,0,0:0:0:0:
320,192,31220,1,0,0:0:0:0:
448,192,31220,1,0,0:0:0:0:
64,192,31280,1,0,0:0:0:0:
192,192,31280,1,0,0:0:0:0:
320,192,31340,1,0,0:0:0:0:
448,192,31340,1,0,0:0:0:0:
192,192,31400,1,0,0:0:0:0:
448,192,31460,1,0,0:0:0:0:
320,192,31480,1,0,0:0:0:0:
192,192,31500,1,0,0:0:0:0:
64,192,31520,1,0,0:0:0:0:
448,192,31540,1,0,0:0:0:0:
320,192,31560,1,0,0:0:0:0:
192,192,31580,1,0,0:0:0:0:
64,192,31600,1,0,0:0:0:0:
448,192,31620,1,0,0:0:0:0:
320,192,31640,1,0,0:0:0:0:
192,192,31660,1,0,0:0:0:0:
64,192,31680,1,0,0:0:0:0:
320,192,31700,1,0,0:0:0:0:
448,192,31700,1,0,0:0:0:0:
192,192,31760,1,0,0:0:0:0:
64,192,31820,1,0,0:0:0:0:
320,192,31820,1,0,0:0:0:0:
448,192,31880,1,0,0:0:0:0:
64,192,31940,1,0,0:0:0:0:
192,192,31940,1,0,0:0:0:0:
448,192,32000,1,0,0:0:0:0:
64,192,32060,1,0,0:0:0:0:
320,192,32060,1,0,0:0:0:0:
192,192,32120,1,0,0:0:0:0:
320,192,32180,1,0,0:0:0:0:
448,192,32180,1,0,0:0:0:0:
64,192,32240,1,0,0:0:0:0:
192,192,32300,1,0,0:0:0:0:
448,192,32300,1,0,0:0:0:0:
320,192,32360,1,0,0:0:0:0:
64,192,32420,1,0,0:0:0:0:
448,192,32420,1,0,0:0:0:0:
192,192,32480,1,0,0:0:0:0:
320,192,32540,1,0,0:0:0:0:
448,192,32540,1,0,0:0:0:0:
64,192,32600,1,0,0:0:0:0:
192,192,32660,1,0,0:0:0:0:
320,192,32660,1,0,0:0:0:0:
64,192,32720,1,0,0:0:0:0:
320,192,32780,1,0,0:0:0:0:
448,192,32780,1,0,0:0:0:0:
192,192,32840,1,0,0:0:0:0:
320,192,32900,1,0,0:0:0:0:
448,192,32900,1,0,0:0:0:0:
64,192,32960,1,0,0:0:0:0:
192,192,33020,1,0,0:0:0:0:
320,192,33020,1,0,0:0:0:0:
448,192,33080,1,0,0:0:0:0:
64,192,33140,1,0,0:0:0:0:
320,192,33140,1,0,0:0:0:0:
448,192,33200,1,0,0:0:0:0:
64,192,33260,1,0,0:0:0:0:
192,192,33260,1,0,0:0:0:0:
320,192,33320,1,0,0:0:0:0:
192,192,33380,1,0,0:0:0:0:
448,192,33380,1,0,0:0:0:0:
64,192,33440,1,0,0:0:0:0:
320,192,33440,1,0,0:0:0:0:
192,192,33500,1,0,0:0:0:0:
448,192,33500,1,0,0:0:0:0:
64,192,33560,1,0,0:0:0:0:
320,192,33560,1,0,0:0:0:0:
192,192,33620,1,0,0:0:0:0:
448,192,33620,1,0,0:0:0:0:
320,192,33680,1,0,0:0:0:0:
64,192,33740,1,0,0:0:0:0:
192,192,33740,1,0,0:0:0:0:
448,192,33800,1,0,0:0:0:0:
192,192,33860,1,0,0:0:0:0:
320,192,33860,1,0,0:0:0:0:
64,192,33920,1,0,0:0:0:0:
320,192,33980,1,0,0:0:0:0:
448,192,33980,1,0,0:0:0:0:
192,192,34040,1,0,0:0:0:0:
64,192,34100,1,0,0:0:0:0:
320,192,34100,1,0,0:0:0:0:
192,192,34160,1,0,0:0:0:0:
64,192,34220,1,0,0:0:0:0:
448,192,34220,1,0,0:0:0:0:
320,192,34280,1,0,0:0:0:0:
64,192,34340,1,0,0:0:0:0:
192,192,34340,1,0,0:0:0:0:
448,192,34400,1,0,0:0:0:0:
192,192,34460,1,0,0:0:0:0:
320,192,34460,1,0,0:0:0:0:
64,192,34520,1,0,0:0:0:0:
320,192,34580,1,0,0:0:0:0:
448,192,34580,1,0,0:0:0:0:
64,192,34640,1,0,0:0:0:0:
192,192,34700,1,0,0:0:0:0:
320,192,34700,1,0,0:0:0:0:
448,192,34760,1,0,0:0:0:0:
64,192,34820,1,0,0:0:0:0:
192,192,34820,1,0,0:0:0:0:
448,192,34880,1,0,0:0:0:0:
64,192,34940,1,0,0:0:0:0:
320,192,34940,1,0,0:0:0:0:
192,192,35000,1,0,0:0:0:0:
64,192,35060,1,0,0:0:0:0:
448,192,35060,1,0,0:0:0:0:
192,192,35120,1,0,0:0:0:0:
320,192,35120,1,0,0:0:0:0:
64,192,35180,1,0,0:0:0:0:
448,192,35180,1,0,0:0:0:0:
320,192,35240,1,0,0:0:0:0:
64,192,35300,1,0,0:0:0:0:
192,192,35300,1,0,0:0:0:0:
320,192,35360,1,0,0:0:0:0:
448,192,35360,1,0,0:0:0:0:
64,192,35420,1,0,0:0:0:0:
192,192,35420,1,0,0:0:0:0:
320,192,35480,1,0,0:0:0:0:
448,192,35480,1,0,0:0:0:0:
64,192,35540,1,0,0:0:0:0:
192,192,35540,1,0,0:0:0:0:
448,192,35600,1,0,0:0:0:0:
192,192,35660,1,0,0:0:0:0:
320,192,35660,1,0,0:0:0:0:
448,192,35720,1,0,0:0:0:0:
64,192,35780,1,0,0:0:0:0:
320,192,35780,1,0,0:0:0:0:
192,192,35840,1,0,0:0:0:0:
64,192,35900,1,0,0:0:0:0:
448,192,35900,1,0,0:0:0:0:
320,192,35960,1,0,0:0:0:0:
64,192,36020,1,0,0:0:0:0:
192,192,36020,1,0,0:0:0:0:
448,192,36080,1,0,0:0:0:0:
192,192,36140,1,0,0:0:0:0:
320,192,36140,1,0,0:0:0:0:
64,192,36200,1,0,0:0:0:0:
320,192,36260,1,0,0:0:0:0:
448,192,36260,1,0,0:0:0:0:
192,192,36320,1,0,0:0:0:0:
64,192,36380,1,0,0:0:0:0:
320,192,36380,1,0,0:0:0:0:
192,192,36440,1,0,0:0:0:0:
64,192,36500,1,0,0:0:0:0:
448,192,36500,1,0,0:0:0:0:
320,192,36560,1,0,0:0:0:0:
192,192,36620,1,0,0:0:0:0:
448,192,36620,1,0,0:0:0:0:
64,192,36680,1,0,0:0:0:0:
192,192,36740,1,0,0:0:0:0:
320,192,36740,1,0,0:0:0:0:
448,192,36800,1,0,0:0:0:0:
64,192,36860,1,0,0:0:0:0:
320,192,36860,1,0,0:0:0:0:
192,192,36920,1,0,0:0:0:0:
320,192,36980,1,0,0:0:0:0:
448,192,36980,1,0,0:0:0:0:
64,192,37040,1,0,0:0:0:0:
192,192,37100,1,0,0:0:0:0:
320,192,37100,1,0,0:0:0:0:
448,192,37160,1,0,0:0:0:0:
192,192,37220,1,0,0:0:0:0:
320,192,37220,1,0,0:0:0:0:
64,192,37280,1,0,0:0:0:0:
448,192,37280,1,0,0:0:0:0:
192,192,37340,1,0,0:0:0:0:
320,192,37340,1,0,0:0:0:0:
64,192,37400,1,0,0:0:0:0:
448,192,37400,1,0,0:0:0:0:
192,192,37460,1,0,0:0:0:0:
320,192,37460,1,0,0:0:0:0:
64,192,37520,1,0,0:0:0:0:
320,192,37580,1,0,0:0:0:0:
448,192,37580,1,0,0:0:0:0:
192,192,37640,1,0,0:0:0:0:
64,192,37700,1,0,0:0:0:0:
448,192,37700,1,0,0:0:0:0:
320,192,37760,1,0,0:0:0:0:
64,192,37820,1,0,0:0:0:0:
192,192,37820,1,0,0:0:0:0:
448,192,37880,1,0,0:0:0:0:
192,192,37940,1,0,0:0:0:0:
320,192,37940,1,0,0:0:0:0:
64,192,38000,1,0,0:0:0:0:
320,192,38060,1,0,0:0:0:0:
448,192,38060,1,0,0:0:0:0:
192,192,38120,1,0,0:0:0:0:
64,192,38180,1,0,0:0:0:0:
320,192,38180,1,0,0:0:0:0:
448,192,38240,1,0,0:0:0:0:
192,192,38300,1,0,0:0:0:0:
320,192,38300,1,0,0:0:0:0:
448,192,38360,1,0,0:0:0:0:
64,192,38420,1,0,0:0:0:0:
320,192,38420,1,0,0:0:0:0:
192,192,38480,1,0,0:0:0:0:
448,192,38480,1,0,0:0:0:0:
64,192,38540,1,0,0:0:0:0:
320,192,38540,1,0,0:0:0:0:
192,192,38660,1,0,0:0:0:0:
320,192,38660,1,0,0:0:0:0:
64,192,38780,1,0,0:0:0:0:
192,192,38780,1,0,0:0:0:0:
320,192,38840,1,0,0:0:0:0:
448,192,38840,1,0,0:0:0:0:
64,192,38900,1,0,0:0:0:0:
192,192,38900,1,0,0:0:0:0:
320,192,38960,1,0,0:0:0:0:
448,192,38960,1,0,0:0:0:0:
64,192,39020,1,0,0:0:0:0:
192,192,39020,1,0,0:0:0:0:
320,192,39080,1,0,0:0:0:0:
448,192,39080,1,0,0:0:0:0:
64,192,39140,1,0,0:0:0:0:
192,192,39140,1,0,0:0:0:0:
320,192,39200,1,0,0:0:0:0:
448,192,39200,1,0,0:0:0:0:
64,192,39260,1,0,0:0:0:0:
192,192,39260,1,0,0:0:0:0:
320,192,39320,1,0,0:0:0:0:
448,192,39320,1,0,0:0:0:0:
64,192,39380,1,0,0:0:0:0:
192,192,39380,1,0,0:0:0:0:
320,192,39440,1,0,0:0:0:0:
192,192,39500,1,0,0:0:0:0:
448,192,39500,1,0,0:0:0:0:
64,192,39560,1,0,0:0:0:0:
192,192,39620,1,0,0:0:0:0:
320,192,39620,1,0,0:0:0:0:
448,192,39680,1,0,0:0:0:0:
64,192,39740,1,0,0:0:0:0:
320,192,39740,1,0,0:0:0:0:
192,192,39800,1,0,0:0:0:0:
320,192,39860,1,0,0:0:0:0:
448,192,39860,1,0,0:0:0:0:
64,192,39920,1,0,0:0:0:0:
192,192,39980,1,0,0:0:0:0:
320,192,39980,1,0,0:0:0:0:
64,192,40040,1,0,0:0:0:0:
320,192,40100,1,0,0:0:0:0:
448,192,40100,1,0,0:0:0:0:
192,192,40160,1,0,0:0:0:0:
64,192,40220,1,0,0:0:0:0:
320,192,40220,1,0,0:0:0:0:
448,192,40280,1,0,0:0:0:0:
64,192,40340,1,0,0:0:0:0:
192,192,40340,1,0,0:0:0:0:
320,192,40400,1,0,0:0:0:0:
192,192,40460,1,0,0:0:0:0:
448,192,40460,1,0,0:0:0:0:
64,192,40520,1,0,0:0:0:0:
192,192,40580,1,0,0:0:0:0:
320,192,40580,1,0,0:0:0:0:
448,192,40640,1,0,0:0:0:0:
64,192,40700,1,0,0:0:0:0:
192,192,40700,1,0,0:0:0:0:
320,192,40760,1,0,0:0:0:0:
64,192,40820,1,0,0:0:0:0:
448,192,40820,1,0,0:0:0:0:
192,192,40880,1,0,0:0:0:0:
64,192,40940,1,0,0:0:0:0:
320,192,40940,1,0,0:0:0:0:
448,192,41000,1,0,0:0:0:0:
192,192,41060,1,0,0:0:0:0:
320,192,41060,1,0,0:0:0:0:
64,192,41120,1,0,0:0:0:0:
448,192,41120,1,0,0:0:0:0:
192,192,41180,1,0,0:0:0:0:
320,192,41180,1,0,0:0:0:0:
64,192,41240,1,0,0:0:0:0:
448,192,41240,1,0,0:0:0:0:
192,192,41300,1,0,0:0:0:0:
320,192,41300,1,0,0:0:0:0:
448,192,41360,1,0,0:0:0:0:
64,192,41420,1,0,0:0:0:0:
192,192,41420,1,0,0:0:0:0:
320,192,41480,1,0,0:0:0:0:
192,192,41540,1,0,0:0:0:0:
448,192,41540,1,0,0:0:0:0:
64,192,41600,1,0,0:0:0:0:
320,192,41660,1,0,0:0:0:0:
448,192,41660,1,0,0:0:0:0:
192,192,41720,1,0,0:0:0:0:
64,192,41780,1,0,0:0:0:0:
448,192,41780,1,0,0:0:0:0:
320,192,41840,1,0,0:0:0:0:
64,192,41900,1,0,0:0:0:0:
192,192,41900,1,0,0:0:0:0:
448,192,41960,1,0,0:0:0:0:
192,192,42020,1,0,0:0:0:0:
320,192,42020,1,0,0:0:0:0:
64,192,42080,1,0,0:0:0:0:
320,192,42140,1,0,0:0:0:0:
448,192,42140,1,0,0:0:0:0:
192,192,42200,1,0,0:0:0:0:
64,192,42260,1,0,0:0:0:0:
320,192,42260,1,0,0:0:0:0:
192,192,42320,1,0,0:0:0:0:
320,192,42380,1,0,0:0:0:0:
448,192,42380,1,0,0:0:0:0:
64,192,42440,1,0,0:0:0:0:
192,192,42500,1,0,0:0:0:0:
320,192,42500,1,0,0:0:0:0:
448,192,42560,1,0,0:0:0:0:
64,192,42620,1,0,0:0:0:0:
192,192,42620,1,0,0:0:0:0:
320,192,42680,1,0,0:0:0:0:
64,192,42740,1,0,0:0:0:0:
192,192,42740,1,0,0:0:0:0:
320,192,42800,1,0,0:0:0:0:
448,192,42800,1,0,0:0:0:0:
64,192,42860,1,0,0:0:0:0:
192,192,42860,1,0,0:0:0:0:
448,192,42920,1,0,0:0:0:0:
192,192,42980,1,0,0:0:0:0:
320,192,42980,1,0,0:0:0:0:
64,192,43040,1,0,0:0:0:0:
448,192,43040,1,0,0:0:0:0:
192,192,43100,1,0,0:0:0:0:
320,192,43100,1,0,0:0:0:0:
448,192,43160,1,0,0:0:0:0:
64,192,43220,1,0,0:0:0:0:
192,192,43220,1,0,0:0:0:0:
320,192,43220,1,0,0:0:0:0:
448,192,43280,1,0,0:0:0:0:
192,192,43340,1,0,0:0:0:0:
320,192,43340,1,0,0:0:0:0:
64,192,43400,1,0,0:0:0:0:
192,192,43460,1,0,0:0:0:0:
448,192,43460,1,0,0:0:0:0:
320,192,43520,1,0,0:0:0:0:
64,192,43580,1,0,0:0:0:0:
448,192,43580,1,0,0:0:0:0:
192,192,43640,1,0,0:0:0:0:
64,192,43700,1,0,0:0:0:0:
320,192,43700,1,0,0:0:0:0:
448,192,43760,1,0,0:0:0:0:
64,192,43820,1,0,0:0:0:0:
192,192,43820,1,0,0:0:0:0:
320,192,43880,1,0,0:0:0:0:
192,192,43940,1,0,0:0:0:0:
448,192,43940,1,0,0:0:0:0:
64,192,44000,1,0,0:0:0:0:
320,192,44060,1,0,0:0:0:0:
448,192,44060,1,0,0:0:0:0:
192,192,44120,1,0,0:0:0:0:
64,192,44180,1,0,0:0:0:0:
320,192,44180,1,0,0:0:0:0:
448,192,44180,1,0,0:0:0:0:
192,192,44240,1,0,0:0:0:0:
320,192,44300,1,0,0:0:0:0:
448,192,44300,1,0,0:0:0:0:
64,192,44360,1,0,0:0:0:0:
192,192,44420,1,0,0:0:0:0:
320,192,44420,1,0,0:0:0:0:
448,192,44480,1,0,0:0:0:0:
64,192,44540,1,0,0:0:0:0:
192,192,44540,1,0,0:0:0:0:
320,192,44600,1,0,0:0:0:0:
64,192,44660,1,0,0:0:0:0:
448,192,44660,1,0,0:0:0:0:
192,192,44720,1,0,0:0:0:0:
320,192,44780,1,0,0:0:0:0:
448,192,44780,1,0,0:0:0:0:
64,192,44840,1,0,0:0:0:0:
320,192,44900,1,0,0:0:0:0:
448,192,44900,1,0,0:0:0:0:
64,192,44960,1,0,0:0:0:0:
192,192,44960,1,0,0:0:0:0:
320,192,45020,1,0,0:0:0:0:
448,192,45020,1,0,0:0:0:0:
192,192,45080,1,0,0:0:0:0:
64,192,45140,1,0,0:0:0:0:
320,192,45140,1,0,0:0:0:0:
448,192,45140,1,0,0:0:0:0:
192,192,45200,1,0,0:0:0:0:
320,192,45260,1,0,0:0:0:0:
448,192,45260,1,0,0:0:0:0:
64,192,45320,1,0,0:0:0:0:
192,192,45380,1,0,0:0:0:0:
320,192,45380,1,0,0:0:0:0:
448,192,45440,1,0,0:0:0:0:
64,192,45500,1,0,0:0:0:0:
192,192,45500,1,0,0:0:0:0:
448,192,45560,1,0,0:0:0:0:
64,192,45620,1,0,0:0:0:0:
192,192,45620,1,0,0:0:0:0:
320,192,45620,1,0,0:0:0:0:
448,192,45680,1,0,0:0:0:0:
64,192,45740,1,0,0:0:0:0:
192,192,45740,1,0,0:0:0:0:
320,192,45800,1,0,0:0:0:0:
192,192,45860,1,0,0:0:0:0:
448,192,45860,1,0,0:0:0:0:
64,192,45920,1,0,0:0:0:0:
320,192,45980,1,0,0:0:0:0:
448,192,45980,1,0,0:0:0:0:
192,192,46040,1,0,0:0:0:0:
64,192,46100,1,0,0:0:0:0:
320,192,46100,1,0,0:0:0:0:
448,192,46100,1,0,0:0:0:0:
192,192,46160,1,0,0:0:0:0:
64,192,46220,1,0,0:0:0:0:
448,192,46220,1,0,0:0:0:0:
192,192,46280,1,0,0:0:0:0:
320,192,46280,1,0,0:0:0:0:
64,192,46340,1,0,0:0:0:0:
448,192,46340,1,0,0:0:0:0:
192,192,46400,1,0,0:0:0:0:
320,192,46400,1,0,0:0:0:0:
64,192,46460,1,0,0:0:0:0:
448,192,46460,1,0,0:0:0:0:
192,192,46520,1,0,0:0:0:0:
320,192,46520,1,0,0:0:0:0:
64,192,46580,1,0,0:0:0:0:
448,192,46580,1,0,0:0:0:0:
64,192,46820,1,0,0:0:0:0:
192,192,46820,1,0,0:0:0:0:
448,192,46820,1,0,0:0:0:0:
320,192,46880,1,0,0:0:0:0:
192,192,46940,1,0,0:0:0:0:
448,192,46940,1,0,0:0:0:0:
320,192,47000,1,0,0:0:0:0:
64,192,47060,1,0,0:0:0:0:
192,192,47060,1,0,0:0:0:0:
448,192,47060,1,0,0:0:0:0:
320,192,47120,1,0,0:0:0:0:
192,192,47180,1,0,0:0:0:0:
64,192,47240,1,0,0:0:0:0:
320,192,47300,1,0,0:0:0:0:
448,192,47300,1,0,0:0:0:0:
448,192,47540,1,0,0:0:0:0:
320,192,47600,1,0,0:0:0:0:
192,192,47660,1,0,0:0:0:0:
64,192,47720,1,0,0:0:0:0:
192,192,47780,1,0,0:0:0:0:
320,192,47780,1,0,0:0:0:0:
64,192,48020,1,0,0:0:0:0:
320,192,48020,1,0,0:0:0:0:
192,192,48080,1,0,0:0:0:0:
320,192,48140,1,0,0:0:0:0:
448,192,48200,1,0,0:0:0:0:
64,192,48260,1,0,0:0:0:0:
192,192,48260,1,0,0:0:0:0:
192,192,48500,1,0,0:0:0:0:
320,192,48560,1,0,0:0:0:0:
448,192,48620,1,0,0:0:0:0:
192,192,48680,1,0,0:0:0:0:
64,192,48740,1,0,0:0:0:0:
320,192,48740,1,0,0:0:0:0:
192,192,48980,1,0,0:0:0:0:
320,192,48980,1,0,0:0:0:0:
448,192,49040,1,0,0:0:0:0:
64,192,49100,1,0,0:0:0:0:
192,192,49160,1,0,0:0:0:0:
320,192,49220,1,0,0:0:0:0:
448,192,49220,1,0,0:0:0:0:
192,192,49460,1,0,0:0:0:0:
320,192,49520,1,0,0:0:0:0:
64,192,49580,1,0,0:0:0:0:
192,192,49640,1,0,0:0:0:0:
320,192,49700,1,0,0:0:0:0:
448,192,49700,1,0,0:0:0:0:
64,192,49940,1,0,0:0:0:0:
448,192,49940,1,0,0:0:0:0:
192,192,50000,1,0,0:0:0:0:
448,192,50060,1,0,0:0:0:0:
320,192,50120,1,0,0:0:0:0:
64,192,50180,1,0,0:0:0:0:
192,192,50180,1,0,0:0:0:0:
64,192,50420,1,0,0:0:0:0:
192,192,50480,1,0,0:0:0:0:
448,192,50540,1,0,0:0:0:0:
320,192,50600,1,0,0:0:0:0:
64,192,50660,1,0,0:0:0:0:
192,192,50660,1,0,0:0:0:0:
192,192,50900,1,0,0:0:0:0:
448,192,50900,1,0,0:0:0:0:
320,192,50960,1,0,0:0:0:0:
192,192,51020,1,0,0:0:0:0:
448,192,51080,1,0,0:0:0:0:
64,192,51140,1,0,0:0:0:0:
320,192,51140,1,0,0:0:0:0:
448,192,51380,1,0,0:0:0:0:
320,192,51440,1,0,0:0:0:0:
192,192,51500,1,0,0:0:0:0:
448,192,51560,1,0,0:0:0:0:
64,192,51620,1,0,0:0:0:0:
320,192,51620,1,0,0:0:0:0:
64,192,51860,1,0,0:0:0:0:
320,192,51860,1,0,0:0:0:0:
192,192,51920,1,0,0:0:0:0:
320,192,51980,1,0,0:0:0:0:
448,192,52040,1,0,0:0:0:0:
64,192,52100,1,0,0:0:0:0:
192,192,52100,1,0,0:0:0:0:
64,192,52340,1,0,0:0:0:0:
192,192,52400,1,0,0:0:0:0:
320,192,52460,1,0,0:0:0:0:
448,192,52520,1,0,0:0:0:0:
64,192,52580,1,0,0:0:0:0:
192,192,52580,1,0,0:0:0:0:
64,192,52820,1,0,0:0:0:0:
448,192,52820,1,0,0:0:0:0:
320,192,52880,1,0,0:0:0:0:
192,192,52940,1,0,0:0:0:0:
64,192,53000,1,0,0:0:0:0:
320,192,53060,1,0,0:0:0:0:
448,192,53060,1,0,0:0:0:0:
192,192,53120,1,0,0:0:0:0:
64,192,53180,1,0,0:0:0:0:
448,192,53240,1,0,0:0:0:0:
192,192,53300,1,0,0:0:0:0:
320,192,53300,1,0,0:0:0:0:
64,192,53360,1,0,0:0:0:0:
448,192,53420,1,0,0:0:0:0:
320,192,53480,1,0,0:0:0:0:
64,192,53540,1,0,0:0:0:0:
192,192,53540,1,0,0:0:0:0:
320,192,53600,1,0,0:0:0:0:
192,192,53660,1,0,0:0:0:0:
64,192,53720,1,0,0:0:0:0:
192,192,53780,1,0,0:0:0:0:
448,192,53780,1,0,0:0:0:0:
320,192,53840,1,0,0:0:0:0:
64,192,53900,1,0,0:0:0:0:
192,192,53900,1,0,0:0:0:0:
448,192,53960,1,0,0:0:0:0:
192,192,54020,1,0,0:0:0:0:
320,192,54020,1,0,0:0:0:0:
448,192,54080,1,0,0:0:0:0:
64,192,54140,1,0,0:0:0:0:
320,192,54140,1,0,0:0:0:0:
192,192,54200,1,0,0:0:0:0:
320,192,54260,1,0,0:0:0:0:
448,192,54260,1,0,0:0:0:0:
64,192,54320,1,0,0:0:0:0:
192,192,54380,1,0,0:0:0:0:
448,192,54380,1,0,0:0:0:0:
320,192,54440,1,0,0:0:0:0:
64,192,54500,1,0,0:0:0:0:
192,192,54500,1,0,0:0:0:0:
448,192,54560,1,0,0:0:0:0:
64,192,54620,1,0,0:0:0:0:
320,192,54620,1,0,0:0:0:0:
192,192,54680,1,0,0:0:0:0:
64,192,54740,1,0,0:0:0:0:
320,192,54740,1,0,0:0:0:0:
448,192,54740,1,0,0:0:0:0:
448,192,54900,1,0,0:0:0:0:
64,192,55060,1,0,0:0:0:0:
448,192,55060,1,0,0:0:0:0:
320,192,55220,1,0,0:0:0:0:
192,192,55300,1,0,0:0:0:0:
64,192,55380,1,0,0:0:0:0:
192,192,55540,1,0,0:0:0:0:
448,192,55540,1,0,0:0:0:0:
448,192,55700,1,0,0:0:0:0:
192,192,55780,1,0,0:0:0:0:
320,192,55860,1,0,0:0:0:0:
192,192,56020,1,0,0:0:0:0:
192,192,56180,1,0,0:0:0:0:
320,192,56340,1,0,0:0:0:0:
448,192,56340,1,0,0:0:0:0:
320,192,56500,1,0,0:0:0:0:
64,192,56580,1,0,0:0:0:0:
192,192,56660,1,0,0:0:0:0:
192,192,56820,1,0,0:0:0:0:
320,192,56820,1,0,0:0:0:0:
64,192,56980,1,0,0:0:0:0:
320,192,57060,1,0,0:0:0:0:
448,192,57140,1,0,0:0:0:0:
64,192,57300,1,0,0:0:0:0:
320,192,57300,1,0,0:0:0:0:
320,192,57460,1,0,0:0:0:0:
64,192,57620,1,0,0:0:0:0:
192,192,57620,1,0,0:0:0:0:
448,192,57780,1,0,0:0:0:0:
192,192,57860,1,0,0:0:0:0:
320,192,57940,1,0,0:0:0:0:
192,192,58100,1,0,0:0:0:0:
448,192,58100,1,0,0:0:0:0:
64,192,58260,1,0,0:0:0:0:
448,192,58340,1,0,0:0:0:0:
320,192,58420,1,0,0:0:0:0:
192,192,58580,1,0,0:0:0:0:
192,192,58740,1,0,0:0:0:0:
320,192,58900,1,0,0:0:0:0:
448,192,58900,1,0,0:0:0:0:
192,192,59060,1,0,0:0:0:0:
64,192,59140,1,0,0:0:0:0:
320,192,59220,1,0,0:0:0:0:
448,192,59220,1,0,0:0:0:0:
64,192,59380,1,0,0:0:0:0:
192,192,59380,1,0,0:0:0:0:
448,192,59380,1,0,0:0:0:0:
64,192,59620,1,0,0:0:0:0:
192,192,59620,1,0,0:0:0:0:
448,192,59620,1,0,0:0:0:0:
320,192,59700,1,0,0:0:0:0:
64,192,59860,1,0,0:0:0:0:
192,192,59860,1,0,0:0:0:0:
448,192,59860,1,0,0:0:0:0:
320,192,60020,1,0,0:0:0:0:
192,192,60180,1,0,0:0:0:0:
320,192,60180,1,0,0:0:0:0:
64,192,60340,1,0,0:0:0:0:
448,192,60420,1,0,0:0:0:0:
320,192,60500,1,0,0:0:0:0:
64,192,60660,1,0,0:0:0:0:
192,192,60660,1,0,0:0:0:0:
320,192,60820,1,0,0:0:0:0:
448,192,60900,1,0,0:0:0:0:
64,192,60980,1,0,0:0:0:0:
64,192,61140,1,0,0:0:0:0:
192,192,61140,1,0,0:0:0:0:
448,192,61140,1,0,0:0:0:0:
192,192,61300,1,0,0:0:0:0:
64,192,61460,1,0,0:0:0:0:
192,192,61460,1,0,0:0:0:0:
320,192,61620,1,0,0:0:0:0:
448,192,61700,1,0,0:0:0:0:
192,192,61780,1,0,0:0:0:0:
320,192,61940,1,0,0:0:0:0:
448,192,61940,1,0,0:0:0:0:
64,192,62100,1,0,0:0:0:0:
320,192,62180,1,0,0:0:0:0:
192,192,62260,1,0,0:0:0:0:
192,192,62420,1,0,0:0:0:0:
320,192,62420,1,0,0:0:0:0:
448,192,62420,1,0,0:0:0:0:
64,192,62580,1,0,0:0:0:0:
192,192,62740,1,0,0:0:0:0:
320,192,62740,1,0,0:0:0:0:
320,192,62900,1,0,0:0:0:0:
64,192,62980,1,0,0:0:0:0:
192,192,63060,1,0,0:0:0:0:
320,192,63060,1,0,0:0:0:0:
448,192,63060,1,0,0:0:0:0:
320,192,63220,1,0,0:0:0:0:
192,192,63380,1,0,0:0:0:0:
448,192,63380,1,0,0:0:0:0:
320,192,63460,1,0,0:0:0:0:
64,192,63540,1,0,0:0:0:0:
64,192,63700,1,0,0:0:0:0:
192,192,63700,1,0,0:0:0:0:
448,192,63700,1,0,0:0:0:0:
192,192,63860,1,0,0:0:0:0:
448,192,63860,1,0,0:0:0:0:
64,192,64020,1,0,0:0:0:0:
192,192,64020,1,0,0:0:0:0:
448,192,64020,1,0,0:0:0:0:
192,192,64180,1,0,0:0:0:0:
448,192,64180,1,0,0:0:0:0:
64,192,64340,1,0,0:0:0:0:
192,192,64340,1,0,0:0:0:0:
448,192,64340,1,0,0:0:0:0:
320,192,64420,1,0,0:0:0:0:
192,192,64500,1,0,0:0:0:0:
448,192,64500,1,0,0:0:0:0:
320,192,64580,1,0,0:0:0:0:
64,192,64660,1,0,0:0:0:0:
192,192,64660,1,0,0:0:0:0:
448,192,64660,1,0,0:0:0:0:
320,192,64740,1,0,0:0:0:0:
192,192,64820,1,0,0:0:0:0:
448,192,64820,1,0,0:0:0:0:
320,192,64900,1,0,0:0:0:0:
192,0,64980,128,0,66100:1:0:0:0:
320,192,68340,1,0,0:0:0:0:
448,192,68340,1,0,0:0:0:0:
64,192,68393,1,0,0:0:0:0:
192,192,68393,1,0,0:0:0:0:
320,192,68447,1,0,0:0:0:0:
448,192,68447,1,0,0:0:0:0:
192,192,68500,1,0,0:0:0:0:
64,192,68580,1,0,0:0:0:0:
192,192,68600,1,0,0:0:0:0:
320,192,68620,1,0,0:0:0:0:
448,192,68640,1,0,0:0:0:0:
64,192,68660,1,0,0:0:0:0:
192,192,68680,1,0,0:0:0:0:
320,192,68700,1,0,0:0:0:0:
448,192,68720,1,0,0:0:0:0:
64,192,68740,1,0,0:0:0:0:
192,192,68760,1,0,0:0:0:0:
320,192,68780,1,0,0:0:0:0:
448,192,68800,1,0,0:0:0:0:
64,192,68820,1,0,0:0:0:0:
192,192,68820,1,0,0:0:0:0:
320,192,68880,1,0,0:0:0:0:
192,192,68940,1,0,0:0:0:0:
448,192,68940,1,0,0:0:0:0:
64,192,69000,1,0,0:0:0:0:
192,192,69060,1,0,0:0:0:0:
320,192,69060,1,0,0:0:0:0:
448,192,69120,1,0,0:0:0:0:
64,192,69180,1,0,0:0:0:0:
320,192,69180,1,0,0:0:0:0:
192,192,69240,1,0,0:0:0:0:
320,192,69300,1,0,0:0:0:0:
448,192,69300,1,0,0:0:0:0:
64,192,69360,1,0,0:0:0:0:
192,192,69420,1,0,0:0:0:0:
320,192,69420,1,0,0:0:0:0:
448,192,69480,1,0,0:0:0:0:
64,192,69540,1,0,0:0:0:0:
320,192,69540,1,0,0:0:0:0:
192,192,69600,1,0,0:0:0:0:
320,192,69660,1,0,0:0:0:0:
448,192,69660,1,0,0:0:0:0:
64,192,69720,1,0,0:0:0:0:
192,192,69780,1,0,0:0:0:0:
448,192,69780,1,0,0:0:0:0:
320,192,69840,1,0,0:0:0:0:
64,192,69900,1,0,0:0:0:0:
448,192,69900,1,0,0:0:0:0:
192,192,69960,1,0,0:0:0:0:
320,192,70020,1,0,0:0:0:0:
448,192,70020,1,0,0:0:0:0:
64,192,70080,1,0,0:0:0:0:
192,192,70140,1,0,0:0:0:0:
448,192,70140,1,0,0:0:0:0:
320,192,70200,1,0,0:0:0:0:
64,192,70260,1,0,0:0:0:0:
192,192,70260,1,0,0:0:0:0:
448,192,70320,1,0,0:0:0:0:
192,192,70380,1,0,0:0:0:0:
320,192,70380,1,0,0:0:0:0:
64,192,70440,1,0,0:0:0:0:
320,192,70500,1,0,0:0:0:0:
448,192,70500,1,0,0:0:0:0:
64,192,70560,1,0,0:0:0:0:
192,192,70560,1,0,0:0:0:0:
320,192,70620,1,0,0:0:0:0:
448,192,70620,1,0,0:0:0:0:
64,192,70680,1,0,0:0:0:0:
192,192,70680,1,0,0:0:0:0:
320,192,70740,1,0,0:0:0:0:
448,192,70740,1,0,0:0:0:0:
192,192,70800,1,0,0:0:0:0:
64,192,70860,1,0,0:0:0:0:
320,192,70860,1,0,0:0:0:0:
192,192,70920,1,0,0:0:0:0:
320,192,70980,1,0,0:0:0:0:
448,192,70980,1,0,0:0:0:0:
64,192,71040,1,0,0:0:0:0:
192,192,71100,1,0,0:0:0:0:
320,192,71100,1,0,0:0:0:0:
448,192,71160,1,0,0:0:0:0:
64,192,71220,1,0,0:0:0:0:
192,192,71220,1,0,0:0:0:0:
320,192,71280,1,0,0:0:0:0:
64,192,71340,1,0,0:0:0:0:
448,192,71340,1,0,0:0:0:0:
192,192,71400,1,0,0:0:0:0:
320,192,71460,1,0,0:0:0:0:
448,192,71460,1,0,0:0:0:0:
64,192,71520,1,0,0:0:0:0:
320,192,71580,1,0,0:0:0:0:
448,192,71580,1,0,0:0:0:0:
192,192,71640,1,0,0:0:0:0:
64,192,71700,1,0,0:0:0:0:
320,192,71700,1,0,0:0:0:0:
192,192,71760,1,0,0:0:0:0:
320,192,71820,1,0,0:0:0:0:
448,192,71820,1,0,0:0:0:0:
64,192,71880,1,0,0:0:0:0:
192,192,71940,1,0,0:0:0:0:
320,192,71940,1,0,0:0:0:0:
64,192,72000,1,0,0:0:0:0:
320,192,72060,1,0,0:0:0:0:
448,192,72060,1,0,0:0:0:0:
192,192,72120,1,0,0:0:0:0:
320,192,72180,1,0,0:0:0:0:
448,192,72180,1,0,0:0:0:0:
64,192,72240,1,0,0:0:0:0:
192,192,72240,1,0,0:0:0:0:
320,192,72300,1,0,0:0:0:0:
448,192,72300,1,0,0:0:0:0:
192,192,72360,1,0,0:0:0:0:
64,192,72420,1,0,0:0:0:0:
320,192,72420,1,0,0:0:0:0:
192,192,72480,1,0,0:0:0:0:
448,192,72480,1,0,0:0:0:0:
64,192,72540,1,0,0:0:0:0:
320,192,72540,1,0,0:0:0:0:
192,192,72600,1,0,0:0:0:0:
448,192,72600,1,0,0:0:0:0:
64,192,72660,1,0,0:0:0:0:
320,192,72660,1,0,0:0:0:0:
448,192,72720,1,0,0:0:0:0:
192,192,72780,1,0,0:0:0:0:
320,192,72780,1,0,0:0:0:0:
64,192,72840,1,0,0:0:0:0:
320,192,72900,1,0,0:0:0:0:
448,192,72900,1,0,0:0:0:0:
192,192,72960,1,0,0:0:0:0:
320,192,73020,1,0,0:0:0:0:
448,192,73020,1,0,0:0:0:0:
64,192,73080,1,0,0:0:0:0:
192,192,73140,1,0,0:0:0:0:
320,192,73140,1,0,0:0:0:0:
64,192,73200,1,0,0:0:0:0:
320,192,73260,1,0,0:0:0:0:
448,192,73260,1,0,0:0:0:0:
192,192,73320,1,0,0:0:0:0:
64,192,73380,1,0,0:0:0:0:
320,192,73380,1,0,0:0:0:0:
448,192,73440,1,0,0:0:0:0:
192,192,73500,1,0,0:0:0:0:
320,192,73500,1,0,0:0:0:0:
64,192,73560,1,0,0:0:0:0:
320,192,73620,1,0,0:0:0:0:
448,192,73620,1,0,0:0:0:0:
192,192,73680,1,0,0:0:0:0:
64,192,73740,1,0,0:0:0:0:
448,192,73740,1,0,0:0:0:0:
320,192,73800,1,0,0:0:0:0:
192,192,73860,1,0,0:0:0:0:
448,192,73860,1,0,0:0:0:0:
320,192,73920,1,0,0:0:0:0:
64,192,73980,1,0,0:0:0:0:
192,192,73980,1,0,0:0:0:0:
448,192,74040,1,0,0:0:0:0:
192,192,74100,1,0,0:0:0:0:
320,192,74100,1,0,0:0:0:0:
64,192,74160,1,0,0:0:0:0:
320,192,74220,1,0,0:0:0:0:
448,192,74220,1,0,0:0:0:0:
192,192,74280,1,0,0:0:0:0:
64,192,74340,1,0,0:0:0:0:
320,192,74340,1,0,0:0:0:0:
192,192,74400,1,0,0:0:0:0:
448,192,74400,1,0,0:0:0:0:
64,192,74460,1,0,0:0:0:0:
320,192,74460,1,0,0:0:0:0:
192,192,74520,1,0,0:0:0:0:
448,192,74520,1,0,0:0:0:0:
64,192,74580,1,0,0:0:0:0:
320,192,74580,1,0,0:0:0:0:
448,192,74640,1,0,0:0:0:0:
192,192,74700,1,0,0:0:0:0:
320,192,74700,1,0,0:0:0:0:
448,192,74760,1,0,0:0:0:0:
64,192,74820,1,0,0:0:0:0:
192,192,74820,1,0,0:0:0:0:
320,192,74880,1,0,0:0:0:0:
64,192,74940,1,0,0:0:0:0:
448,192,74940,1,0,0:0:0:0:
192,192,75000,1,0,0:0:0:0:
320,192,75060,1,0,0:0:0:0:
448,192,75060,1,0,0:0:0:0:
64,192,75120,1,0,0:0:0:0:
192,192,75180,1,0,0:0:0:0:
448,192,75180,1,0,0:0:0:0:
320,192,75240,1,0,0:0:0:0:
64,192,75300,1,0,0:0:0:0:
448,192,75300,1,0,0:0:0:0:
192,192,75360,1,0,0:0:0:0:
64,192,75420,1,0,0:0:0:0:
320,192,75420,1,0,0:0:0:0:
448,192,75480,1,0,0:0:0:0:
192,192,75540,1,0,0:0:0:0:
320,192,75540,1,0,0:0:0:0:
64,192,75600,1,0,0:0:0:0:
448,192,75600,1,0,0:0:0:0:
192,192,75660,1,0,0:0:0:0:
320,192,75660,1,0,0:0:0:0:
64,192,75780,1,0,0:0:0:0:
320,192,75780,1,0,0:0:0:0:
320,192,75900,1,0,0:0:0:0:
448,192,75900,1,0,0:0:0:0:
64,192,75960,1,0,0:0:0:0:
192,192,75960,1,0,0:0:0:0:
320,192,76020,1,0,0:0:0:0:
448,192,76020,1,0,0:0:0:0:
64,192,76080,1,0,0:0:0:0:
192,192,76080,1,0,0:0:0:0:
320,192,76140,1,0,0:0:0:0:
448,192,76140,1,0,0:0:0:0:
64,192,76200,1,0,0:0:0:0:
192,192,76200,1,0,0:0:0:0:
320,192,76260,1,0,0:0:0:0:
448,192,76260,1,0,0:0:0:0:
64,192,76320,1,0,0:0:0:0:
192,192,76320,1,0,0:0:0:0:
320,192,76380,1,0,0:0:0:0:
448,192,76380,1,0,0:0:0:0:
64,192,76440,1,0,0:0:0:0:
192,192,76440,1,0,0:0:0:0:
320,192,76500,1,0,0:0:0:0:
192,192,76560,1,0,0:0:0:0:
448,192,76560,1,0,0:0:0:0:
64,192,76620,1,0,0:0:0:0:
320,192,76620,1,0,0:0:0:0:
192,192,76680,1,0,0:0:0:0:
448,192,76680,1,0,0:0:0:0:
64,192,76740,1,0,0:0:0:0:
320,192,76740,1,0,0:0:0:0:
192,192,76800,1,0,0:0:0:0:
448,192,76800,1,0,0:0:0:0:
64,192,76860,1,0,0:0:0:0:
320,192,76860,1,0,0:0:0:0:
192,192,76920,1,0,0:0:0:0:
448,192,76920,1,0,0:0:0:0:
64,192,76980,1,0,0:0:0:0:
320,192,76980,1,0,0:0:0:0:
192,192,77040,1,0,0:0:0:0:
448,192,77040,1,0,0:0:0:0:
64,192,77100,1,0,0:0:0:0:
320,192,77100,1,0,0:0:0:0:
192,192,77160,1,0,0:0:0:0:
448,192,77160,1,0,0:0:0:0:
64,192,77220,1,0,0:0:0:0:
320,192,77220,1,0,0:0:0:0:
192,192,77280,1,0,0:0:0:0:
448,192,77280,1,0,0:0:0:0:
64,192,77340,1,0,0:0:0:0:
320,192,77340,1,0,0:0:0:0:
192,192,77400,1,0,0:0:0:0:
448,192,77400,1,0,0:0:0:0:
320,192,77460,1,0,0:0:0:0:
64,192,77520,1,0,0:0:0:0:
192,192,77520,1,0,0:0:0:0:
320,192,77580,1,0,0:0:0:0:
448,192,77580,1,0,0:0:0:0:
64,192,77640,1,0,0:0:0:0:
192,192,77640,1,0,0:0:0:0:
320,192,77700,1,0,0:0:0:0:
448,192,77700,1,0,0:0:0:0:
64,192,77760,1,0,0:0:0:0:
192,192,77760,1,0,0:0:0:0:
320,192,77820,1,0,0:0:0:0:
448,192,77820,1,0,0:0:0:0:
64,192,77880,1,0,0:0:0:0:
192,192,77880,1,0,0:0:0:0:
320,192,77940,1,0,0:0:0:0:
448,192,77940,1,0,0:0:0:0:
64,192,78000,1,0,0:0:0:0:
192,192,78000,1,0,0:0:0:0:
320,192,78060,1,0,0:0:0:0:
448,192,78060,1,0,0:0:0:0:
64,192,78120,1,0,0:0:0:0:
192,192,78120,1,0,0:0:0:0:
320,192,78180,1,0,0:0:0:0:
448,192,78180,1,0,0:0:0:0:
64,192,78240,1,0,0:0:0:0:
192,192,78240,1,0,0:0:0:0:
320,192,78300,1,0,0:0:0:0:
448,192,78300,1,0,0:0:0:0:
64,192,78360,1,0,0:0:0:0:
192,192,78360,1,0,0:0:0:0:
320,192,78420,1,0,0:0:0:0:
64,192,78480,1,0,0:0:0:0:
448,192,78480,1,0,0:0:0:0:
192,192,78540,1,0,0:0:0:0:
320,192,78540,1,0,0:0:0:0:
64,192,78600,1,0,0:0:0:0:
448,192,78600,1,0,0:0:0:0:
192,192,78660,1,0,0:0:0:0:
320,192,78660,1,0,0:0:0:0:
64,192,78720,1,0,0:0:0:0:
448,192,78720,1,0,0:0:0:0:
192,192,78780,1,0,0:0:0:0:
320,192,78780,1,0,0:0:0:0:
64,192,78840,1,0,0:0:0:0:
448,192,78840,1,0,0:0:0:0:
192,192,78900,1,0,0:0:0:0:
320,192,78900,1,0,0:0:0:0:
64,192,78960,1,0,0:0:0:0:
448,192,78960,1,0,0:0:0:0:
192,192,79020,1,0,0:0:0:0:
320,192,79020,1,0,0:0:0:0:
64,192,79080,1,0,0:0:0:0:
448,192,79080,1,0,0:0:0:0:
192,192,79140,1,0,0:0:0:0:
320,192,79140,1,0,0:0:0:0:
64,192,79200,1,0,0:0:0:0:
448,192,79200,1,0,0:0:0:0:
192,192,79260,1,0,0:0:0:0:
320,192,79260,1,0,0:0:0:0:
64,192,79320,1,0,0:0:0:0:
448,192,79320,1,0,0:0:0:0:
320,192,79380,1,0,0:0:0:0:
64,192,79440,1,0,0:0:0:0:
192,192,79440,1,0,0:0:0:0:
320,192,79500,1,0,0:0:0:0:
448,192,79500,1,0,0:0:0:0:
64,192,79560,1,0,0:0:0:0:
192,192,79560,1,0,0:0:0:0:
320,192,79620,1,0,0:0:0:0:
448,192,79620,1,0,0:0:0:0:
64,192,79680,1,0,0:0:0:0:
192,192,79680,1,0,0:0:0:0:
320,192,79740,1,0,0:0:0:0:
448,192,79740,1,0,0:0:0:0:
64,192,79800,1,0,0:0:0:0:
192,192,79800,1,0,0:0:0:0:
320,192,79860,1,0,0:0:0:0:
192,192,79920,1,0,0:0:0:0:
448,192,79920,1,0,0:0:0:0:
64,192,79980,1,0,0:0:0:0:
320,192,79980,1,0,0:0:0:0:
192,192,80040,1,0,0:0:0:0:
448,192,80040,1,0,0:0:0:0:
64,192,80100,1,0,0:0:0:0:
320,192,80100,1,0,0:0:0:0:
192,192,80160,1,0,0:0:0:0:
448,192,80160,1,0,0:0:0:0:
64,192,80220,1,0,0:0:0:0:
320,192,80220,1,0,0:0:0:0:
192,192,80280,1,0,0:0:0:0:
448,192,80280,1,0,0:0:0:0:
320,192,80340,1,0,0:0:0:0:
64,192,80400,1,0,0:0:0:0:
192,192,80400,1,0,0:0:0:0:
320,192,80460,1,0,0:0:0:0:
448,192,80460,1,0,0:0:0:0:
64,192,80520,1,0,0:0:0:0:
192,192,80520,1,0,0:0:0:0:
320,192,80580,1,0,0:0:0:0:
192,192,80640,1,0,0:0:0:0:
448,192,80640,1,0,0:0:0:0:
64,192,80700,1,0,0:0:0:0:
320,192,80700,1,0,0:0:0:0:
192,192,80760,1,0,0:0:0:0:
448,192,80760,1,0,0:0:0:0:
320,192,80820,1,0,0:0:0:0:
64,192,80880,1,0,0:0:0:0:
448,192,80880,1,0,0:0:0:0:
192,192,80940,1,0,0:0:0:0:
320,192,80940,1,0,0:0:0:0:
64,192,81000,1,0,0:0:0:0:
448,192,81000,1,0,0:0:0:0:
192,192,81060,1,0,0:0:0:0:
320,192,81120,1,0,0:0:0:0:
448,192,81120,1,0,0:0:0:0:
64,192,81180,1,0,0:0:0:0:
192,192,81180,1,0,0:0:0:0:
320,192,81240,1,0,0:0:0:0:
448,192,81240,1,0,0:0:0:0:
192,192,81300,1,0,0:0:0:0:
64,192,81360,1,0,0:0:0:0:
320,192,81360,1,0,0:0:0:0:
192,192,81420,1,0,0:0:0:0:
448,192,81420,1,0,0:0:0:0:
64,192,81480,1,0,0:0:0:0:
320,192,81480,1,0,0:0:0:0:
448,192,81540,1,0,0:0:0:0:
192,192,81600,1,0,0:0:0:0:
320,192,81600,1,0,0:0:0:0:
64,192,81660,1,0,0:0:0:0:
448,192,81660,1,0,0:0:0:0:
192,192,81720,1,0,0:0:0:0:
320,192,81720,1,0,0:0:0:0:
64,192,81780,1,0,0:0:0:0:
320,192,81840,1,0,0:0:0:0:
448,192,81840,1,0,0:0:0:0:
64,192,81900,1,0,0:0:0:0:
192,192,81900,1,0,0:0:0:0:
320,192,81960,1,0,0:0:0:0:
448,192,81960,1,0,0:0:0:0:
192,192,82020,1,0,0:0:0:0:
64,192,82080,1,0,0:0:0:0:
320,192,82080,1,0,0:0:0:0:
192,192,82140,1,0,0:0:0:0:
448,192,82140,1,0,0:0:0:0:
320,192,82200,1,0,0:0:0:0:
64,192,82260,1,0,0:0:0:0:
192,192,82260,1,0,0:0:0:0:
448,192,82260,1,0,0:0:0:0:
320,192,82320,1,0,0:0:0:0:
64,192,82380,1,0,0:0:0:0:
192,192,82380,1,0,0:0:0:0:
448,192,82440,1,0,0:0:0:0:
64,192,82500,1,0,0:0:0:0:
192,192,82500,1,0,0:0:0:0:
320,192,82500,1,0,0:0:0:0:
448,192,82560,1,0,0:0:0:0:
64,192,82620,1,0,0:0:0:0:
320,192,82620,1,0,0:0:0:0:
192,192,82680,1,0,0:0:0:0:
64,192,82740,1,0,0:0:0:0:
320,192,82740,1,0,0:0:0:0:
448,192,82740,1,0,0:0:0:0:
192,192,82800,1,0,0:0:0:0:
320,192,82860,1,0,0:0:0:0:
448,192,82860,1,0,0:0:0:0:
64,192,82920,1,0,0:0:0:0:
192,192,82980,1,0,0:0:0:0:
320,192,82980,1,0,0:0:0:0:
448,192,82980,1,0,0:0:0:0:
64,192,83040,1,0,0:0:0:0:
192,192,83100,1,0,0:0:0:0:
448,192,83100,1,0,0:0:0:0:
320,192,83160,1,0,0:0:0:0:
64,192,83220,1,0,0:0:0:0:
448,192,83220,1,0,0:0:0:0:
320,192,83250,1,0,0:0:0:0:
192,192,83280,1,0,0:0:0:0:
448,192,83310,1,0,0:0:0:0:
64,192,83340,1,0,0:0:0:0:
320,192,83370,1,0,0:0:0:0:
192,192,83400,1,0,0:0:0:0:
448,192,83430,1,0,0:0:0:0:
64,192,83460,1,0,0:0:0:0:
320,192,83490,1,0,0:0:0:0:
192,192,83520,1,0,0:0:0:0:
448,192,83550,1,0,0:0:0:0:
64,192,83580,1,0,0:0:0:0:
320,192,83610,1,0,0:0:0:0:
192,192,83640,1,0,0:0:0:0:
448,192,83670,1,0,0:0:0:0:
64,192,83700,1,0,0:0:0:0:
192,192,83720,1,0,0:0:0:0:
320,192,83740,1,0,0:0:0:0:
448,192,83760,1,0,0:0:0:0:
64,192,83780,1,0,0:0:0:0:
192,192,83800,1,0,0:0:0:0:
320,192,83820,1,0,0:0:0:0:
448,192,83840,1,0,0:0:0:0:
64,192,83860,1,0,0:0:0:0:
192,192,83880,1,0,0:0:0:0:
320,192,83900,1,0,0:0:0:0:
448,192,83920,1,0,0:0:0:0:
64,192,83940,1,0,0:0:0:0:
192,192,83960,1,0,0:0:0:0:
320,192,83980,1,0,0:0:0:0:
448,192,84000,1,0,0:0:0:0:
64,192,84020,1,0,0:0:0:0:
192,192,84040,1,0,0:0:0:0:
320,192,84060,1,0,0:0:0:0:
448,192,84080,1,0,0:0:0:0:
64,192,84100,1,0,0:0:0:0:
192,192,84120,1,0,0:0:0:0:
320,192,84140,1,0,0:0:0:0:
448,192,84160,1,0,0:0:0:0:
64,192,84180,1,0,0:0:0:0:
192,192,84180,1,0,0:0:0:0:
448,192,84240,1,0,0:0:0:0:
64,192,84300,1,0,0:0:0:0:
448,192,84360,1,0,0:0:0:0:
192,192,84420,1,0,0:0:0:0:
448,192,84480,1,0,0:0:0:0:
64,192,84540,1,0,0:0:0:0:
448,192,84600,1,0,0:0:0:0:
192,192,84660,1,0,0:0:0:0:
448,192,84720,1,0,0:0:0:0:
64,192,84780,1,0,0:0:0:0:
448,192,84840,1,0,0:0:0:0:
192,192,84900,1,0,0:0:0:0:
64,192,84960,1,0,0:0:0:0:
448,192,85020,1,0,0:0:0:0:
320,192,85080,1,0,0:0:0:0:
64,192,85140,1,0,0:0:0:0:
320,192,85200,1,0,0:0:0:0:
192,192,85260,1,0,0:0:0:0:
320,192,85320,1,0,0:0:0:0:
64,192,85380,1,0,0:0:0:0:
320,192,85440,1,0,0:0:0:0:
192,192,85500,1,0,0:0:0:0:
320,192,85560,1,0,0:0:0:0:
64,192,85620,1,0,0:0:0:0:
320,192,85680,1,0,0:0:0:0:
192,192,85740,1,0,0:0:0:0:
320,192,85800,1,0,0:0:0:0:
64,192,85860,1,0,0:0:0:0:
320,192,85920,1,0,0:0:0:0:
192,192,85980,1,0,0:0:0:0:
320,192,86040,1,0,0:0:0:0:
448,192,86100,1,0,0:0:0:0:
64,192,86160,1,0,0:0:0:0:
320,192,86220,1,0,0:0:0:0:
64,192,86280,1,0,0:0:0:0:
448,192,86340,1,0,0:0:0:0:
64,192,86400,1,0,0:0:0:0:
320,192,86460,1,0,0:0:0:0:
64,192,86520,1,0,0:0:0:0:
448,192,86580,1,0,0:0:0:0:
64,192,86640,1,0,0:0:0:0:
320,192,86700,1,0,0:0:0:0:
64,192,86760,1,0,0:0:0:0:
448,192,86820,1,0,0:0:0:0:
64,192,86880,1,0,0:0:0:0:
320,192,86940,1,0,0:0:0:0:
64,192,87000,1,0,0:0:0:0:
192,192,87060,1,0,0:0:0:0:
448,192,87180,1,0,0:0:0:0:
320,192,87240,1,0,0:0:0:0:
320,192,87360,1,0,0:0:0:0:
64,192,87420,1,0,0:0:0:0:
448,192,87480,1,0,0:0:0:0:
64,192,87600,1,0,0:0:0:0:
192,192,87660,1,0,0:0:0:0:
320,192,87720,1,0,0:0:0:0:
192,192,87840,1,0,0:0:0:0:
192,192,87900,1,0,0:0:0:0:
320,192,87960,1,0,0:0:0:0:
64,192,88080,1,0,0:0:0:0:
320,192,88200,1,0,0:0:0:0:
448,192,88320,1,0,0:0:0:0:
192,192,88440,1,0,0:0:0:0:
320,192,88560,1,0,0:0:0:0:
192,192,88620,1,0,0:0:0:0:
448,192,88680,1,0,0:0:0:0:
192,192,88800,1,0,0:0:0:0:
64,192,88860,1,0,0:0:0:0:
320,192,88920,1,0,0:0:0:0:
192,192,88980,1,0,0:0:0:0:
448,192,89100,1,0,0:0:0:0:
320,192,89160,1,0,0:0:0:0:
64,192,89280,1,0,0:0:0:0:
192,192,89340,1,0,0:0:0:0:
448,192,89400,1,0,0:0:0:0:
448,192,89460,1,0,0:0:0:0:
192,192,89520,1,0,0:0:0:0:
320,192,89640,1,0,0:0:0:0:
64,192,89700,1,0,0:0:0:0:
448,192,89820,1,0,0:0:0:0:
192,192,89880,1,0,0:0:0:0:
192,192,90000,1,0,0:0:0:0:
320,192,90060,1,0,0:0:0:0:
64,192,90180,1,0,0:0:0:0:
320,192,90240,1,0,0:0:0:0:
320,192,90360,1,0,0:0:0:0:
448,192,90420,1,0,0:0:0:0:
192,192,90540,1,0,0:0:0:0:
320,192,90600,1,0,0:0:0:0:
448,192,90720,1,0,0:0:0:0:
320,192,90780,1,0,0:0:0:0:
192,192,90840,1,0,0:0:0:0:
320,192,90900,1,0,0:0:0:0:
448,192,90960,1,0,0:0:0:0:
64,192,91020,1,0,0:0:0:0:
192,192,91080,1,0,0:0:0:0:
