osu file format v14

[General]
AudioFilename: z6_1.15.mp3
AudioLeadIn: 0
PreviewTime: 0
Countdown: 0
SampleSet: None
StackLeniency: 0.7
Mode: 3
LetterboxInBreaks: 1
SpecialStyle: 0
WidescreenStoryboard: 0

[Editor]
DistanceSpacing: 0.8
BeatDivisor: 12
GridSize: 16
TimelineZoom: 1

[Metadata]
Title:Z6
TitleUnicode:Z6
Artist:Gear Project
ArtistUnicode:Gear Project
Creator:booty
Version:Challenge x1.15
Source:SM
Tags:
BeatmapID:1566272
BeatmapSetID:742590

[Difficulty]
HPDrainRate:7
CircleSize:4
OverallDifficulty:7
ApproachRate:5
SliderMultiplier:1.4
SliderTickRate:1

[Events]
//Background and Video events
0,0,"Z6-BG.jpg",0,0
//Break Periods
//Storyboard Layer 0 (Background)
//Storyboard Layer 1 (Fail)
//Storyboard Layer 2 (Pass)
//Storyboard Layer 3 (Foreground)
//Storyboard Sound Samples

[TimingPoints]
0,260.869565217391,4,1,0,0,1,0

[HitObjects]
64,192,22,5,0,0:0:0:0:
448,192,22,1,0,0:0:0:0:
192,192,87,1,0,0:0:0:0:
320,192,153,1,0,0:0:0:0:
192,192,218,1,0,0:0:0:0:
448,192,283,1,0,0:0:0:0:
192,192,348,1,0,0:0:0:0:
320,192,413,1,0,0:0:0:0:
192,192,479,1,0,0:0:0:0:
64,192,544,1,0,0:0:0:0:
448,192,544,1,0,0:0:0:0:
192,192,609,1,0,0:0:0:0:
320,192,674,1,0,0:0:0:0:
192,192,740,1,0,0:0:0:0:
448,192,740,1,0,0:0:0:0:
320,192,805,1,0,0:0:0:0:
64,192,870,1,0,0:0:0:0:
192,192,935,1,0,0:0:0:0:
448,192,935,1,0,0:0:0:0:
320,192,1000,1,0,0:0:0:0:
64,192,1066,1,0,0:0:0:0:
192,192,1066,1,0,0:0:0:0:
320,192,1131,1,0,0:0:0:0:
192,192,1196,1,0,0:0:0:0:
320,192,1261,1,0,0:0:0:0:
64,192,1326,1,0,0:0:0:0:
320,192,1392,1,0,0:0:0:0:
192,192,1457,1,0,0:0:0:0:
320,192,1522,1,0,0:0:0:0:
64,192,1587,1,0,0:0:0:0:
448,192,1587,1,0,0:0:0:0:
320,192,1653,1,0,0:0:0:0:
448,192,1718,1,0,0:0:0:0:
64,192,1783,1,0,0:0:0:0:
192,192,1783,1,0,0:0:0:0:
320,192,1848,1,0,0:0:0:0:
192,192,1913,1,0,0:0:0:0:
320,192,1979,1,0,0:0:0:0:
448,192,1979,1,0,0:0:0:0:
64,192,2044,1,0,0:0:0:0:
192,192,2044,1,0,0:0:0:0:
320,192,2109,1,0,0:0:0:0:
448,192,2109,1,0,0:0:0:0:
64,192,2174,1,0,0:0:0:0:
320,192,2240,1,0,0:0:0:0:
64,192,2305,1,0,0:0:0:0:
448,192,2370,1,0,0:0:0:0:
64,192,2435,1,0,0:0:0:0:
320,192,2500,1,0,0:0:0:0:
64,192,2566,1,0,0:0:0:0:
320,192,2631,1,0,0:0:0:0:
448,192,2631,1,0,0:0:0:0:
192,192,2696,1,0,0:0:0:0:
64,192,2761,1,0,0:0:0:0:
192,192,2826,1,0,0:0:0:0:
448,192,2826,1,0,0:0:0:0:
320,192,2892,1,0,0:0:0:0:
192,192,2957,1,0,0:0:0:0:
64,192,3022,1,0,0:0:0:0:
448,192,3022,1,0,0:0:0:0:
192,192,3087,1,0,0:0:0:0:
320,192,3153,1,0,0:0:0:0:
448,192,3153,1,0,0:0:0:0:
192,192,3218,1,0,0:0:0:0:
320,192,3283,1,0,0:0:0:0:
448,192,3283,1,0,0:0:0:0:
192,192,3348,1,0,0:0:0:0:
320,192,3413,1,0,0:0:0:0:
448,192,3413,1,0,0:0:0:0:
192,192,3479,1,0,0:0:0:0:
320,192,3544,1,0,0:0:0:0:
448,192,3544,1,0,0:0:0:0:
192,192,3609,1,0,0:0:0:0:
320,192,3674,1,0,0:0:0:0:
448,192,3674,1,0,0:0:0:0:
192,192,3740,1,0,0:0:0:0:
320,192,3805,1,0,0:0:0:0:
448,192,3805,1,0,0:0:0:0:
192,192,3870,1,0,0:0:0:0:
320,192,3935,1,0,0:0:0:0:
448,192,3935,1,0,0:0:0:0:
64,192,4000,1,0,0:0:0:0:
192,192,4000,1,0,0:0:0:0:
320,192,4066,1,0,0:0:0:0:
448,192,4066,1,0,0:0:0:0:
64,192,4131,1,0,0:0:0:0:
192,192,4131,1,0,0:0:0:0:
320,192,4196,1,0,0:0:0:0:
448,192,4196,1,0,0:0:0:0:
192,192,4261,1,0,0:0:0:0:
320,192,4326,1,0,0:0:0:0:
192,192,4392,1,0,0:0:0:0:
448,192,4457,1,0,0:0:0:0:
192,192,4522,1,0,0:0:0:0:
320,192,4587,1,0,0:0:0:0:
192,192,4653,1,0,0:0:0:0:
64,192,4718,1,0,0:0:0:0:
448,192,4718,1,0,0:0:0:0:
320,192,4783,1,0,0:0:0:0:
192,192,4848,1,0,0:0:0:0:
64,192,4913,1,0,0:0:0:0:
448,192,4913,1,0,0:0:0:0:
320,192,4979,1,0,0:0:0:0:
192,192,5044,1,0,0:0:0:0:
64,192,5109,1,0,0:0:0:0:
320,192,5109,1,0,0:0:0:0:
448,192,5174,1,0,0:0:0:0:
64,192,5240,1,0,0:0:0:0:
192,192,5240,1,0,0:0:0:0:
320,192,5305,1,0,0:0:0:0:
64,192,5370,1,0,0:0:0:0:
320,192,5435,1,0,0:0:0:0:
192,192,5500,1,0,0:0:0:0:
320,192,5566,1,0,0:0:0:0:
64,192,5631,1,0,0:0:0:0:
320,192,5696,1,0,0:0:0:0:
192,192,5761,1,0,0:0:0:0:
448,192,5761,1,0,0:0:0:0:
320,192,5826,1,0,0:0:0:0:
192,192,5892,1,0,0:0:0:0:
64,192,5957,1,0,0:0:0:0:
320,192,5957,1,0,0:0:0:0:
448,192,6022,1,0,0:0:0:0:
320,192,6087,1,0,0:0:0:0:
64,192,6153,1,0,0:0:0:0:
192,192,6153,1,0,0:0:0:0:
320,192,6218,1,0,0:0:0:0:
448,192,6218,1,0,0:0:0:0:
64,192,6283,1,0,0:0:0:0:
192,192,6283,1,0,0:0:0:0:
320,192,6348,1,0,0:0:0:0:
192,192,6413,1,0,0:0:0:0:
320,192,6479,1,0,0:0:0:0:
64,192,6544,1,0,0:0:0:0:
320,192,6609,1,0,0:0:0:0:
192,192,6674,1,0,0:0:0:0:
320,192,6740,1,0,0:0:0:0:
64,192,6805,1,0,0:0:0:0:
448,192,6805,1,0,0:0:0:0:
320,192,6870,1,0,0:0:0:0:
192,192,6935,1,0,0:0:0:0:
64,192,7000,1,0,0:0:0:0:
320,192,7000,1,0,0:0:0:0:
448,192,7066,1,0,0:0:0:0:
320,192,7131,1,0,0:0:0:0:
192,192,7196,1,0,0:0:0:0:
448,192,7196,1,0,0:0:0:0:
320,192,7261,1,0,0:0:0:0:
64,192,7326,1,0,0:0:0:0:
192,192,7326,1,0,0:0:0:0:
320,192,7392,1,0,0:0:0:0:
64,192,7457,1,0,0:0:0:0:
192,192,7457,1,0,0:0:0:0:
320,192,7522,1,0,0:0:0:0:
64,192,7587,1,0,0:0:0:0:
192,192,7587,1,0,0:0:0:0:
320,192,7653,1,0,0:0:0:0:
64,192,7718,1,0,0:0:0:0:
192,192,7718,1,0,0:0:0:0:
320,192,7783,1,0,0:0:0:0:
64,192,7848,1,0,0:0:0:0:
192,192,7848,1,0,0:0:0:0:
320,192,7913,1,0,0:0:0:0:
64,192,7979,1,0,0:0:0:0:
192,192,7979,1,0,0:0:0:0:
320,192,8044,1,0,0:0:0:0:
64,192,8109,1,0,0:0:0:0:
192,192,8109,1,0,0:0:0:0:
320,192,8174,1,0,0:0:0:0:
448,192,8174,1,0,0:0:0:0:
64,192,8240,1,0,0:0:0:0:
192,192,8240,1,0,0:0:0:0:
320,192,8305,1,0,0:0:0:0:
448,192,8305,1,0,0:0:0:0:
64,192,8370,1,0,0:0:0:0:
192,0,8370,128,0,8761:1:0:0:0:
64,192,8892,1,0,0:0:0:0:
320,192,8892,1,0,0:0:0:0:
192,192,8957,1,0,0:0:0:0:
448,192,8957,1,0,0:0:0:0:
64,192,9022,1,0,0:0:0:0:
320,192,9022,1,0,0:0:0:0:
192,192,9087,1,0,0:0:0:0:
448,192,9153,1,0,0:0:0:0:
320,192,9174,1,0,0:0:0:0:
192,192,9196,1,0,0:0:0:0:
64,192,9218,1,0,0:0:0:0:
448,192,9240,1,0,0:0:0:0:
320,192,9261,1,0,0:0:0:0:
192,192,9283,1,0,0:0:0:0:
64,192,9305,1,0,0:0:0:0:
448,192,9326,1,0,0:0:0:0:
320,192,9348,1,0,0:0:0:0:
192,192,9370,1,0,0:0:0:0:
64,192,9392,1,0,0:0:0:0:
320,192,9413,1,0,0:0:0:0:
448,192,9413,1,0,0:0:0:0:
192,192,9479,1,0,0:0:0:0:
64,192,9544,1,0,0:0:0:0:
320,192,9544,1,0,0:0:0:0:
192,192,9609,1,0,0:0:0:0:
64,192,9674,1,0,0:0:0:0:
448,192,9674,1,0,0:0:0:0:
320,192,9740,1,0,0:0:0:0:
64,192,9805,1,0,0:0:0:0:
192,192,9805,1,0,0:0:0:0:
320,192,9870,1,0,0:0:0:0:
192,192,9935,1,0,0:0:0:0:
448,192,9935,1,0,0:0:0:0:
64,192,10000,1,0,0:0:0:0:
320,192,10066,1,0,0:0:0:0:
448,192,10066,1,0,0:0:0:0:
64,192,10131,1,0,0:0:0:0:
192,192,10196,1,0,0:0:0:0:
320,192,10196,1,0,0:0:0:0:
448,192,10261,1,0,0:0:0:0:
64,192,10326,1,0,0:0:0:0:
320,192,10326,1,0,0:0:0:0:
192,192,10392,1,0,0:0:0:0:
320,192,10457,1,0,0:0:0:0:
448,192,10457,1,0,0:0:0:0:
64,192,10522,1,0,0:0:0:0:
192,192,10587,1,0,0:0:0:0:
320,192,10587,1,0,0:0:0:0:
448,192,10653,1,0,0:0:0:0:
64,192,10718,1,0,0:0:0:0:
320,192,10718,1,0,0:0:0:0:
192,192,10783,1,0,0:0:0:0:
320,192,10848,1,0,0:0:0:0:
448,192,10848,1,0,0:0:0:0:
64,192,10913,1,0,0:0:0:0:
192,192,10979,1,0,0:0:0:0:
320,192,10979,1,0,0:0:0:0:
448,192,11044,1,0,0:0:0:0:
64,192,11109,1,0,0:0:0:0:
320,192,11109,1,0,0:0:0:0:
192,192,11174,1,0,0:0:0:0:
320,192,11240,1,0,0:0:0:0:
448,192,11240,1,0,0:0:0:0:
64,192,11305,1,0,0:0:0:0:
192,192,11305,1,0,0:0:0:0:
320,192,11370,1,0,0:0:0:0:
448,192,11370,1,0,0:0:0:0:
64,192,11435,1,0,0:0:0:0:
192,192,11435,1,0,0:0:0:0:
320,192,11500,1,0,0:0:0:0:
448,192,11500,1,0,0:0:0:0:
64,192,11566,1,0,0:0:0:0:
192,192,11631,1,0,0:0:0:0:
320,192,11631,1,0,0:0:0:0:
448,192,11696,1,0,0:0:0:0:
64,192,11761,1,0,0:0:0:0:
192,192,11761,1,0,0:0:0:0:
320,192,11826,1,0,0:0:0:0:
192,192,11892,1,0,0:0:0:0:
448,192,11892,1,0,0:0:0:0:
64,192,11957,1,0,0:0:0:0:
320,192,12022,1,0,0:0:0:0:
448,192,12022,1,0,0:0:0:0:
192,192,12087,1,0,0:0:0:0:
64,192,12153,1,0,0:0:0:0:
448,192,12153,1,0,0:0:0:0:
320,192,12218,1,0,0:0:0:0:
64,192,12283,1,0,0:0:0:0:
192,192,12283,1,0,0:0:0:0:
448,192,12348,1,0,0:0:0:0:
192,192,12413,1,0,0:0:0:0:
320,192,12413,1,0,0:0:0:0:
64,192,12479,1,0,0:0:0:0:
320,192,12544,1,0,0:0:0:0:
448,192,12544,1,0,0:0:0:0:
192,192,12609,1,0,0:0:0:0:
64,192,12674,1,0,0:0:0:0:
448,192,12674,1,0,0:0:0:0:
320,192,12740,1,0,0:0:0:0:
64,192,12805,1,0,0:0:0:0:
192,192,12805,1,0,0:0:0:0:
448,192,12870,1,0,0:0:0:0:
192,192,12935,1,0,0:0:0:0:
320,192,12935,1,0,0:0:0:0:
64,192,13000,1,0,0:0:0:0:
320,192,13066,1,0,0:0:0:0:
448,192,13066,1,0,0:0:0:0:
64,192,13131,1,0,0:0:0:0:
192,192,13131,1,0,0:0:0:0:
320,192,13196,1,0,0:0:0:0:
448,192,13196,1,0,0:0:0:0:
192,192,13261,1,0,0:0:0:0:
64,192,13326,1,0,0:0:0:0:
448,192,13326,1,0,0:0:0:0:
192,192,13392,1,0,0:0:0:0:
320,192,13392,1,0,0:0:0:0:
64,192,13457,1,0,0:0:0:0:
448,192,13457,1,0,0:0:0:0:
192,192,13522,1,0,0:0:0:0:
320,192,13522,1,0,0:0:0:0:
64,192,13587,1,0,0:0:0:0:
448,192,13587,1,0,0:0:0:0:
320,192,13653,1,0,0:0:0:0:
64,192,13718,1,0,0:0:0:0:
192,192,13718,1,0,0:0:0:0:
448,192,13783,1,0,0:0:0:0:
192,192,13848,1,0,0:0:0:0:
320,192,13848,1,0,0:0:0:0:
64,192,13913,1,0,0:0:0:0:
320,192,13979,1,0,0:0:0:0:
448,192,13979,1,0,0:0:0:0:
192,192,14044,1,0,0:0:0:0:
64,192,14109,1,0,0:0:0:0:
320,192,14109,1,0,0:0:0:0:
192,192,14174,1,0,0:0:0:0:
320,192,14240,1,0,0:0:0:0:
448,192,14240,1,0,0:0:0:0:
64,192,14305,1,0,0:0:0:0:
192,192,14370,1,0,0:0:0:0:
320,192,14370,1,0,0:0:0:0:
448,192,14435,1,0,0:0:0:0:
64,192,14500,1,0,0:0:0:0:
320,192,14500,1,0,0:0:0:0:
192,192,14566,1,0,0:0:0:0:
320,192,14631,1,0,0:0:0:0:
448,192,14631,1,0,0:0:0:0:
192,192,14696,1,0,0:0:0:0:
64,192,14761,1,0,0:0:0:0:
448,192,14761,1,0,0:0:0:0:
320,192,14826,1,0,0:0:0:0:
64,192,14892,1,0,0:0:0:0:
192,192,14892,1,0,0:0:0:0:
320,192,14957,1,0,0:0:0:0:
192,192,15022,1,0,0:0:0:0:
448,192,15022,1,0,0:0:0:0:
64,192,15087,1,0,0:0:0:0:
320,192,15153,1,0,0:0:0:0:
448,192,15153,1,0,0:0:0:0:
192,192,15218,1,0,0:0:0:0:
64,192,15283,1,0,0:0:0:0:
320,192,15283,1,0,0:0:0:0:
448,192,15348,1,0,0:0:0:0:
192,192,15413,1,0,0:0:0:0:
320,192,15413,1,0,0:0:0:0:
64,192,15479,1,0,0:0:0:0:
448,192,15479,1,0,0:0:0:0:
192,192,15544,1,0,0:0:0:0:
320,192,15544,1,0,0:0:0:0:
64,192,15609,1,0,0:0:0:0:
448,192,15609,1,0,0:0:0:0:
192,192,15674,1,0,0:0:0:0:
320,192,15674,1,0,0:0:0:0:
64,192,15740,1,0,0:0:0:0:
320,192,15805,1,0,0:0:0:0:
448,192,15805,1,0,0:0:0:0:
192,192,15870,1,0,0:0:0:0:
64,192,15935,1,0,0:0:0:0:
320,192,15935,1,0,0:0:0:0:
448,192,16000,1,0,0:0:0:0:
192,192,16066,1,0,0:0:0:0:
320,192,16066,1,0,0:0:0:0:
448,192,16131,1,0,0:0:0:0:
64,192,16196,1,0,0:0:0:0:
320,192,16196,1,0,0:0:0:0:
192,192,16261,1,0,0:0:0:0:
320,192,16326,1,0,0:0:0:0:
448,192,16326,1,0,0:0:0:0:
192,192,16392,1,0,0:0:0:0:
64,192,16457,1,0,0:0:0:0:
320,192,16457,1,0,0:0:0:0:
448,192,16522,1,0,0:0:0:0:
64,192,16587,1,0,0:0:0:0:
320,192,16587,1,0,0:0:0:0:
192,192,16653,1,0,0:0:0:0:
320,192,16718,1,0,0:0:0:0:
448,192,16718,1,0,0:0:0:0:
64,192,16783,1,0,0:0:0:0:
192,192,16783,1,0,0:0:0:0:
320,192,16848,1,0,0:0:0:0:
448,192,16848,1,0,0:0:0:0:
192,192,16979,1,0,0:0:0:0:
320,192,16979,1,0,0:0:0:0:
64,192,17109,1,0,0:0:0:0:
320,192,17109,1,0,0:0:0:0:
192,192,17174,1,0,0:0:0:0:
448,192,17174,1,0,0:0:0:0:
64,192,17240,1,0,0:0:0:0:
320,192,17240,1,0,0:0:0:0:
192,192,17305,1,0,0:0:0:0:
448,192,17305,1,0,0:0:0:0:
64,192,17370,1,0,0:0:0:0:
320,192,17370,1,0,0:0:0:0:
192,192,17435,1,0,0:0:0:0:
448,192,17435,1,0,0:0:0:0:
64,192,17500,1,0,0:0:0:0:
320,192,17500,1,0,0:0:0:0:
192,192,17566,1,0,0:0:0:0:
448,192,17566,1,0,0:0:0:0:
64,192,17631,1,0,0:0:0:0:
320,192,17631,1,0,0:0:0:0:
192,192,17696,1,0,0:0:0:0:
448,192,17696,1,0,0:0:0:0:
64,192,17761,1,0,0:0:0:0:
320,192,17761,1,0,0:0:0:0:
192,192,17826,1,0,0:0:0:0:
320,192,17892,1,0,0:0:0:0:
448,192,17892,1,0,0:0:0:0:
64,192,17957,1,0,0:0:0:0:
320,192,18022,1,0,0:0:0:0:
448,192,18022,1,0,0:0:0:0:
192,192,18087,1,0,0:0:0:0:
64,192,18153,1,0,0:0:0:0:
448,192,18153,1,0,0:0:0:0:
320,192,18218,1,0,0:0:0:0:
64,192,18283,1,0,0:0:0:0:
192,192,18283,1,0,0:0:0:0:
320,192,18348,1,0,0:0:0:0:
192,192,18413,1,0,0:0:0:0:
448,192,18413,1,0,0:0:0:0:
64,192,18479,1,0,0:0:0:0:
192,192,18544,1,0,0:0:0:0:
320,192,18544,1,0,0:0:0:0:
448,192,18609,1,0,0:0:0:0:
64,192,18674,1,0,0:0:0:0:
192,192,18674,1,0,0:0:0:0:
448,192,18740,1,0,0:0:0:0:
192,192,18805,1,0,0:0:0:0:
320,192,18805,1,0,0:0:0:0:
64,192,18870,1,0,0:0:0:0:
320,192,18935,1,0,0:0:0:0:
448,192,18935,1,0,0:0:0:0:
192,192,19000,1,0,0:0:0:0:
320,192,19066,1,0,0:0:0:0:
448,192,19066,1,0,0:0:0:0:
64,192,19131,1,0,0:0:0:0:
192,192,19196,1,0,0:0:0:0:
320,192,19196,1,0,0:0:0:0:
64,192,19261,1,0,0:0:0:0:
320,192,19326,1,0,0:0:0:0:
448,192,19326,1,0,0:0:0:0:
192,192,19392,1,0,0:0:0:0:
64,192,19457,1,0,0:0:0:0:
448,192,19457,1,0,0:0:0:0:
320,192,19522,1,0,0:0:0:0:
64,192,19587,1,0,0:0:0:0:
192,192,19587,1,0,0:0:0:0:
320,192,19653,1,0,0:0:0:0:
448,192,19653,1,0,0:0:0:0:
64,192,19718,1,0,0:0:0:0:
192,192,19718,1,0,0:0:0:0:
320,192,19783,1,0,0:0:0:0:
448,192,19783,1,0,0:0:0:0:
64,192,19848,1,0,0:0:0:0:
192,192,19848,1,0,0:0:0:0:
320,192,19913,1,0,0:0:0:0:
192,192,19979,1,0,0:0:0:0:
448,192,19979,1,0,0:0:0:0:
320,192,20044,1,0,0:0:0:0:
64,192,20109,1,0,0:0:0:0:
448,192,20109,1,0,0:0:0:0:
192,192,20174,1,0,0:0:0:0:
64,192,20240,1,0,0:0:0:0:
320,192,20240,1,0,0:0:0:0:
192,192,20305,1,0,0:0:0:0:
320,192,20370,1,0,0:0:0:0:
448,192,20370,1,0,0:0:0:0:
64,192,20435,1,0,0:0:0:0:
192,192,20500,1,0,0:0:0:0:
320,192,20500,1,0,0:0:0:0:
64,192,20566,1,0,0:0:0:0:
320,192,20631,1,0,0:0:0:0:
448,192,20631,1,0,0:0:0:0:
192,192,20696,1,0,0:0:0:0:
64,192,20761,1,0,0:0:0:0:
320,192,20761,1,0,0:0:0:0:
448,192,20826,1,0,0:0:0:0:
192,192,20892,1,0,0:0:0:0:
320,192,20892,1,0,0:0:0:0:
64,192,20957,1,0,0:0:0:0:
320,192,21022,1,0,0:0:0:0:
448,192,21022,1,0,0:0:0:0:
64,192,21087,1,0,0:0:0:0:
192,192,21153,1,0,0:0:0:0:
320,192,21153,1,0,0:0:0:0:
448,192,21218,1,0,0:0:0:0:
64,192,21283,1,0,0:0:0:0:
192,192,21283,1,0,0:0:0:0:
320,192,21348,1,0,0:0:0:0:
64,192,21413,1,0,0:0:0:0:
448,192,21413,1,0,0:0:0:0:
192,192,21479,1,0,0:0:0:0:
320,192,21479,1,0,0:0:0:0:
64,192,21544,1,0,0:0:0:0:
448,192,21544,1,0,0:0:0:0:
192,192,21609,1,0,0:0:0:0:
320,192,21674,1,0,0:0:0:0:
448,192,21674,1,0,0:0:0:0:
64,192,21740,1,0,0:0:0:0:
192,192,21740,1,0,0:0:0:0:
320,192,21805,1,0,0:0:0:0:
448,192,21805,1,0,0:0:0:0:
192,192,21870,1,0,0:0:0:0:
64,192,21935,1,0,0:0:0:0:
320,192,21935,1,0,0:0:0:0:
448,192,21935,1,0,0:0:0:0:
192,192,22000,1,0,0:0:0:0:
320,192,22066,1,0,0:0:0:0:
448,192,22066,1,0,0:0:0:0:
64,192,22131,1,0,0:0:0:0:
192,192,22196,1,0,0:0:0:0:
320,192,22196,1,0,0:0:0:0:
64,192,22261,1,0,0:0:0:0:
320,192,22326,1,0,0:0:0:0:
448,192,22326,1,0,0:0:0:0:
192,192,22392,1,0,0:0:0:0:
64,192,22457,1,0,0:0:0:0:
320,192,22457,1,0,0:0:0:0:
448,192,22522,1,0,0:0:0:0:
64,192,22587,1,0,0:0:0:0:
320,192,22587,1,0,0:0:0:0:
192,192,22653,1,0,0:0:0:0:
64,192,22718,1,0,0:0:0:0:
448,192,22718,1,0,0:0:0:0:
320,192,22783,1,0,0:0:0:0:
192,192,22848,1,0,0:0:0:0:
448,192,22848,1,0,0:0:0:0:
64,192,22913,1,0,0:0:0:0:
192,192,22979,1,0,0:0:0:0:
320,192,22979,1,0,0:0:0:0:
448,192,22979,1,0,0:0:0:0:
64,192,23044,1,0,0:0:0:0:
320,192,23109,1,0,0:0:0:0:
448,192,23109,1,0,0:0:0:0:
192,192,23174,1,0,0:0:0:0:
64,192,23240,1,0,0:0:0:0:
320,192,23240,1,0,0:0:0:0:
448,192,23305,1,0,0:0:0:0:
192,192,23370,1,0,0:0:0:0:
320,192,23370,1,0,0:0:0:0:
448,192,23435,1,0,0:0:0:0:
64,192,23500,1,0,0:0:0:0:
192,192,23500,1,0,0:0:0:0:
320,192,23566,1,0,0:0:0:0:
64,192,23631,1,0,0:0:0:0:
448,192,23631,1,0,0:0:0:0:
192,192,23696,1,0,0:0:0:0:
320,192,23761,1,0,0:0:0:0:
448,192,23761,1,0,0:0:0:0:
64,192,23826,1,0,0:0:0:0:
192,192,23826,1,0,0:0:0:0:
320,192,23892,1,0,0:0:0:0:
448,192,23892,1,0,0:0:0:0:
192,192,23957,1,0,0:0:0:0:
64,192,24022,1,0,0:0:0:0:
320,192,24022,1,0,0:0:0:0:
448,192,24022,1,0,0:0:0:0:
192,192,24087,1,0,0:0:0:0:
320,192,24153,1,0,0:0:0:0:
448,192,24153,1,0,0:0:0:0:
64,192,24218,1,0,0:0:0:0:
192,192,24283,1,0,0:0:0:0:
448,192,24283,1,0,0:0:0:0:
320,192,24348,1,0,0:0:0:0:
64,192,24413,1,0,0:0:0:0:
192,192,24413,1,0,0:0:0:0:
448,192,24479,1,0,0:0:0:0:
64,192,24544,1,0,0:0:0:0:
192,192,24544,1,0,0:0:0:0:
320,192,24544,1,0,0:0:0:0:
448,192,24609,1,0,0:0:0:0:
192,192,24674,1,0,0:0:0:0:
320,192,24674,1,0,0:0:0:0:
64,192,24740,1,0,0:0:0:0:
320,192,24805,1,0,0:0:0:0:
448,192,24805,1,0,0:0:0:0:
192,192,24870,1,0,0:0:0:0:
64,192,24935,1,0,0:0:0:0:
320,192,24935,1,0,0:0:0:0:
448,192,25000,1,0,0:0:0:0:
64,192,25066,1,0,0:0:0:0:
192,192,25066,1,0,0:0:0:0:
320,192,25066,1,0,0:0:0:0:
448,192,25131,1,0,0:0:0:0:
64,192,25196,1,0,0:0:0:0:
192,192,25196,1,0,0:0:0:0:
320,192,25261,1,0,0:0:0:0:
448,192,25261,1,0,0:0:0:0:
64,192,25326,1,0,0:0:0:0:
192,192,25326,1,0,0:0:0:0:
320,192,25392,1,0,0:0:0:0:
448,192,25392,1,0,0:0:0:0:
64,192,25457,1,0,0:0:0:0:
192,192,25457,1,0,0:0:0:0:
320,192,25522,1,0,0:0:0:0:
448,192,25522,1,0,0:0:0:0:
64,192,25587,1,0,0:0:0:0:
192,192,25587,1,0,0:0:0:0:
192,192,25848,1,0,0:0:0:0:
320,192,25848,1,0,0:0:0:0:
448,192,25848,1,0,0:0:0:0:
64,192,25913,1,0,0:0:0:0:
320,192,25979,1,0,0:0:0:0:
448,192,25979,1,0,0:0:0:0:
64,192,26044,1,0,0:0:0:0:
192,192,26109,1,0,0:0:0:0:
320,192,26109,1,0,0:0:0:0:
448,192,26109,1,0,0:0:0:0:
192,192,26240,1,0,0:0:0:0:
64,192,26370,1,0,0:0:0:0:
320,192,26370,1,0,0:0:0:0:
448,192,26500,1,0,0:0:0:0:
64,192,26566,1,0,0:0:0:0:
320,192,26631,1,0,0:0:0:0:
192,192,26761,1,0,0:0:0:0:
448,192,26761,1,0,0:0:0:0:
64,192,26892,1,0,0:0:0:0:
320,192,26957,1,0,0:0:0:0:
192,192,27022,1,0,0:0:0:0:
320,192,27153,1,0,0:0:0:0:
320,192,27283,1,0,0:0:0:0:
64,192,27413,1,0,0:0:0:0:
192,192,27413,1,0,0:0:0:0:
448,192,27544,1,0,0:0:0:0:
320,192,27609,1,0,0:0:0:0:
64,192,27674,1,0,0:0:0:0:
320,192,27805,1,0,0:0:0:0:
448,192,27805,1,0,0:0:0:0:
64,192,27935,1,0,0:0:0:0:
192,192,28000,1,0,0:0:0:0:
320,192,28066,1,0,0:0:0:0:
448,192,28196,1,0,0:0:0:0:
448,192,28326,1,0,0:0:0:0:
192,192,28457,1,0,0:0:0:0:
320,192,28457,1,0,0:0:0:0:
448,192,28587,1,0,0:0:0:0:
192,192,28653,1,0,0:0:0:0:
320,192,28718,1,0,0:0:0:0:
64,192,28848,1,0,0:0:0:0:
448,192,28848,1,0,0:0:0:0:
192,192,28979,1,0,0:0:0:0:
64,192,29044,1,0,0:0:0:0:
448,192,29109,1,0,0:0:0:0:
320,192,29240,1,0,0:0:0:0:
320,192,29370,1,0,0:0:0:0:
64,192,29500,1,0,0:0:0:0:
192,192,29500,1,0,0:0:0:0:
320,192,29631,1,0,0:0:0:0:
192,192,29696,1,0,0:0:0:0:
448,192,29761,1,0,0:0:0:0:
448,192,29892,1,0,0:0:0:0:
192,192,30022,1,0,0:0:0:0:
192,192,30153,1,0,0:0:0:0:
320,192,30153,1,0,0:0:0:0:
64,192,30283,1,0,0:0:0:0:
448,192,30283,1,0,0:0:0:0:
320,192,30348,1,0,0:0:0:0:
192,192,30413,1,0,0:0:0:0:
64,192,30479,1,0,0:0:0:0:
320,192,30544,1,0,0:0:0:0:
192,192,30609,1,0,0:0:0:0:
320,192,30674,1,0,0:0:0:0:
448,192,30740,1,0,0:0:0:0:
64,192,30805,1,0,0:0:0:0:
320,192,30805,1,0,0:0:0:0:
192,192,30870,1,0,0:0:0:0:
448,192,30935,1,0,0:0:0:0:
192,192,31000,1,0,0:0:0:0:
320,192,31066,1,0,0:0:0:0:
64,192,31131,1,0,0:0:0:0:
448,192,31196,1,0,0:0:0:0:
320,192,31261,1,0,0:0:0:0:
64,192,31326,1,0,0:0:0:0:
192,192,31326,1,0,0:0:0:0:
448,192,31392,1,0,0:0:0:0:
192,192,31457,1,0,0:0:0:0:
64,192,31522,1,0,0:0:0:0:
320,192,31587,1,0,0:0:0:0:
192,192,31653,1,0,0:0:0:0:
448,192,31718,1,0,0:0:0:0:
64,192,31783,1,0,0:0:0:0:
192,192,31848,1,0,0:0:0:0:
320,192,31848,1,0,0:0:0:0:
448,192,31913,1,0,0:0:0:0:
64,192,31979,1,0,0:0:0:0:
320,192,32044,1,0,0:0:0:0:
192,192,32109,1,0,0:0:0:0:
320,192,32174,1,0,0:0:0:0:
448,192,32240,1,0,0:0:0:0:
64,192,32305,1,0,0:0:0:0:
192,192,32370,1,0,0:0:0:0:
448,192,32370,1,0,0:0:0:0:
320,192,32435,1,0,0:0:0:0:
192,192,32500,1,0,0:0:0:0:
448,192,32500,1,0,0:0:0:0:
320,192,32566,1,0,0:0:0:0:
192,192,32631,1,0,0:0:0:0:
448,192,32631,1,0,0:0:0:0:
320,192,32696,1,0,0:0:0:0:
192,192,32761,1,0,0:0:0:0:
448,192,32761,1,0,0:0:0:0:
320,192,32826,1,0,0:0:0:0:
192,192,32892,1,0,0:0:0:0:
448,192,32892,1,0,0:0:0:0:
320,192,32957,1,0,0:0:0:0:
192,192,33022,1,0,0:0:0:0:
448,192,33022,1,0,0:0:0:0:
320,192,33087,1,0,0:0:0:0:
192,192,33153,1,0,0:0:0:0:
448,192,33153,1,0,0:0:0:0:
320,192,33218,1,0,0:0:0:0:
192,192,33283,1,0,0:0:0:0:
448,192,33283,1,0,0:0:0:0:
320,192,33348,1,0,0:0:0:0:
64,192,33413,1,0,0:0:0:0:
448,192,33413,1,0,0:0:0:0:
320,192,33446,1,0,0:0:0:0:
192,192,33479,1,0,0:0:0:0:
64,192,33511,1,0,0:0:0:0:
448,192,33544,1,0,0:0:0:0:
320,192,33576,1,0,0:0:0:0:
192,192,33609,1,0,0:0:0:0:
64,192,33641,1,0,0:0:0:0:
448,192,33674,1,0,0:0:0:0:
320,192,33706,1,0,0:0:0:0:
192,192,33740,1,0,0:0:0:0:
64,192,33772,1,0,0:0:0:0:
448,192,33805,1,0,0:0:0:0:
320,192,33837,1,0,0:0:0:0:
192,192,33870,1,0,0:0:0:0:
64,192,33902,1,0,0:0:0:0:
320,192,33935,1,0,0:0:0:0:
448,192,33935,1,0,0:0:0:0:
64,192,34000,1,0,0:0:0:0:
192,192,34000,1,0,0:0:0:0:
320,192,34066,1,0,0:0:0:0:
448,192,34066,1,0,0:0:0:0:
192,192,34131,1,0,0:0:0:0:
448,192,34196,1,0,0:0:0:0:
320,192,34218,1,0,0:0:0:0:
192,192,34240,1,0,0:0:0:0:
64,192,34261,1,0,0:0:0:0:
448,192,34283,1,0,0:0:0:0:
320,192,34305,1,0,0:0:0:0:
192,192,34326,1,0,0:0:0:0:
64,192,34348,1,0,0:0:0:0:
448,192,34370,1,0,0:0:0:0:
320,192,34392,1,0,0:0:0:0:
192,192,34413,1,0,0:0:0:0:
64,192,34435,1,0,0:0:0:0:
320,192,34457,1,0,0:0:0:0:
448,192,34457,1,0,0:0:0:0:
192,192,34522,1,0,0:0:0:0:
64,192,34587,1,0,0:0:0:0:
320,192,34587,1,0,0:0:0:0:
448,192,34653,1,0,0:0:0:0:
64,192,34718,1,0,0:0:0:0:
192,192,34718,1,0,0:0:0:0:
448,192,34783,1,0,0:0:0:0:
64,192,34848,1,0,0:0:0:0:
320,192,34848,1,0,0:0:0:0:
192,192,34913,1,0,0:0:0:0:
320,192,34979,1,0,0:0:0:0:
448,192,34979,1,0,0:0:0:0:
64,192,35044,1,0,0:0:0:0:
192,192,35109,1,0,0:0:0:0:
448,192,35109,1,0,0:0:0:0:
320,192,35174,1,0,0:0:0:0:
64,192,35240,1,0,0:0:0:0:
448,192,35240,1,0,0:0:0:0:
192,192,35305,1,0,0:0:0:0:
320,192,35370,1,0,0:0:0:0:
448,192,35370,1,0,0:0:0:0:
64,192,35435,1,0,0:0:0:0:
192,192,35500,1,0,0:0:0:0:
320,192,35500,1,0,0:0:0:0:
64,192,35566,1,0,0:0:0:0:
320,192,35631,1,0,0:0:0:0:
448,192,35631,1,0,0:0:0:0:
192,192,35696,1,0,0:0:0:0:
320,192,35761,1,0,0:0:0:0:
448,192,35761,1,0,0:0:0:0:
64,192,35826,1,0,0:0:0:0:
192,192,35892,1,0,0:0:0:0:
320,192,35892,1,0,0:0:0:0:
448,192,35957,1,0,0:0:0:0:
64,192,36022,1,0,0:0:0:0:
320,192,36022,1,0,0:0:0:0:
448,192,36087,1,0,0:0:0:0:
64,192,36153,1,0,0:0:0:0:
192,192,36153,1,0,0:0:0:0:
320,192,36218,1,0,0:0:0:0:
192,192,36283,1,0,0:0:0:0:
448,192,36283,1,0,0:0:0:0:
64,192,36348,1,0,0:0:0:0:
320,192,36348,1,0,0:0:0:0:
192,192,36413,1,0,0:0:0:0:
448,192,36413,1,0,0:0:0:0:
64,192,36479,1,0,0:0:0:0:
320,192,36479,1,0,0:0:0:0:
192,192,36544,1,0,0:0:0:0:
448,192,36544,1,0,0:0:0:0:
320,192,36609,1,0,0:0:0:0:
64,192,36674,1,0,0:0:0:0:
192,192,36674,1,0,0:0:0:0:
448,192,36740,1,0,0:0:0:0:
192,192,36805,1,0,0:0:0:0:
320,192,36805,1,0,0:0:0:0:
64,192,36870,1,0,0:0:0:0:
320,192,36935,1,0,0:0:0:0:
448,192,36935,1,0,0:0:0:0:
192,192,37000,1,0,0:0:0:0:
64,192,37066,1,0,0:0:0:0:
320,192,37066,1,0,0:0:0:0:
192,192,37131,1,0,0:0:0:0:
64,192,37196,1,0,0:0:0:0:
448,192,37196,1,0,0:0:0:0:
320,192,37261,1,0,0:0:0:0:
64,192,37326,1,0,0:0:0:0:
192,192,37326,1,0,0:0:0:0:
448,192,37392,1,0,0:0:0:0:
192,192,37457,1,0,0:0:0:0:
320,192,37457,1,0,0:0:0:0:
64,192,37522,1,0,0:0:0:0:
320,192,37587,1,0,0:0:0:0:
448,192,37587,1,0,0:0:0:0:
64,192,37653,1,0,0:0:0:0:
192,192,37718,1,0,0:0:0:0:
320,192,37718,1,0,0:0:0:0:
448,192,37783,1,0,0:0:0:0:
64,192,37848,1,0,0:0:0:0:
192,192,37848,1,0,0:0:0:0:
448,192,37913,1,0,0:0:0:0:
64,192,37979,1,0,0:0:0:0:
320,192,37979,1,0,0:0:0:0:
192,192,38044,1,0,0:0:0:0:
64,192,38109,1,0,0:0:0:0:
448,192,38109,1,0,0:0:0:0:
192,192,38174,1,0,0:0:0:0:
320,192,38174,1,0,0:0:0:0:
64,192,38240,1,0,0:0:0:0:
448,192,38240,1,0,0:0:0:0:
320,192,38305,1,0,0:0:0:0:
64,192,38370,1,0,0:0:0:0:
192,192,38370,1,0,0:0:0:0:
320,192,38435,1,0,0:0:0:0:
448,192,38435,1,0,0:0:0:0:
64,192,38500,1,0,0:0:0:0:
192,192,38500,1,0,0:0:0:0:
320,192,38566,1,0,0:0:0:0:
448,192,38566,1,0,0:0:0:0:
64,192,38631,1,0,0:0:0:0:
192,192,38631,1,0,0:0:0:0:
448,192,38696,1,0,0:0:0:0:
192,192,38761,1,0,0:0:0:0:
320,192,38761,1,0,0:0:0:0:
448,192,38826,1,0,0:0:0:0:
64,192,38892,1,0,0:0:0:0:
320,192,38892,1,0,0:0:0:0:
192,192,38957,1,0,0:0:0:0:
64,192,39022,1,0,0:0:0:0:
448,192,39022,1,0,0:0:0:0:
320,192,39087,1,0,0:0:0:0:
64,192,39153,1,0,0:0:0:0:
192,192,39153,1,0,0:0:0:0:
448,192,39218,1,0,0:0:0:0:
192,192,39283,1,0,0:0:0:0:
320,192,39283,1,0,0:0:0:0:
64,192,39348,1,0,0:0:0:0:
320,192,39413,1,0,0:0:0:0:
448,192,39413,1,0,0:0:0:0:
192,192,39479,1,0,0:0:0:0:
64,192,39544,1,0,0:0:0:0:
320,192,39544,1,0,0:0:0:0:
192,192,39609,1,0,0:0:0:0:
64,192,39674,1,0,0:0:0:0:
448,192,39674,1,0,0:0:0:0:
320,192,39740,1,0,0:0:0:0:
192,192,39805,1,0,0:0:0:0:
448,192,39805,1,0,0:0:0:0:
64,192,39870,1,0,0:0:0:0:
192,192,39935,1,0,0:0:0:0:
320,192,39935,1,0,0:0:0:0:
448,192,40000,1,0,0:0:0:0:
64,192,40066,1,0,0:0:0:0:
320,192,40066,1,0,0:0:0:0:
192,192,40131,1,0,0:0:0:0:
320,192,40196,1,0,0:0:0:0:
448,192,40196,1,0,0:0:0:0:
64,192,40261,1,0,0:0:0:0:
192,192,40326,1,0,0:0:0:0:
320,192,40326,1,0,0:0:0:0:
448,192,40392,1,0,0:0:0:0:
192,192,40457,1,0,0:0:0:0:
320,192,40457,1,0,0:0:0:0:
64,192,40522,1,0,0:0:0:0:
448,192,40522,1,0,0:0:0:0:
192,192,40587,1,0,0:0:0:0:
320,192,40587,1,0,0:0:0:0:
64,192,40653,1,0,0:0:0:0:
448,192,40653,1,0,0:0:0:0:
192,192,40718,1,0,0:0:0:0:
320,192,40718,1,0,0:0:0:0:
64,192,40783,1,0,0:0:0:0:
320,192,40848,1,0,0:0:0:0:
448,192,40848,1,0,0:0:0:0:
192,192,40913,1,0,0:0:0:0:
64,192,40979,1,0,0:0:0:0:
448,192,40979,1,0,0:0:0:0:
320,192,41044,1,0,0:0:0:0:
64,192,41109,1,0,0:0:0:0:
192,192,41109,1,0,0:0:0:0:
448,192,41174,1,0,0:0:0:0:
192,192,41240,1,0,0:0:0:0:
320,192,41240,1,0,0:0:0:0:
64,192,41305,1,0,0:0:0:0:
320,192,41370,1,0,0:0:0:0:
448,192,41370,1,0,0:0:0:0:
192,192,41435,1,0,0:0:0:0:
64,192,41500,1,0,0:0:0:0:
320,192,41500,1,0,0:0:0:0:
448,192,41566,1,0,0:0:0:0:
192,192,41631,1,0,0:0:0:0:
320,192,41631,1,0,0:0:0:0:
448,192,41696,1,0,0:0:0:0:
64,192,41761,1,0,0:0:0:0:
320,192,41761,1,0,0:0:0:0:
192,192,41826,1,0,0:0:0:0:
448,192,41826,1,0,0:0:0:0:
64,192,41892,1,0,0:0:0:0:
320,192,41892,1,0,0:0:0:0:
192,192,42022,1,0,0:0:0:0:
320,192,42022,1,0,0:0:0:0:
64,192,42153,1,0,0:0:0:0:
192,192,42153,1,0,0:0:0:0:
320,192,42218,1,0,0:0:0:0:
448,192,42218,1,0,0:0:0:0:
64,192,42283,1,0,0:0:0:0:
192,192,42283,1,0,0:0:0:0:
320,192,42348,1,0,0:0:0:0:
448,192,42348,1,0,0:0:0:0:
64,192,42413,1,0,0:0:0:0:
192,192,42413,1,0,0:0:0:0:
320,192,42479,1,0,0:0:0:0:
448,192,42479,1,0,0:0:0:0:
64,192,42544,1,0,0:0:0:0:
192,192,42544,1,0,0:0:0:0:
320,192,42609,1,0,0:0:0:0:
448,192,42609,1,0,0:0:0:0:
64,192,42674,1,0,0:0:0:0:
192,192,42674,1,0,0:0:0:0:
320,192,42740,1,0,0:0:0:0:
448,192,42740,1,0,0:0:0:0:
64,192,42805,1,0,0:0:0:0:
192,192,42805,1,0,0:0:0:0:
320,192,42870,1,0,0:0:0:0:
192,192,42935,1,0,0:0:0:0:
448,192,42935,1,0,0:0:0:0:
64,192,43000,1,0,0:0:0:0:
192,192,43066,1,0,0:0:0:0:
320,192,43066,1,0,0:0:0:0:
448,192,43131,1,0,0:0:0:0:
64,192,43196,1,0,0:0:0:0:
320,192,43196,1,0,0:0:0:0:
192,192,43261,1,0,0:0:0:0:
320,192,43326,1,0,0:0:0:0:
448,192,43326,1,0,0:0:0:0:
64,192,43392,1,0,0:0:0:0:
192,192,43457,1,0,0:0:0:0:
320,192,43457,1,0,0:0:0:0:
64,192,43522,1,0,0:0:0:0:
320,192,43587,1,0,0:0:0:0:
448,192,43587,1,0,0:0:0:0:
192,192,43653,1,0,0:0:0:0:
64,192,43718,1,0,0:0:0:0:
320,192,43718,1,0,0:0:0:0:
448,192,43783,1,0,0:0:0:0:
64,192,43848,1,0,0:0:0:0:
192,192,43848,1,0,0:0:0:0:
320,192,43913,1,0,0:0:0:0:
192,192,43979,1,0,0:0:0:0:
448,192,43979,1,0,0:0:0:0:
64,192,44044,1,0,0:0:0:0:
192,192,44109,1,0,0:0:0:0:
320,192,44109,1,0,0:0:0:0:
448,192,44174,1,0,0:0:0:0:
64,192,44240,1,0,0:0:0:0:
192,192,44240,1,0,0:0:0:0:
320,192,44305,1,0,0:0:0:0:
64,192,44370,1,0,0:0:0:0:
448,192,44370,1,0,0:0:0:0:
192,192,44435,1,0,0:0:0:0:
64,192,44500,1,0,0:0:0:0:
320,192,44500,1,0,0:0:0:0:
448,192,44566,1,0,0:0:0:0:
192,192,44631,1,0,0:0:0:0:
320,192,44631,1,0,0:0:0:0:
64,192,44696,1,0,0:0:0:0:
448,192,44696,1,0,0:0:0:0:
192,192,44761,1,0,0:0:0:0:
320,192,44761,1,0,0:0:0:0:
64,192,44826,1,0,0:0:0:0:
448,192,44826,1,0,0:0:0:0:
192,192,44892,1,0,0:0:0:0:
320,192,44892,1,0,0:0:0:0:
448,192,44957,1,0,0:0:0:0:
64,192,45022,1,0,0:0:0:0:
192,192,45022,1,0,0:0:0:0:
320,192,45087,1,0,0:0:0:0:
192,192,45153,1,0,0:0:0:0:
448,192,45153,1,0,0:0:0:0:
64,192,45218,1,0,0:0:0:0:
320,192,45283,1,0,0:0:0:0:
448,192,45283,1,0,0:0:0:0:
192,192,45348,1,0,0:0:0:0:
64,192,45413,1,0,0:0:0:0:
448,192,45413,1,0,0:0:0:0:
320,192,45479,1,0,0:0:0:0:
64,192,45544,1,0,0:0:0:0:
192,192,45544,1,0,0:0:0:0:
448,192,45609,1,0,0:0:0:0:
192,192,45674,1,0,0:0:0:0:
320,192,45674,1,0,0:0:0:0:
64,192,45740,1,0,0:0:0:0:
320,192,45805,1,0,0:0:0:0:
448,192,45805,1,0,0:0:0:0:
192,192,45870,1,0,0:0:0:0:
64,192,45935,1,0,0:0:0:0:
320,192,45935,1,0,0:0:0:0:
192,192,46000,1,0,0:0:0:0:
320,192,46066,1,0,0:0:0:0:
448,192,46066,1,0,0:0:0:0:
64,192,46131,1,0,0:0:0:0:
192,192,46196,1,0,0:0:0:0:
320,192,46196,1,0,0:0:0:0:
448,192,46261,1,0,0:0:0:0:
64,192,46326,1,0,0:0:0:0:
192,192,46326,1,0,0:0:0:0:
320,192,46392,1,0,0:0:0:0:
64,192,46457,1,0,0:0:0:0:
192,192,46457,1,0,0:0:0:0:
320,192,46522,1,0,0:0:0:0:
448,192,46522,1,0,0:0:0:0:
64,192,46587,1,0,0:0:0:0:
192,192,46587,1,0,0:0:0:0:
448,192,46653,1,0,0:0:0:0:
192,192,46718,1,0,0:0:0:0:
320,192,46718,1,0,0:0:0:0:
64,192,46783,1,0,0:0:0:0:
448,192,46783,1,0,0:0:0:0:
192,192,46848,1,0,0:0:0:0:
320,192,46848,1,0,0:0:0:0:
448,192,46913,1,0,0:0:0:0:
64,192,46979,1,0,0:0:0:0:
192,192,46979,1,0,0:0:0:0:
320,192,46979,1,0,0:0:0:0:
448,192,47044,1,0,0:0:0:0:
192,192,47109,1,0,0:0:0:0:
320,192,47109,1,0,0:0:0:0:
64,192,47174,1,0,0:0:0:0:
192,192,47240,1,0,0:0:0:0:
448,192,47240,1,0,0:0:0:0:
320,192,47305,1,0,0:0:0:0:
64,192,47370,1,0,0:0:0:0:
448,192,47370,1,0,0:0:0:0:
192,192,47435,1,0,0:0:0:0:
64,192,47500,1,0,0:0:0:0:
320,192,47500,1,0,0:0:0:0:
448,192,47566,1,0,0:0:0:0:
64,192,47631,1,0,0:0:0:0:
192,192,47631,1,0,0:0:0:0:
320,192,47696,1,0,0:0:0:0:
192,192,47761,1,0,0:0:0:0:
448,192,47761,1,0,0:0:0:0:
64,192,47826,1,0,0:0:0:0:
320,192,47892,1,0,0:0:0:0:
448,192,47892,1,0,0:0:0:0:
192,192,47957,1,0,0:0:0:0:
64,192,48022,1,0,0:0:0:0:
320,192,48022,1,0,0:0:0:0:
448,192,48022,1,0,0:0:0:0:
192,192,48087,1,0,0:0:0:0:
320,192,48153,1,0,0:0:0:0:
448,192,48153,1,0,0:0:0:0:
64,192,48218,1,0,0:0:0:0:
192,192,48283,1,0,0:0:0:0:
320,192,48283,1,0,0:0:0:0:
448,192,48348,1,0,0:0:0:0:
64,192,48413,1,0,0:0:0:0:
192,192,48413,1,0,0:0:0:0:
320,192,48479,1,0,0:0:0:0:
64,192,48544,1,0,0:0:0:0:
448,192,48544,1,0,0:0:0:0:
192,192,48609,1,0,0:0:0:0:
320,192,48674,1,0,0:0:0:0:
448,192,48674,1,0,0:0:0:0:
64,192,48740,1,0,0:0:0:0:
320,192,48805,1,0,0:0:0:0:
448,192,48805,1,0,0:0:0:0:
64,192,48870,1,0,0:0:0:0:
192,192,48870,1,0,0:0:0:0:
320,192,48935,1,0,0:0:0:0:
448,192,48935,1,0,0:0:0:0:
192,192,49000,1,0,0:0:0:0:
64,192,49066,1,0,0:0:0:0:
320,192,49066,1,0,0:0:0:0:
448,192,49066,1,0,0:0:0:0:
192,192,49131,1,0,0:0:0:0:
320,192,49196,1,0,0:0:0:0:
448,192,49196,1,0,0:0:0:0:
64,192,49261,1,0,0:0:0:0:
192,192,49326,1,0,0:0:0:0:
320,192,49326,1,0,0:0:0:0:
448,192,49392,1,0,0:0:0:0:
64,192,49457,1,0,0:0:0:0:
192,192,49457,1,0,0:0:0:0:
448,192,49522,1,0,0:0:0:0:
64,192,49587,1,0,0:0:0:0:
192,192,49587,1,0,0:0:0:0:
320,192,49587,1,0,0:0:0:0:
448,192,49653,1,0,0:0:0:0:
64,192,49718,1,0,0:0:0:0:
192,192,49718,1,0,0:0:0:0:
320,192,49783,1,0,0:0:0:0:
192,192,49848,1,0,0:0:0:0:
448,192,49848,1,0,0:0:0:0:
64,192,49913,1,0,0:0:0:0:
320,192,49979,1,0,0:0:0:0:
448,192,49979,1,0,0:0:0:0:
192,192,50044,1,0,0:0:0:0:
64,192,50109,1,0,0:0:0:0:
320,192,50109,1,0,0:0:0:0:
448,192,50109,1,0,0:0:0:0:
192,192,50174,1,0,0:0:0:0:
64,192,50240,1,0,0:0:0:0:
448,192,50240,1,0,0:0:0:0:
192,192,50305,1,0,0:0:0:0:
320,192,50305,1,0,0:0:0:0:
64,192,50370,1,0,0:0:0:0:
448,192,50370,1,0,0:0:0:0:
192,192,50435,1,0,0:0:0:0:
320,192,50435,1,0,0:0:0:0:
64,192,50500,1,0,0:0:0:0:
448,192,50500,1,0,0:0:0:0:
192,192,50566,1,0,0:0:0:0:
320,192,50566,1,0,0:0:0:0:
64,192,50631,1,0,0:0:0:0:
448,192,50631,1,0,0:0:0:0:
64,192,50892,1,0,0:0:0:0:
192,192,50892,1,0,0:0:0:0:
448,192,50892,1,0,0:0:0:0:
320,192,50957,1,0,0:0:0:0:
192,192,51022,1,0,0:0:0:0:
448,192,51022,1,0,0:0:0:0:
320,192,51087,1,0,0:0:0:0:
64,192,51153,1,0,0:0:0:0:
192,192,51153,1,0,0:0:0:0:
448,192,51153,1,0,0:0:0:0:
320,192,51218,1,0,0:0:0:0:
192,192,51283,1,0,0:0:0:0:
64,192,51348,1,0,0:0:0:0:
320,192,51413,1,0,0:0:0:0:
448,192,51413,1,0,0:0:0:0:
448,192,51674,1,0,0:0:0:0:
320,192,51740,1,0,0:0:0:0:
192,192,51805,1,0,0:0:0:0:
64,192,51870,1,0,0:0:0:0:
192,192,51935,1,0,0:0:0:0:
320,192,51935,1,0,0:0:0:0:
64,192,52196,1,0,0:0:0:0:
320,192,52196,1,0,0:0:0:0:
192,192,52261,1,0,0:0:0:0:
320,192,52326,1,0,0:0:0:0:
448,192,52392,1,0,0:0:0:0:
64,192,52457,1,0,0:0:0:0:
192,192,52457,1,0,0:0:0:0:
192,192,52718,1,0,0:0:0:0:
320,192,52783,1,0,0:0:0:0:
448,192,52848,1,0,0:0:0:0:
192,192,52913,1,0,0:0:0:0:
64,192,52979,1,0,0:0:0:0:
320,192,52979,1,0,0:0:0:0:
192,192,53240,1,0,0:0:0:0:
320,192,53240,1,0,0:0:0:0:
448,192,53305,1,0,0:0:0:0:
64,192,53370,1,0,0:0:0:0:
192,192,53435,1,0,0:0:0:0:
320,192,53500,1,0,0:0:0:0:
448,192,53500,1,0,0:0:0:0:
192,192,53761,1,0,0:0:0:0:
320,192,53826,1,0,0:0:0:0:
64,192,53892,1,0,0:0:0:0:
192,192,53957,1,0,0:0:0:0:
320,192,54022,1,0,0:0:0:0:
448,192,54022,1,0,0:0:0:0:
64,192,54283,1,0,0:0:0:0:
448,192,54283,1,0,0:0:0:0:
192,192,54348,1,0,0:0:0:0:
448,192,54413,1,0,0:0:0:0:
320,192,54479,1,0,0:0:0:0:
64,192,54544,1,0,0:0:0:0:
192,192,54544,1,0,0:0:0:0:
64,192,54805,1,0,0:0:0:0:
192,192,54870,1,0,0:0:0:0:
448,192,54935,1,0,0:0:0:0:
320,192,55000,1,0,0:0:0:0:
64,192,55066,1,0,0:0:0:0:
192,192,55066,1,0,0:0:0:0:
192,192,55326,1,0,0:0:0:0:
448,192,55326,1,0,0:0:0:0:
320,192,55392,1,0,0:0:0:0:
192,192,55457,1,0,0:0:0:0:
448,192,55522,1,0,0:0:0:0:
64,192,55587,1,0,0:0:0:0:
320,192,55587,1,0,0:0:0:0:
448,192,55848,1,0,0:0:0:0:
320,192,55913,1,0,0:0:0:0:
192,192,55979,1,0,0:0:0:0:
448,192,56044,1,0,0:0:0:0:
64,192,56109,1,0,0:0:0:0:
320,192,56109,1,0,0:0:0:0:
64,192,56370,1,0,0:0:0:0:
320,192,56370,1,0,0:0:0:0:
192,192,56435,1,0,0:0:0:0:
320,192,56500,1,0,0:0:0:0:
448,192,56566,1,0,0:0:0:0:
64,192,56631,1,0,0:0:0:0:
192,192,56631,1,0,0:0:0:0:
64,192,56892,1,0,0:0:0:0:
192,192,56957,1,0,0:0:0:0:
320,192,57022,1,0,0:0:0:0:
448,192,57087,1,0,0:0:0:0:
64,192,57153,1,0,0:0:0:0:
192,192,57153,1,0,0:0:0:0:
64,192,57413,1,0,0:0:0:0:
448,192,57413,1,0,0:0:0:0:
320,192,57479,1,0,0:0:0:0:
192,192,57544,1,0,0:0:0:0:
64,192,57609,1,0,0:0:0:0:
320,192,57674,1,0,0:0:0:0:
448,192,57674,1,0,0:0:0:0:
192,192,57740,1,0,0:0:0:0:
64,192,57805,1,0,0:0:0:0:
448,192,57870,1,0,0:0:0:0:
192,192,57935,1,0,0:0:0:0:
320,192,57935,1,0,0:0:0:0:
64,192,58000,1,0,0:0:0:0:
448,192,58066,1,0,0:0:0:0:
320,192,58131,1,0,0:0:0:0:
64,192,58196,1,0,0:0:0:0:
192,192,58196,1,0,0:0:0:0:
320,192,58261,1,0,0:0:0:0:
192,192,58326,1,0,0:0:0:0:
64,192,58392,1,0,0:0:0:0:
192,192,58457,1,0,0:0:0:0:
448,192,58457,1,0,0:0:0:0:
320,192,58522,1,0,0:0:0:0:
64,192,58587,1,0,0:0:0:0:
192,192,58587,1,0,0:0:0:0:
448,192,58653,1,0,0:0:0:0:
192,192,58718,1,0,0:0:0:0:
320,192,58718,1,0,0:0:0:0:
448,192,58783,1,0,0:0:0:0:
64,192,58848,1,0,0:0:0:0:
320,192,58848,1,0,0:0:0:0:
192,192,58913,1,0,0:0:0:0:
320,192,58979,1,0,0:0:0:0:
448,192,58979,1,0,0:0:0:0:
64,192,59044,1,0,0:0:0:0:
192,192,59109,1,0,0:0:0:0:
448,192,59109,1,0,0:0:0:0:
320,192,59174,1,0,0:0:0:0:
64,192,59240,1,0,0:0:0:0:
192,192,59240,1,0,0:0:0:0:
448,192,59305,1,0,0:0:0:0:
64,192,59370,1,0,0:0:0:0:
320,192,59370,1,0,0:0:0:0:
192,192,59435,1,0,0:0:0:0:
64,192,59500,1,0,0:0:0:0:
320,192,59500,1,0,0:0:0:0:
448,192,59500,1,0,0:0:0:0:
448,192,59674,1,0,0:0:0:0:
64,192,59848,1,0,0:0:0:0:
448,192,59848,1,0,0:0:0:0:
320,192,60022,1,0,0:0:0:0:
192,192,60109,1,0,0:0:0:0:
64,192,60196,1,0,0:0:0:0:
192,192,60370,1,0,0:0:0:0:
448,192,60370,1,0,0:0:0:0:
448,192,60544,1,0,0:0:0:0:
192,192,60631,1,0,0:0:0:0:
320,192,60718,1,0,0:0:0:0:
192,192,60892,1,0,0:0:0:0:
192,192,61066,1,0,0:0:0:0:
320,192,61240,1,0,0:0:0:0:
448,192,61240,1,0,0:0:0:0:
320,192,61413,1,0,0:0:0:0:
64,192,61500,1,0,0:0:0:0:
192,192,61587,1,0,0:0:0:0:
192,192,61761,1,0,0:0:0:0:
320,192,61761,1,0,0:0:0:0:
64,192,61935,1,0,0:0:0:0:
320,192,62022,1,0,0:0:0:0:
448,192,62109,1,0,0:0:0:0:
64,192,62283,1,0,0:0:0:0:
320,192,62283,1,0,0:0:0:0:
320,192,62457,1,0,0:0:0:0:
64,192,62631,1,0,0:0:0:0:
192,192,62631,1,0,0:0:0:0:
448,192,62805,1,0,0:0:0:0:
192,192,62892,1,0,0:0:0:0:
320,192,62979,1,0,0:0:0:0:
192,192,63153,1,0,0:0:0:0:
448,192,63153,1,0,0:0:0:0:
64,192,63326,1,0,0:0:0:0:
448,192,63413,1,0,0:0:0:0:
320,192,63500,1,0,0:0:0:0:
192,192,63674,1,0,0:0:0:0:
192,192,63848,1,0,0:0:0:0:
320,192,64022,1,0,0:0:0:0:
448,192,64022,1,0,0:0:0:0:
192,192,64196,1,0,0:0:0:0:
64,192,64283,1,0,0:0:0:0:
320,192,64370,1,0,0:0:0:0:
448,192,64370,1,0,0:0:0:0:
64,192,64544,1,0,0:0:0:0:
192,192,64544,1,0,0:0:0:0:
448,192,64544,1,0,0:0:0:0:
64,192,64805,1,0,0:0:0:0:
192,192,64805,1,0,0:0:0:0:
448,192,64805,1,0,0:0:0:0:
320,192,64892,1,0,0:0:0:0:
64,192,65066,1,0,0:0:0:0:
192,192,65066,1,0,0:0:0:0:
448,192,65066,1,0,0:0:0:0:
320,192,65240,1,0,0:0:0:0:
192,192,65413,1,0,0:0:0:0:
320,192,65413,1,0,0:0:0:0:
64,192,65587,1,0,0:0:0:0:
448,192,65674,1,0,0:0:0:0:
320,192,65761,1,0,0:0:0:0:
64,192,65935,1,0,0:0:0:0:
192,192,65935,1,0,0:0:0:0:
320,192,66109,1,0,0:0:0:0:
448,192,66196,1,0,0:0:0:0:
64,192,66283,1,0,0:0:0:0:
64,192,66457,1,0,0:0:0:0:
192,192,66457,1,0,0:0:0:0:
448,192,66457,1,0,0:0:0:0:
192,192,66631,1,0,0:0:0:0:
64,192,66805,1,0,0:0:0:0:
192,192,66805,1,0,0:0:0:0:
320,192,66979,1,0,0:0:0:0:
448,192,67066,1,0,0:0:0:0:
192,192,67153,1,0,0:0:0:0:
320,192,67326,1,0,0:0:0:0:
448,192,67326,1,0,0:0:0:0:
64,192,67500,1,0,0:0:0:0:
320,192,67587,1,0,0:0:0:0:
192,192,67674,1,0,0:0:0:0:
192,192,67848,1,0,0:0:0:0:
320,192,67848,1,0,0:0:0:0:
448,192,67848,1,0,0:0:0:0:
64,192,68022,1,0,0:0:0:0:
192,192,68196,1,0,0:0:0:0:
320,192,68196,1,0,0:0:0:0:
320,192,68370,1,0,0:0:0:0:
64,192,68457,1,0,0:0:0:0:
192,192,68544,1,0,0:0:0:0:
320,192,68544,1,0,0:0:0:0:
448,192,68544,1,0,0:0:0:0:
320,192,68718,1,0,0:0:0:0:
192,192,68892,1,0,0:0:0:0:
448,192,68892,1,0,0:0:0:0:
320,192,68979,1,0,0:0:0:0:
64,192,69066,1,0,0:0:0:0:
64,192,69240,1,0,0:0:0:0:
192,192,69240,1,0,0:0:0:0:
448,192,69240,1,0,0:0:0:0:
192,192,69413,1,0,0:0:0:0:
448,192,69413,1,0,0:0:0:0:
64,192,69587,1,0,0:0:0:0:
192,192,69587,1,0,0:0:0:0:
448,192,69587,1,0,0:0:0:0:
192,192,69761,1,0,0:0:0:0:
448,192,69761,1,0,0:0:0:0:
64,192,69935,1,0,0:0:0:0:
192,192,69935,1,0,0:0:0:0:
448,192,69935,1,0,0:0:0:0:
320,192,70022,1,0,0:0:0:0:
192,192,70109,1,0,0:0:0:0:
448,192,70109,1,0,0:0:0:0:
320,192,70196,1,0,0:0:0:0:
64,192,70283,1,0,0:0:0:0:
192,192,70283,1,0,0:0:0:0:
448,192,70283,1,0,0:0:0:0:
320,192,70370,1,0,0:0:0:0:
192,192,70457,1,0,0:0:0:0:
448,192,70457,1,0,0:0:0:0:
320,192,70544,1,0,0:0:0:0:
192,0,70631,128,0,71848:1:0:0:0:
320,192,74283,1,0,0:0:0:0:
448,192,74283,1,0,0:0:0:0:
64,192,74340,1,0,0:0:0:0:
192,192,74340,1,0,0:0:0:0:
320,192,74399,1,0,0:0:0:0:
448,192,74399,1,0,0:0:0:0:
192,192,74457,1,0,0:0:0:0:
64,192,74544,1,0,0:0:0:0:
192,192,74566,1,0,0:0:0:0:
320,192,74587,1,0,0:0:0:0:
448,192,74609,1,0,0:0:0:0:
64,192,74631,1,0,0:0:0:0:
192,192,74653,1,0,0:0:0:0:
320,192,74674,1,0,0:0:0:0:
448,192,74696,1,0,0:0:0:0:
64,192,74718,1,0,0:0:0:0:
192,192,74740,1,0,0:0:0:0:
320,192,74761,1,0,0:0:0:0:
448,192,74783,1,0,0:0:0:0:
64,192,74805,1,0,0:0:0:0:
192,192,74805,1,0,0:0:0:0:
320,192,74870,1,0,0:0:0:0:
192,192,74935,1,0,0:0:0:0:
448,192,74935,1,0,0:0:0:0:
64,192,75000,1,0,0:0:0:0:
192,192,75066,1,0,0:0:0:0:
320,192,75066,1,0,0:0:0:0:
448,192,75131,1,0,0:0:0:0:
64,192,75196,1,0,0:0:0:0:
320,192,75196,1,0,0:0:0:0:
192,192,75261,1,0,0:0:0:0:
320,192,75326,1,0,0:0:0:0:
448,192,75326,1,0,0:0:0:0:
64,192,75392,1,0,0:0:0:0:
192,192,75457,1,0,0:0:0:0:
320,192,75457,1,0,0:0:0:0:
448,192,75522,1,0,0:0:0:0:
64,192,75587,1,0,0:0:0:0:
320,192,75587,1,0,0:0:0:0:
192,192,75653,1,0,0:0:0:0:
320,192,75718,1,0,0:0:0:0:
448,192,75718,1,0,0:0:0:0:
64,192,75783,1,0,0:0:0:0:
192,192,75848,1,0,0:0:0:0:
448,192,75848,1,0,0:0:0:0:
320,192,75913,1,0,0:0:0:0:
64,192,75979,1,0,0:0:0:0:
448,192,75979,1,0,0:0:0:0:
192,192,76044,1,0,0:0:0:0:
320,192,76109,1,0,0:0:0:0:
448,192,76109,1,0,0:0:0:0:
64,192,76174,1,0,0:0:0:0:
192,192,76240,1,0,0:0:0:0:
448,192,76240,1,0,0:0:0:0:
320,192,76305,1,0,0:0:0:0:
64,192,76370,1,0,0:0:0:0:
192,192,76370,1,0,0:0:0:0:
448,192,76435,1,0,0:0:0:0:
192,192,76500,1,0,0:0:0:0:
320,192,76500,1,0,0:0:0:0:
64,192,76566,1,0,0:0:0:0:
320,192,76631,1,0,0:0:0:0:
448,192,76631,1,0,0:0:0:0:
64,192,76696,1,0,0:0:0:0:
192,192,76696,1,0,0:0:0:0:
320,192,76761,1,0,0:0:0:0:
448,192,76761,1,0,0:0:0:0:
64,192,76826,1,0,0:0:0:0:
192,192,76826,1,0,0:0:0:0:
320,192,76892,1,0,0:0:0:0:
448,192,76892,1,0,0:0:0:0:
192,192,76957,1,0,0:0:0:0:
64,192,77022,1,0,0:0:0:0:
320,192,77022,1,0,0:0:0:0:
192,192,77087,1,0,0:0:0:0:
320,192,77153,1,0,0:0:0:0:
448,192,77153,1,0,0:0:0:0:
64,192,77218,1,0,0:0:0:0:
192,192,77283,1,0,0:0:0:0:
320,192,77283,1,0,0:0:0:0:
448,192,77348,1,0,0:0:0:0:
64,192,77413,1,0,0:0:0:0:
192,192,77413,1,0,0:0:0:0:
320,192,77479,1,0,0:0:0:0:
64,192,77544,1,0,0:0:0:0:
448,192,77544,1,0,0:0:0:0:
192,192,77609,1,0,0:0:0:0:
320,192,77674,1,0,0:0:0:0:
448,192,77674,1,0,0:0:0:0:
64,192,77740,1,0,0:0:0:0:
320,192,77805,1,0,0:0:0:0:
448,192,77805,1,0,0:0:0:0:
192,192,77870,1,0,0:0:0:0:
64,192,77935,1,0,0:0:0:0:
320,192,77935,1,0,0:0:0:0:
192,192,78000,1,0,0:0:0:0:
320,192,78066,1,0,0:0:0:0:
448,192,78066,1,0,0:0:0:0:
64,192,78131,1,0,0:0:0:0:
192,192,78196,1,0,0:0:0:0:
320,192,78196,1,0,0:0:0:0:
64,192,78261,1,0,0:0:0:0:
320,192,78326,1,0,0:0:0:0:
448,192,78326,1,0,0:0:0:0:
192,192,78392,1,0,0:0:0:0:
320,192,78457,1,0,0:0:0:0:
448,192,78457,1,0,0:0:0:0:
64,192,78522,1,0,0:0:0:0:
192,192,78522,1,0,0:0:0:0:
320,192,78587,1,0,0:0:0:0:
448,192,78587,1,0,0:0:0:0:
192,192,78653,1,0,0:0:0:0:
64,192,78718,1,0,0:0:0:0:
320,192,78718,1,0,0:0:0:0:
192,192,78783,1,0,0:0:0:0:
448,192,78783,1,0,0:0:0:0:
64,192,78848,1,0,0:0:0:0:
320,192,78848,1,0,0:0:0:0:
192,192,78913,1,0,0:0:0:0:
448,192,78913,1,0,0:0:0:0:
64,192,78979,1,0,0:0:0:0:
320,192,78979,1,0,0:0:0:0:
448,192,79044,1,0,0:0:0:0:
192,192,79109,1,0,0:0:0:0:
320,192,79109,1,0,0:0:0:0:
64,192,79174,1,0,0:0:0:0:
320,192,79240,1,0,0:0:0:0:
448,192,79240,1,0,0:0:0:0:
192,192,79305,1,0,0:0:0:0:
320,192,79370,1,0,0:0:0:0:
448,192,79370,1,0,0:0:0:0:
64,192,79435,1,0,0:0:0:0:
192,192,79500,1,0,0:0:0:0:
320,192,79500,1,0,0:0:0:0:
64,192,79566,1,0,0:0:0:0:
320,192,79631,1,0,0:0:0:0:
448,192,79631,1,0,0:0:0:0:
192,192,79696,1,0,0:0:0:0:
64,192,79761,1,0,0:0:0:0:
320,192,79761,1,0,0:0:0:0:
448,192,79826,1,0,0:0:0:0:
192,192,79892,1,0,0:0:0:0:
320,192,79892,1,0,0:0:0:0:
64,192,79957,1,0,0:0:0:0:
320,192,80022,1,0,0:0:0:0:
448,192,80022,1,0,0:0:0:0:
192,192,80087,1,0,0:0:0:0:
64,192,80153,1,0,0:0:0:0:
448,192,80153,1,0,0:0:0:0:
320,192,80218,1,0,0:0:0:0:
192,192,80283,1,0,0:0:0:0:
448,192,80283,1,0,0:0:0:0:
320,192,80348,1,0,0:0:0:0:
64,192,80413,1,0,0:0:0:0:
192,192,80413,1,0,0:0:0:0:
448,192,80479,1,0,0:0:0:0:
192,192,80544,1,0,0:0:0:0:
320,192,80544,1,0,0:0:0:0:
64,192,80609,1,0,0:0:0:0:
320,192,80674,1,0,0:0:0:0:
448,192,80674,1,0,0:0:0:0:
192,192,80740,1,0,0:0:0:0:
64,192,80805,1,0,0:0:0:0:
320,192,80805,1,0,0:0:0:0:
192,192,80870,1,0,0:0:0:0:
448,192,80870,1,0,0:0:0:0:
64,192,80935,1,0,0:0:0:0:
320,192,80935,1,0,0:0:0:0:
192,192,81000,1,0,0:0:0:0:
448,192,81000,1,0,0:0:0:0:
64,192,81066,1,0,0:0:0:0:
320,192,81066,1,0,0:0:0:0:
448,192,81131,1,0,0:0:0:0:
192,192,81196,1,0,0:0:0:0:
320,192,81196,1,0,0:0:0:0:
448,192,81261,1,0,0:0:0:0:
64,192,81326,1,0,0:0:0:0:
192,192,81326,1,0,0:0:0:0:
320,192,81392,1,0,0:0:0:0:
64,192,81457,1,0,0:0:0:0:
448,192,81457,1,0,0:0:0:0:
192,192,81522,1,0,0:0:0:0:
320,192,81587,1,0,0:0:0:0:
448,192,81587,1,0,0:0:0:0:
64,192,81653,1,0,0:0:0:0:
192,192,81718,1,0,0:0:0:0:
448,192,81718,1,0,0:0:0:0:
320,192,81783,1,0,0:0:0:0:
64,192,81848,1,0,0:0:0:0:
448,192,81848,1,0,0:0:0:0:
192,192,81913,1,0,0:0:0:0:
64,192,81979,1,0,0:0:0:0:
320,192,81979,1,0,0:0:0:0:
448,192,82044,1,0,0:0:0:0:
192,192,82109,1,0,0:0:0:0:
320,192,82109,1,0,0:0:0:0:
64,192,82174,1,0,0:0:0:0:
448,192,82174,1,0,0:0:0:0:
192,192,82240,1,0,0:0:0:0:
320,192,82240,1,0,0:0:0:0:
64,192,82370,1,0,0:0:0:0:
320,192,82370,1,0,0:0:0:0:
320,192,82500,1,0,0:0:0:0:
448,192,82500,1,0,0:0:0:0:
64,192,82566,1,0,0:0:0:0:
192,192,82566,1,0,0:0:0:0:
320,192,82631,1,0,0:0:0:0:
448,192,82631,1,0,0:0:0:0:
64,192,82696,1,0,0:0:0:0:
192,192,82696,1,0,0:0:0:0:
320,192,82761,1,0,0:0:0:0:
448,192,82761,1,0,0:0:0:0:
64,192,82826,1,0,0:0:0:0:
192,192,82826,1,0,0:0:0:0:
320,192,82892,1,0,0:0:0:0:
448,192,82892,1,0,0:0:0:0:
64,192,82957,1,0,0:0:0:0:
192,192,82957,1,0,0:0:0:0:
320,192,83022,1,0,0:0:0:0:
448,192,83022,1,0,0:0:0:0:
64,192,83087,1,0,0:0:0:0:
192,192,83087,1,0,0:0:0:0:
320,192,83153,1,0,0:0:0:0:
192,192,83218,1,0,0:0:0:0:
448,192,83218,1,0,0:0:0:0:
64,192,83283,1,0,0:0:0:0:
320,192,83283,1,0,0:0:0:0:
192,192,83348,1,0,0:0:0:0:
448,192,83348,1,0,0:0:0:0:
64,192,83413,1,0,0:0:0:0:
320,192,83413,1,0,0:0:0:0:
192,192,83479,1,0,0:0:0:0:
448,192,83479,1,0,0:0:0:0:
64,192,83544,1,0,0:0:0:0:
320,192,83544,1,0,0:0:0:0:
192,192,83609,1,0,0:0:0:0:
448,192,83609,1,0,0:0:0:0:
64,192,83674,1,0,0:0:0:0:
320,192,83674,1,0,0:0:0:0:
192,192,83740,1,0,0:0:0:0:
448,192,83740,1,0,0:0:0:0:
64,192,83805,1,0,0:0:0:0:
320,192,83805,1,0,0:0:0:0:
192,192,83870,1,0,0:0:0:0:
448,192,83870,1,0,0:0:0:0:
64,192,83935,1,0,0:0:0:0:
320,192,83935,1,0,0:0:0:0:
192,192,84000,1,0,0:0:0:0:
448,192,84000,1,0,0:0:0:0:
64,192,84066,1,0,0:0:0:0:
320,192,84066,1,0,0:0:0:0:
192,192,84131,1,0,0:0:0:0:
448,192,84131,1,0,0:0:0:0:
320,192,84196,1,0,0:0:0:0:
64,192,84261,1,0,0:0:0:0:
192,192,84261,1,0,0:0:0:0:
320,192,84326,1,0,0:0:0:0:
448,192,84326,1,0,0:0:0:0:
64,192,84392,1,0,0:0:0:0:
192,192,84392,1,0,0:0:0:0:
320,192,84457,1,0,0:0:0:0:
448,192,84457,1,0,0:0:0:0:
64,192,84522,1,0,0:0:0:0:
192,192,84522,1,0,0:0:0:0:
320,192,84587,1,0,0:0:0:0:
448,192,84587,1,0,0:0:0:0:
64,192,84653,1,0,0:0:0:0:
192,192,84653,1,0,0:0:0:0:
320,192,84718,1,0,0:0:0:0:
448,192,84718,1,0,0:0:0:0:
64,192,84783,1,0,0:0:0:0:
192,192,84783,1,0,0:0:0:0:
320,192,84848,1,0,0:0:0:0:
448,192,84848,1,0,0:0:0:0:
64,192,84913,1,0,0:0:0:0:
192,192,84913,1,0,0:0:0:0:
320,192,84979,1,0,0:0:0:0:
448,192,84979,1,0,0:0:0:0:
64,192,85044,1,0,0:0:0:0:
192,192,85044,1,0,0:0:0:0:
320,192,85109,1,0,0:0:0:0:
448,192,85109,1,0,0:0:0:0:
64,192,85174,1,0,0:0:0:0:
192,192,85174,1,0,0:0:0:0:
320,192,85240,1,0,0:0:0:0:
64,192,85305,1,0,0:0:0:0:
448,192,85305,1,0,0:0:0:0:
192,192,85370,1,0,0:0:0:0:
320,192,85370,1,0,0:0:0:0:
64,192,85435,1,0,0:0:0:0:
448,192,85435,1,0,0:0:0:0:
192,192,85500,1,0,0:0:0:0:
320,192,85500,1,0,0:0:0:0:
64,192,85566,1,0,0:0:0:0:
448,192,85566,1,0,0:0:0:0:
192,192,85631,1,0,0:0:0:0:
320,192,85631,1,0,0:0:0:0:
64,192,85696,1,0,0:0:0:0:
448,192,85696,1,0,0:0:0:0:
192,192,85761,1,0,0:0:0:0:
320,192,85761,1,0,0:0:0:0:
64,192,85826,1,0,0:0:0:0:
448,192,85826,1,0,0:0:0:0:
192,192,85892,1,0,0:0:0:0:
320,192,85892,1,0,0:0:0:0:
64,192,85957,1,0,0:0:0:0:
448,192,85957,1,0,0:0:0:0:
192,192,86022,1,0,0:0:0:0:
320,192,86022,1,0,0:0:0:0:
64,192,86087,1,0,0:0:0:0:
448,192,86087,1,0,0:0:0:0:
192,192,86153,1,0,0:0:0:0:
320,192,86153,1,0,0:0:0:0:
64,192,86218,1,0,0:0:0:0:
448,192,86218,1,0,0:0:0:0:
320,192,86283,1,0,0:0:0:0:
64,192,86348,1,0,0:0:0:0:
192,192,86348,1,0,0:0:0:0:
320,192,86413,1,0,0:0:0:0:
448,192,86413,1,0,0:0:0:0:
64,192,86479,1,0,0:0:0:0:
192,192,86479,1,0,0:0:0:0:
320,192,86544,1,0,0:0:0:0:
448,192,86544,1,0,0:0:0:0:
64,192,86609,1,0,0:0:0:0:
192,192,86609,1,0,0:0:0:0:
320,192,86674,1,0,0:0:0:0:
448,192,86674,1,0,0:0:0:0:
64,192,86740,1,0,0:0:0:0:
192,192,86740,1,0,0:0:0:0:
320,192,86805,1,0,0:0:0:0:
192,192,86870,1,0,0:0:0:0:
448,192,86870,1,0,0:0:0:0:
64,192,86935,1,0,0:0:0:0:
320,192,86935,1,0,0:0:0:0:
192,192,87000,1,0,0:0:0:0:
448,192,87000,1,0,0:0:0:0:
64,192,87066,1,0,0:0:0:0:
320,192,87066,1,0,0:0:0:0:
192,192,87131,1,0,0:0:0:0:
448,192,87131,1,0,0:0:0:0:
64,192,87196,1,0,0:0:0:0:
320,192,87196,1,0,0:0:0:0:
192,192,87261,1,0,0:0:0:0:
448,192,87261,1,0,0:0:0:0:
320,192,87326,1,0,0:0:0:0:
64,192,87392,1,0,0:0:0:0:
192,192,87392,1,0,0:0:0:0:
320,192,87457,1,0,0:0:0:0:
448,192,87457,1,0,0:0:0:0:
64,192,87522,1,0,0:0:0:0:
192,192,87522,1,0,0:0:0:0:
320,192,87587,1,0,0:0:0:0:
192,192,87653,1,0,0:0:0:0:
448,192,87653,1,0,0:0:0:0:
64,192,87718,1,0,0:0:0:0:
320,192,87718,1,0,0:0:0:0:
192,192,87783,1,0,0:0:0:0:
448,192,87783,1,0,0:0:0:0:
320,192,87848,1,0,0:0:0:0:
64,192,87913,1,0,0:0:0:0:
448,192,87913,1,0,0:0:0:0:
192,192,87979,1,0,0:0:0:0:
320,192,87979,1,0,0:0:0:0:
64,192,88044,1,0,0:0:0:0:
448,192,88044,1,0,0:0:0:0:
192,192,88109,1,0,0:0:0:0:
320,192,88174,1,0,0:0:0:0:
448,192,88174,1,0,0:0:0:0:
64,192,88240,1,0,0:0:0:0:
192,192,88240,1,0,0:0:0:0:
320,192,88305,1,0,0:0:0:0:
448,192,88305,1,0,0:0:0:0:
192,192,88370,1,0,0:0:0:0:
64,192,88435,1,0,0:0:0:0:
320,192,88435,1,0,0:0:0:0:
192,192,88500,1,0,0:0:0:0:
448,192,88500,1,0,0:0:0:0:
64,192,88566,1,0,0:0:0:0:
320,192,88566,1,0,0:0:0:0:
448,192,88631,1,0,0:0:0:0:
192,192,88696,1,0,0:0:0:0:
320,192,88696,1,0,0:0:0:0:
64,192,88761,1,0,0:0:0:0:
448,192,88761,1,0,0:0:0:0:
192,192,88826,1,0,0:0:0:0:
320,192,88826,1,0,0:0:0:0:
64,192,88892,1,0,0:0:0:0:
320,192,88957,1,0,0:0:0:0:
448,192,88957,1,0,0:0:0:0:
64,192,89022,1,0,0:0:0:0:
192,192,89022,1,0,0:0:0:0:
320,192,89087,1,0,0:0:0:0:
448,192,89087,1,0,0:0:0:0:
192,192,89153,1,0,0:0:0:0:
64,192,89218,1,0,0:0:0:0:
320,192,89218,1,0,0:0:0:0:
192,192,89283,1,0,0:0:0:0:
448,192,89283,1,0,0:0:0:0:
320,192,89348,1,0,0:0:0:0:
64,192,89413,1,0,0:0:0:0:
192,192,89413,1,0,0:0:0:0:
448,192,89413,1,0,0:0:0:0:
320,192,89479,1,0,0:0:0:0:
64,192,89544,1,0,0:0:0:0:
192,192,89544,1,0,0:0:0:0:
448,192,89609,1,0,0:0:0:0:
64,192,89674,1,0,0:0:0:0:
192,192,89674,1,0,0:0:0:0:
320,192,89674,1,0,0:0:0:0:
448,192,89740,1,0,0:0:0:0:
64,192,89805,1,0,0:0:0:0:
320,192,89805,1,0,0:0:0:0:
192,192,89870,1,0,0:0:0:0:
64,192,89935,1,0,0:0:0:0:
320,192,89935,1,0,0:0:0:0:
448,192,89935,1,0,0:0:0:0:
192,192,90000,1,0,0:0:0:0:
320,192,90066,1,0,0:0:0:0:
448,192,90066,1,0,0:0:0:0:
64,192,90131,1,0,0:0:0:0:
192,192,90196,1,0,0:0:0:0:
320,192,90196,1,0,0:0:0:0:
448,192,90196,1,0,0:0:0:0:
64,192,90261,1,0,0:0:0:0:
192,192,90326,1,0,0:0:0:0:
448,192,90326,1,0,0:0:0:0:
320,192,90392,1,0,0:0:0:0:
64,192,90457,1,0,0:0:0:0:
448,192,90457,1,0,0:0:0:0:
320,192,90489,1,0,0:0:0:0:
192,192,90522,1,0,0:0:0:0:
448,192,90554,1,0,0:0:0:0:
64,192,90587,1,0,0:0:0:0:
320,192,90620,1,0,0:0:0:0:
192,192,90653,1,0,0:0:0:0:
448,192,90685,1,0,0:0:0:0:
64,192,90718,1,0,0:0:0:0:
320,192,90750,1,0,0:0:0:0:
192,192,90783,1,0,0:0:0:0:
448,192,90815,1,0,0:0:0:0:
64,192,90848,1,0,0:0:0:0:
320,192,90880,1,0,0:0:0:0:
192,192,90913,1,0,0:0:0:0:
448,192,90946,1,0,0:0:0:0:
64,192,90979,1,0,0:0:0:0:
192,192,91000,1,0,0:0:0:0:
320,192,91022,1,0,0:0:0:0:
448,192,91044,1,0,0:0:0:0:
64,192,91066,1,0,0:0:0:0:
192,192,91087,1,0,0:0:0:0:
