osu file format v14

[General]
AudioFilename: audio.mp3
AudioLeadIn: 0
PreviewTime: 41232
Countdown: 0
SampleSet: Normal
StackLeniency: 0.7
Mode: 1
LetterboxInBreaks: 0
WidescreenStoryboard: 0

[Editor]
DistanceSpacing: 1
BeatDivisor: 1
GridSize: 32
TimelineZoom: 2.299999

[Metadata]
Title:RIDE ON TIME (REDALiCE's CITY POP SHARK Remix)
TitleUnicode:RIDE ON TIME (REDALiCE's CITY POP SHARK Remix)
Artist:Gawr Gura
ArtistUnicode:Gawr Gura
Creator:vrnl
Version:Oni
Source:
Tags:japanese electronic pop jpop j-pop Yamashita Tatsuro 山下達郎 hololive EN vtuber holomyth がうる ぐら shark a the bros 3 chumbuddy chumbuddies genjuro kqrth
BeatmapID:2620011
BeatmapSetID:1260204

[Difficulty]
HPDrainRate:5.5
CircleSize:5
OverallDifficulty:5.5
ApproachRate:5
SliderMultiplier:1.4
SliderTickRate:1

[Events]
//Background and Video events
0,0,"Gawr-Gura-01.jpg",0,54
//Break Periods
//Storyboard Layer 0 (Background)
//Storyboard Layer 1 (Fail)
//Storyboard Layer 2 (Pass)
//Storyboard Layer 3 (Foreground)
//Storyboard Layer 4 (Overlay)
//Storyboard Sound Samples

[TimingPoints]
100,468.75,4,1,0,60,1,0
1857,-100,4,1,0,70,0,0
41232,-100,4,1,0,80,0,0
41350,-100,4,1,0,80,0,1
54240,-100,4,1,0,80,0,0
56350,-100,4,1,0,80,0,1
69475,-100,4,1,0,80,0,0
69592,-100,4,1,0,50,0,0
70998,-100,4,1,0,70,0,0
71232,-100,4,1,0,5,0,0

[HitObjects]
294,238,100,5,2,0:0:0:0:
294,238,217,1,2,0:0:0:0:
294,238,334,1,0,0:0:0:0:
294,238,568,1,2,0:0:0:0:
294,238,803,1,0,0:0:0:0:
294,238,920,1,0,0:0:0:0:
294,238,1037,1,2,0:0:0:0:
294,238,1271,1,0,0:0:0:0:
294,238,1506,1,0,0:0:0:0:
294,238,1740,1,2,0:0:0:0:
294,238,1975,1,0,0:0:0:0:
294,238,2443,1,0,0:0:0:0:
294,238,2912,1,0,0:0:0:0:
294,238,3381,1,0,0:0:0:0:
294,238,3615,1,2,0:0:0:0:
294,238,3850,1,0,0:0:0:0:
294,238,4084,1,2,0:0:0:0:
294,238,4318,1,0,0:0:0:0:
294,238,4787,1,2,0:0:0:0:
294,238,5021,1,2,0:0:0:0:
294,238,5256,1,0,0:0:0:0:
294,238,5490,1,2,0:0:0:0:
294,238,5725,1,0,0:0:0:0:
180,161,5959,1,2,0:0:0:0:
180,161,6076,1,0,0:0:0:0:
180,161,6193,1,2,0:0:0:0:
180,161,6428,1,2,0:0:0:0:
180,99,6545,1,0,0:0:0:0:
172,64,6662,1,0,0:0:0:0:
253,116,6896,1,0,0:0:0:0:
253,116,7131,1,2,0:0:0:0:
253,116,7365,1,2,0:0:0:0:
253,116,7600,1,0,0:0:0:0:
253,116,7834,1,2,0:0:0:0:
193,52,8068,1,0,0:0:0:0:
253,116,8537,1,2,0:0:0:0:
253,116,8771,1,2,0:0:0:0:
195,99,9006,1,0,0:0:0:0:
253,116,9240,1,2,0:0:0:0:
253,116,9475,1,0,0:0:0:0:
122,221,9709,1,2,0:0:0:0:
122,221,9943,1,0,0:0:0:0:
122,221,10412,1,0,0:0:0:0:
205,134,10646,1,0,0:0:0:0:
205,134,10881,1,2,0:0:0:0:
205,134,11115,1,2,0:0:0:0:
122,221,11350,1,0,0:0:0:0:
205,134,11818,1,2,0:0:0:0:
205,134,12053,1,0,0:0:0:0:
122,221,12287,1,2,0:0:0:0:
205,134,12521,1,0,0:0:0:0:
122,221,12756,1,0,0:0:0:0:
166,60,12990,1,2,0:0:0:0:
122,221,13225,1,0,0:0:0:0:
122,221,13459,1,0,0:0:0:0:
110,105,13693,1,6,0:0:0:0:
276,240,14162,1,0,0:0:0:0:
276,240,14396,1,2,0:0:0:0:
276,240,14631,1,0,0:0:0:0:
276,240,14865,1,2,0:0:0:0:
276,240,15100,1,0,0:0:0:0:
276,240,15568,1,0,0:0:0:0:
276,240,15920,1,0,0:0:0:0:
276,240,16037,1,0,0:0:0:0:
276,240,16271,1,2,0:0:0:0:
276,240,16506,1,0,0:0:0:0:
276,240,16740,1,2,0:0:0:0:
276,240,16975,1,0,0:0:0:0:
230,277,17443,1,0,0:0:0:0:
230,277,17912,1,2,0:0:0:0:
230,277,18146,1,0,0:0:0:0:
205,112,18381,1,0,0:0:0:0:
230,277,18615,1,2,0:0:0:0:
230,277,18850,1,0,0:0:0:0:
230,277,19318,1,0,0:0:0:0:
127,126,19553,1,2,0:0:0:0:
127,126,19787,1,2,0:0:0:0:
127,126,19904,1,2,0:0:0:0:
127,126,20021,1,0,0:0:0:0:
127,126,20139,1,2,0:0:0:0:
230,277,20256,1,0,0:0:0:0:
228,161,20490,1,6,0:0:0:0:
230,277,20725,1,0,0:0:0:0:
143,187,20959,1,0,0:0:0:0:
143,187,21076,1,0,0:0:0:0:
143,187,21193,1,2,0:0:0:0:
143,187,21662,1,0,0:0:0:0:
143,187,21896,1,2,0:0:0:0:
143,187,22131,1,0,0:0:0:0:
122,239,22365,1,2,0:0:0:0:
116,107,22600,1,0,0:0:0:0:
116,107,22717,1,2,0:0:0:0:
122,239,22834,1,0,0:0:0:0:
122,239,23068,1,0,0:0:0:0:
122,239,23303,1,0,0:0:0:0:
122,239,23537,1,2,0:0:0:0:
122,239,23654,1,2,0:0:0:0:
122,239,23771,1,0,0:0:0:0:
122,239,24006,1,2,0:0:0:0:
122,239,24240,1,0,0:0:0:0:
122,239,24709,1,2,0:0:0:0:
122,239,24826,1,0,0:0:0:0:
122,239,24943,1,2,0:0:0:0:
122,239,25178,1,2,0:0:0:0:
122,239,25295,1,0,0:0:0:0:
122,239,25412,1,0,0:0:0:0:
122,239,25646,1,0,0:0:0:0:
122,239,25881,1,2,0:0:0:0:
122,239,26115,1,2,0:0:0:0:
209,134,26350,1,0,0:0:0:0:
168,212,26584,1,2,0:0:0:0:
168,212,26818,1,0,0:0:0:0:
168,212,26935,1,2,0:0:0:0:
168,212,27053,1,0,0:0:0:0:
168,212,27287,1,2,0:0:0:0:
168,212,27521,1,2,0:0:0:0:
135,200,27639,1,0,0:0:0:0:
168,212,27756,1,0,0:0:0:0:
135,200,27990,1,0,0:0:0:0:
135,200,28459,1,2,0:0:0:0:
135,200,28693,1,0,0:0:0:0:
135,200,28928,1,0,0:0:0:0:
135,200,29162,1,2,0:0:0:0:
135,200,29396,1,0,0:0:0:0:
135,200,29631,1,2,0:0:0:0:
135,200,29748,1,0,0:0:0:0:
135,200,29865,1,2,0:0:0:0:
135,200,30100,1,0,0:0:0:0:
209,134,30334,1,0,0:0:0:0:
247,185,30568,1,2,0:0:0:0:
247,185,30803,1,2,0:0:0:0:
201,140,30920,1,0,0:0:0:0:
247,185,31037,1,0,0:0:0:0:
247,185,31271,1,2,0:0:0:0:
247,185,31506,1,0,0:0:0:0:
247,185,31740,1,6,0:0:0:0:
106,181,31975,1,0,0:0:0:0:
106,181,32209,1,0,0:0:0:0:
106,181,32443,1,2,0:0:0:0:
106,181,32678,1,0,0:0:0:0:
106,181,32912,1,0,0:0:0:0:
106,181,33146,1,0,0:0:0:0:
106,181,33381,1,2,0:0:0:0:
106,181,33615,1,0,0:0:0:0:
106,181,33732,1,0,0:0:0:0:
106,181,33850,1,2,0:0:0:0:
224,239,34318,1,2,0:0:0:0:
224,239,34553,1,0,0:0:0:0:
224,239,34787,1,2,0:0:0:0:
224,239,35021,1,2,0:0:0:0:
224,239,35256,1,0,0:0:0:0:
224,239,35490,1,2,0:0:0:0:
224,239,35725,1,2,0:0:0:0:
122,225,36193,1,0,0:0:0:0:
122,225,36428,1,0,0:0:0:0:
122,225,36662,1,2,0:0:0:0:
122,225,36896,1,2,0:0:0:0:
122,225,37131,1,0,0:0:0:0:
122,225,37365,1,2,0:0:0:0:
122,225,37600,1,0,0:0:0:0:
122,225,37717,1,0,0:0:0:0:
122,225,37834,1,0,0:0:0:0:
122,225,37951,1,0,0:0:0:0:
122,225,38068,1,2,0:0:0:0:
122,225,38303,1,0,0:0:0:0:
122,225,38537,1,2,0:0:0:0:
122,225,38654,1,2,0:0:0:0:
122,225,38771,1,0,0:0:0:0:
122,225,38889,1,0,0:0:0:0:
122,225,39006,1,2,0:0:0:0:
122,225,39240,1,2,0:0:0:0:
122,225,39475,1,0,0:0:0:0:
122,225,39592,1,0,0:0:0:0:
122,225,39709,1,0,0:0:0:0:
122,225,39943,1,0,0:0:0:0:
122,225,40060,1,2,0:0:0:0:
122,225,40178,1,0,0:0:0:0:
151,148,40412,1,2,0:0:0:0:
180,44,40529,1,2,0:0:0:0:
151,148,40646,1,0,0:0:0:0:
151,148,40881,1,2,0:0:0:0:
166,159,41115,1,0,0:0:0:0:
236,117,41350,1,6,0:0:0:0:
209,113,41701,1,0,0:0:0:0:
209,113,41818,1,2,0:0:0:0:
209,113,41935,1,2,0:0:0:0:
209,113,42053,1,0,0:0:0:0:
209,113,42287,1,2,0:0:0:0:
209,113,42521,1,0,0:0:0:0:
209,113,42639,1,2,0:0:0:0:
209,113,42756,1,0,0:0:0:0:
209,113,42990,1,2,0:0:0:0:
184,45,43107,1,0,0:0:0:0:
209,113,43342,1,2,0:0:0:0:
209,113,43459,1,0,0:0:0:0:
209,113,43693,1,2,0:0:0:0:
209,113,43928,1,0,0:0:0:0:
209,113,44162,1,2,0:0:0:0:
209,113,44279,1,0,0:0:0:0:
209,113,44396,1,2,0:0:0:0:
209,113,44631,1,0,0:0:0:0:
135,233,44865,1,2,0:0:0:0:
135,233,44982,1,2,0:0:0:0:
135,233,45100,1,0,0:0:0:0:
135,233,45568,1,2,0:0:0:0:
135,233,45803,1,0,0:0:0:0:
135,233,45920,1,2,0:0:0:0:
135,233,46037,1,2,0:0:0:0:
135,233,46271,1,0,0:0:0:0:
135,233,46506,1,2,0:0:0:0:
133,136,46740,1,0,0:0:0:0:
135,233,46857,1,2,0:0:0:0:
135,233,47092,1,2,0:0:0:0:
135,233,47209,1,0,0:0:0:0:
135,233,47443,1,2,0:0:0:0:
135,233,47678,1,0,0:0:0:0:
135,233,47912,1,0,0:0:0:0:
139,132,48029,1,0,0:0:0:0:
139,132,48146,1,2,0:0:0:0:
139,132,48264,1,0,0:0:0:0:
135,233,48381,1,2,0:0:0:0:
135,233,48615,1,6,0:0:0:0:
251,138,48850,1,0,0:0:0:0:
251,138,49201,1,0,0:0:0:0:
251,138,49318,1,2,0:0:0:0:
251,138,49553,1,0,0:0:0:0:
251,138,49787,1,0,0:0:0:0:
251,138,49904,1,2,0:0:0:0:
251,138,50021,1,0,0:0:0:0:
251,138,50256,1,2,0:0:0:0:
251,138,50490,1,0,0:0:0:0:
251,138,50607,1,0,0:0:0:0:
251,138,50842,1,0,0:0:0:0:
251,138,50959,1,2,0:0:0:0:
143,154,51193,1,0,0:0:0:0:
172,202,51428,1,2,0:0:0:0:
172,202,51662,1,0,0:0:0:0:
172,202,51779,1,0,0:0:0:0:
172,202,51896,1,2,0:0:0:0:
172,202,52131,1,0,0:0:0:0:
172,202,52365,1,2,0:0:0:0:
172,202,52482,1,0,0:0:0:0:
172,202,52600,1,2,0:0:0:0:
172,202,52834,1,0,0:0:0:0:
172,202,52951,1,0,0:0:0:0:
172,202,53068,1,2,0:0:0:0:
172,202,53185,1,2,0:0:0:0:
172,202,53420,1,2,0:0:0:0:
172,202,53537,1,0,0:0:0:0:
172,202,53771,1,2,0:0:0:0:
172,202,54006,1,2,0:0:0:0:
172,202,54240,1,4,0:0:0:0:
172,202,54709,1,4,0:0:0:0:
172,202,55178,1,6,0:0:0:0:
234,148,55646,1,0,0:0:0:0:
234,148,55881,1,2,0:0:0:0:
234,148,55998,1,2,0:0:0:0:
234,148,56115,1,0,0:0:0:0:
234,148,56350,1,6,0:0:0:0:
209,113,56701,1,0,0:0:0:0:
209,113,56818,1,2,0:0:0:0:
209,113,56935,1,2,0:0:0:0:
209,113,57053,1,0,0:0:0:0:
209,113,57287,1,2,0:0:0:0:
209,113,57521,1,0,0:0:0:0:
209,113,57639,1,2,0:0:0:0:
209,113,57756,1,0,0:0:0:0:
209,113,57990,1,2,0:0:0:0:
184,45,58107,1,0,0:0:0:0:
209,113,58342,1,2,0:0:0:0:
209,113,58459,1,0,0:0:0:0:
209,113,58693,1,2,0:0:0:0:
209,113,58928,1,0,0:0:0:0:
209,113,59162,1,0,0:0:0:0:
209,113,59279,1,0,0:0:0:0:
209,113,59396,1,2,0:0:0:0:
209,113,59631,1,0,0:0:0:0:
135,233,59865,1,2,0:0:0:0:
135,233,59982,1,2,0:0:0:0:
135,233,60100,1,0,0:0:0:0:
135,233,60568,1,2,0:0:0:0:
135,233,60803,1,2,0:0:0:0:
135,233,60920,1,0,0:0:0:0:
135,233,61037,1,2,0:0:0:0:
135,233,61271,1,0,0:0:0:0:
135,233,61506,1,2,0:0:0:0:
133,136,61623,1,0,0:0:0:0:
133,136,61740,1,0,0:0:0:0:
135,233,61857,1,2,0:0:0:0:
135,233,62092,1,2,0:0:0:0:
135,233,62209,1,0,0:0:0:0:
135,233,62443,1,2,0:0:0:0:
135,233,62678,1,0,0:0:0:0:
135,233,62912,1,2,0:0:0:0:
139,132,63029,1,0,0:0:0:0:
139,132,63146,1,0,0:0:0:0:
139,132,63264,1,2,0:0:0:0:
135,233,63381,1,0,0:0:0:0:
135,233,63615,1,6,0:0:0:0:
251,138,63850,1,0,0:0:0:0:
251,138,64201,1,0,0:0:0:0:
251,138,64318,1,2,0:0:0:0:
251,138,64553,1,0,0:0:0:0:
251,138,64670,1,2,0:0:0:0:
251,138,64787,1,0,0:0:0:0:
251,138,65021,1,0,0:0:0:0:
251,138,65256,1,0,0:0:0:0:
154,184,65373,1,0,0:0:0:0:
251,138,65490,1,2,0:0:0:0:
251,138,65607,1,0,0:0:0:0:
251,138,65842,1,2,0:0:0:0:
251,138,65959,1,0,0:0:0:0:
143,154,66193,1,2,0:0:0:0:
172,202,66428,1,0,0:0:0:0:
172,202,66662,1,0,0:0:0:0:
172,202,66779,1,0,0:0:0:0:
172,202,66896,1,2,0:0:0:0:
172,202,67131,1,0,0:0:0:0:
172,202,67365,1,2,0:0:0:0:
172,202,67482,1,0,0:0:0:0:
172,202,67600,1,2,0:0:0:0:
172,202,67834,1,0,0:0:0:0:
172,202,67951,1,0,0:0:0:0:
172,202,68068,1,2,0:0:0:0:
172,202,68185,1,2,0:0:0:0:
172,202,68420,1,2,0:0:0:0:
172,202,68537,1,0,0:0:0:0:
172,202,68771,1,2,0:0:0:0:
172,202,69006,1,2,0:0:0:0:
135,181,69123,1,2,0:0:0:0:
135,181,69240,1,2,0:0:0:0:
135,181,69357,1,2,0:0:0:0:
135,181,69475,1,0,0:0:0:0:
256,192,70178,12,0,70881,0:0:0:0:
207,200,71115,5,6,0:0:0:0:
