osu file format v14

[General]
AudioFilename: audio.mp3
AudioLeadIn: 0
PreviewTime: 41232
Countdown: 0
SampleSet: Normal
StackLeniency: 0.7
Mode: 1
LetterboxInBreaks: 0
WidescreenStoryboard: 1

[Editor]
DistanceSpacing: 0.9
BeatDivisor: 16
GridSize: 32
TimelineZoom: 1.9

[Metadata]
Title:RIDE ON TIME (REDALiCE's CITY POP SHARK Remix)
TitleUnicode:RIDE ON TIME (REDALiCE's CITY POP SHARK Remix)
Artist:Gawr Gura
ArtistUnicode:Gawr Gura
Creator:vrnl
Version:Kqrth's Muzukashii
Source:
Tags:japanese electronic pop jpop j-pop Yamashita Tatsuro 山下達郎 hololive EN vtuber holomyth がうる ぐら shark a the bros 3 chumbuddy chumbuddies genjuro kqrth
BeatmapID:2620035
BeatmapSetID:1260204

[Difficulty]
HPDrainRate:5
CircleSize:5
OverallDifficulty:5
ApproachRate:5
SliderMultiplier:1.4
SliderTickRate:1

[Events]
//Background and Video events
0,0,"Gawr-Gura-01.jpg",0,54
//Break Periods
//Storyboard Layer 0 (Background)
//Storyboard Layer 1 (Fail)
//Storyboard Layer 2 (Pass)
//Storyboard Layer 3 (Foreground)
//Storyboard Layer 4 (Overlay)
//Storyboard Sound Samples

[TimingPoints]
100,468.75,4,1,0,60,1,0
1857,-100,4,1,0,70,0,0
41232,-100,4,1,0,80,0,0
41350,-100,4,1,0,80,0,1
54240,-100,4,1,0,80,0,0
56350,-100,4,1,0,80,0,1
69475,-100,4,1,0,80,0,0
69592,-100,4,1,0,50,0,0
70998,-100,4,1,0,70,0,0
71232,-100,4,1,0,5,0,0

[HitObjects]
256,192,100,5,8,0:0:0:0:
256,192,568,1,8,0:0:0:0:
256,192,1037,1,8,0:0:0:0:
256,192,1271,1,0,0:0:0:0:
256,192,1506,1,8,0:0:0:0:
256,192,1740,1,8,0:0:0:0:
256,192,1975,1,4,0:0:0:0:
256,192,3615,1,8,0:0:0:0:
256,192,4084,1,0,0:0:0:0:
256,192,4318,1,8,0:0:0:0:
256,192,4787,1,0,0:0:0:0:
256,192,5021,1,0,0:0:0:0:
256,192,5490,1,8,0:0:0:0:
256,192,6896,1,0,0:0:0:0:
256,192,7131,1,0,0:0:0:0:
256,192,7365,1,8,0:0:0:0:
256,192,7834,1,0,0:0:0:0:
256,192,8068,1,0,0:0:0:0:
256,192,8537,1,8,0:0:0:0:
256,192,8771,1,8,0:0:0:0:
256,192,9240,1,0,0:0:0:0:
256,192,10646,1,8,0:0:0:0:
256,192,10881,1,0,0:0:0:0:
256,192,11115,1,8,0:0:0:0:
256,192,11818,1,8,0:0:0:0:
256,192,12053,1,8,0:0:0:0:
256,192,12521,1,0,0:0:0:0:
256,192,12990,1,8,0:0:0:0:
256,192,13225,1,0,0:0:0:0:
256,192,13459,1,0,0:0:0:0:
256,192,13693,1,8,0:0:0:0:
256,192,14162,1,0,0:0:0:0:
256,192,14396,1,0,0:0:0:0:
256,192,14865,1,8,0:0:0:0:
256,192,15568,1,0,0:0:0:0:
256,192,16037,1,8,0:0:0:0:
256,192,16271,1,8,0:0:0:0:
256,192,16740,1,8,0:0:0:0:
256,192,17443,1,0,0:0:0:0:
256,192,17912,1,8,0:0:0:0:
256,192,18146,1,0,0:0:0:0:
256,192,18615,1,8,0:0:0:0:
256,192,19318,1,0,0:0:0:0:
256,192,19553,1,8,0:0:0:0:
256,192,19787,1,8,0:0:0:0:
256,192,20490,1,0,0:0:0:0:
256,192,20725,1,0,0:0:0:0:
256,192,21193,1,8,0:0:0:0:
256,192,21662,1,0,0:0:0:0:
256,192,22131,1,0,0:0:0:0:
320,384,22365,1,8,0:0:0:0:
256,192,22834,1,8,0:0:0:0:
256,192,23068,1,0,0:0:0:0:
256,192,23537,1,8,0:0:0:0:
256,192,23771,1,8,0:0:0:0:
256,192,24006,1,0,0:0:0:0:
256,192,24240,1,8,0:0:0:0:
256,192,24943,1,8,0:0:0:0:
256,192,25412,1,0,0:0:0:0:
256,192,25646,1,8,0:0:0:0:
256,192,25881,1,8,0:0:0:0:
256,192,26115,1,0,0:0:0:0:
256,192,26584,1,8,0:0:0:0:
256,192,26818,1,0,0:0:0:0:
256,192,27287,1,8,0:0:0:0:
256,192,27521,1,0,0:0:0:0:
256,192,27756,1,0,0:0:0:0:
256,192,27990,1,8,0:0:0:0:
256,192,28693,1,8,0:0:0:0:
256,192,29162,1,0,0:0:0:0:
256,192,29396,1,0,0:0:0:0:
256,192,29631,1,0,0:0:0:0:
256,192,29865,1,8,0:0:0:0:
256,192,30334,1,0,0:0:0:0:
256,192,30568,1,8,0:0:0:0:
256,192,30803,1,0,0:0:0:0:
256,192,31271,1,8,0:0:0:0:
256,192,31740,1,0,0:0:0:0:
256,192,32443,1,8,0:0:0:0:
256,192,32912,1,8,0:0:0:0:
256,192,33146,1,8,0:0:0:0:
256,192,33615,1,0,0:0:0:0:
256,192,34084,1,0,0:0:0:0:
256,192,34318,1,8,0:0:0:0:
256,192,34787,1,8,0:0:0:0:
256,192,35021,1,8,0:0:0:0:
256,192,35256,1,0,0:0:0:0:
256,192,35490,1,8,0:0:0:0:
256,192,35959,1,0,0:0:0:0:
256,192,36193,1,8,0:0:0:0:
256,192,36428,1,0,0:0:0:0:
256,192,36662,1,8,0:0:0:0:
256,192,36896,1,8,0:0:0:0:
256,192,37365,1,0,0:0:0:0:
256,192,37600,1,8,0:0:0:0:
256,192,37834,1,8,0:0:0:0:
256,192,37951,1,8,0:0:0:0:
256,192,38068,1,8,0:0:0:0:
256,192,38303,1,8,0:0:0:0:
256,192,38537,1,0,0:0:0:0:
256,192,38771,1,0,0:0:0:0:
256,192,38889,1,0,0:0:0:0:
256,192,39006,1,0,0:0:0:0:
256,192,39240,1,0,0:0:0:0:
256,192,39475,1,8,0:0:0:0:
256,192,39943,1,8,0:0:0:0:
256,192,40412,5,0,0:0:0:0:
256,192,41350,5,12,0:0:0:0:
256,192,42053,1,0,0:0:0:0:
256,192,42287,1,8,0:0:0:0:
256,192,42521,1,0,0:0:0:0:
256,192,42639,1,0,0:0:0:0:
256,192,42756,1,0,0:0:0:0:
256,192,42990,1,8,0:0:0:0:
256,192,43342,1,0,0:0:0:0:
256,192,43459,1,0,0:0:0:0:
256,192,43693,1,8,0:0:0:0:
256,192,44162,1,8,0:0:0:0:
256,192,44396,1,8,0:0:0:0:
256,192,44631,1,0,0:0:0:0:
256,192,44865,1,8,0:0:0:0:
256,192,44982,1,8,0:0:0:0:
256,192,45100,1,0,0:0:0:0:
256,192,45803,1,8,0:0:0:0:
256,192,46037,1,8,0:0:0:0:
256,192,46271,1,0,0:0:0:0:
256,192,46389,1,0,0:0:0:0:
256,192,46506,1,0,0:0:0:0:
256,192,46740,1,8,0:0:0:0:
256,192,47209,1,8,0:0:0:0:
256,192,47443,1,0,0:0:0:0:
256,192,47678,1,0,0:0:0:0:
256,192,47795,1,0,0:0:0:0:
256,192,47912,1,0,0:0:0:0:
256,192,48146,1,8,0:0:0:0:
256,192,48615,1,4,0:0:0:0:
256,192,49318,1,0,0:0:0:0:
256,192,49553,1,8,0:0:0:0:
256,192,49787,1,8,0:0:0:0:
256,192,50021,1,0,0:0:0:0:
256,192,50139,1,0,0:0:0:0:
256,192,50256,1,0,0:0:0:0:
256,192,50490,1,8,0:0:0:0:
256,192,50959,1,0,0:0:0:0:
256,192,51193,1,8,0:0:0:0:
256,192,51428,1,8,0:0:0:0:
256,192,51662,1,0,0:0:0:0:
256,192,51896,1,8,0:0:0:0:
256,192,52365,1,8,0:0:0:0:
256,192,52600,1,8,0:0:0:0:
256,192,52834,1,0,0:0:0:0:
256,192,53068,1,8,0:0:0:0:
256,192,53185,1,8,0:0:0:0:
256,192,53420,1,8,0:0:0:0:
256,192,53537,1,8,0:0:0:0:
256,192,53771,1,8,0:0:0:0:
256,192,54006,1,8,0:0:0:0:
256,192,54240,1,0,0:0:0:0:
256,192,54709,1,0,0:0:0:0:
256,192,55178,1,8,0:0:0:0:
256,192,55646,1,0,0:0:0:0:
256,192,56350,1,12,0:0:0:0:
256,192,57053,1,0,0:0:0:0:
256,192,57287,1,8,0:0:0:0:
256,192,57521,1,0,0:0:0:0:
256,192,57639,1,0,0:0:0:0:
256,192,57756,1,0,0:0:0:0:
256,192,57990,1,8,0:0:0:0:
256,192,58342,1,0,0:0:0:0:
256,192,58459,1,0,0:0:0:0:
256,192,58693,1,8,0:0:0:0:
256,192,59162,1,8,0:0:0:0:
256,192,59396,1,8,0:0:0:0:
256,192,59631,1,0,0:0:0:0:
256,192,59865,1,8,0:0:0:0:
256,192,59982,1,8,0:0:0:0:
256,192,60100,1,0,0:0:0:0:
256,192,60803,1,8,0:0:0:0:
256,192,61037,1,8,0:0:0:0:
256,192,61271,1,0,0:0:0:0:
256,192,61389,1,0,0:0:0:0:
256,192,61506,1,0,0:0:0:0:
256,192,61740,1,8,0:0:0:0:
256,192,62209,1,8,0:0:0:0:
256,192,62443,1,0,0:0:0:0:
256,192,62678,1,0,0:0:0:0:
256,192,62912,1,8,0:0:0:0:
256,192,63264,1,8,0:0:0:0:
256,192,63615,1,4,0:0:0:0:
256,192,64318,1,0,0:0:0:0:
256,192,64553,1,8,0:0:0:0:
256,192,64787,1,8,0:0:0:0:
256,192,65021,1,0,0:0:0:0:
256,192,65139,1,0,0:0:0:0:
256,192,65256,1,0,0:0:0:0:
256,192,65490,1,8,0:0:0:0:
256,192,65959,1,0,0:0:0:0:
256,192,66193,1,8,0:0:0:0:
256,192,66428,1,0,0:0:0:0:
256,192,66662,1,8,0:0:0:0:
256,192,66896,1,0,0:0:0:0:
256,192,67365,1,8,0:0:0:0:
256,192,67600,1,8,0:0:0:0:
256,192,67834,1,0,0:0:0:0:
256,192,68068,1,8,0:0:0:0:
256,192,68185,1,8,0:0:0:0:
256,192,68420,1,8,0:0:0:0:
256,192,68537,1,8,0:0:0:0:
256,192,68771,1,8,0:0:0:0:
256,192,69006,1,8,0:0:0:0:
256,192,69123,1,8,0:0:0:0:
256,192,69240,1,8,0:0:0:0:
256,192,69475,1,4,0:0:0:0:
256,192,71115,1,12,0:0:0:0:
