osu file format v14

[General]
AudioFilename: audio.mp3
AudioLeadIn: 0
PreviewTime: 41291
Countdown: 0
SampleSet: Soft
StackLeniency: 0.7
Mode: 2
LetterboxInBreaks: 0
WidescreenStoryboard: 1

[Editor]
DistanceSpacing: 1.1
BeatDivisor: 4
GridSize: 32
TimelineZoom: 2.4

[Metadata]
Title:RIDE ON TIME (REDALiCE's CITY POP SHARK Remix)
TitleUnicode:RIDE ON TIME (REDALiCE's CITY POP SHARK Remix)
Artist:Gawr Gura
ArtistUnicode:Gawr Gura
Creator:Nelly
Version:Salad
Source:
Tags:japanese electronic pop jpop j-pop Yamashita Tatsuro 山下達郎 hololive EN vtuber holomyth がうる ぐら a
BeatmapID:2819067
BeatmapSetID:1354675

[Difficulty]
HPDrainRate:4
CircleSize:2.8
OverallDifficulty:6.4
ApproachRate:6.4
SliderMultiplier:1.9
SliderTickRate:1

[Events]
//Background and Video events
0,0,"gura.jpg",0,0
//Break Periods
//Storyboard Layer 0 (Background)
//Storyboard Layer 1 (Fail)
//Storyboard Layer 2 (Pass)
//Storyboard Layer 3 (Foreground)
//Storyboard Layer 4 (Overlay)
//Storyboard Sound Samples

[TimingPoints]
100,468.75,4,2,1,40,1,0
1975,-100,4,2,1,70,0,0
31975,-100,4,2,2,70,0,0
41350,-100,4,2,3,80,0,1
54240,-100,4,2,3,80,0,0
54943,-100,4,2,1,80,0,0
56350,-100,4,2,3,80,0,1
69475,-100,4,2,3,80,0,0
69592,-100,4,2,3,60,0,0

[Colours]
Combo1 : 215,215,215
Combo2 : 121,219,240
Combo3 : 45,182,234

[HitObjects]
181,338,100,6,0,L|176:145,1,190,8|8,0:0|0:0,0:0:0:0:
385,306,1037,2,0,L|390:113,1,190,8|8,0:0|0:0,0:0:0:0:
285,106,1740,1,8,0:0:0:0:
66,322,1975,6,0,P|50:276|131:178,1,190,6|2,0:0|0:0,0:0:0:0:
340,61,2912,2,0,L|150:56,1,190,2|2,0:0|0:0,0:0:0:0:
255,159,3615,1,0,0:0:0:0:
474,336,3850,6,0,P|490:290|409:192,1,190,2|2,0:0|0:0,0:0:0:0:
200,242,4787,1,2,0:0:0:0:
96,235,5021,2,0,L|89:43,1,190,0|0,0:0|0:0,0:0:0:0:
309,27,5725,5,2,0:0:0:0:
403,32,5959,1,8,0:0:0:0:
309,27,6193,1,10,0:0:0:0:
100,296,6662,1,2,0:0:0:0:
95,201,6896,1,0,0:0:0:0:
200,183,7131,1,2,0:0:0:0:
418,164,7365,6,0,P|478:103|416:44,1,190,0|0,0:0|0:0,0:0:0:0:
312,44,8068,1,2,0:0:0:0:
103,319,8537,1,2,0:0:0:0:
207,312,8771,2,0,L|214:120,1,190,0|0,0:0|0:0,0:0:0:0:
109,117,9475,5,2,0:0:0:0:
213,122,9709,1,2,2:1:0:0:
431,127,9943,1,2,0:0:0:0:
240,338,10412,1,2,0:0:0:0:
235,243,10646,1,0,0:0:0:0:
340,225,10881,1,2,0:0:0:0:
122,228,11115,6,0,P|36:130|125:36,1,285,0|2,0:0|0:0,0:0:0:0:
230,36,12053,2,0,L|420:41,2,190,0|0|0,0:0|0:0|0:0,0:0:0:0:
125,236,13225,1,2,0:0:0:0:
120,141,13459,1,2,0:0:0:0:
338,153,13693,5,6,0:0:0:0:
148,277,14162,1,2,0:0:0:0:
44,185,14396,2,0,L|233:178,1,190,0|0,0:0|0:0,0:0:0:0:
454,300,15100,6,0,L|458:111,1,190,2|2,0:0|0:0,0:0:0:0:
249,68,16037,1,2,0:0:0:0:
344,63,16271,1,0,0:0:0:0:
349,161,16506,1,2,0:0:0:0:
131,323,16740,6,0,P|86:296|130:189,1,190,0|0,0:0|0:0,0:0:0:0:
232,186,17443,1,2,0:0:0:0:
441,298,17912,2,0,L|251:290,1,190,2|2,0:0|0:0,0:0:0:0:
146,282,18615,1,0,0:0:0:0:
365,200,18850,6,0,P|421:189|427:74,1,190,2|2,0:0|0:0,0:0:0:0:
323,68,19553,1,0,0:0:0:0:
105,326,19787,1,2,2:1:0:0:
119,233,20021,1,2,2:1:0:0:
183,164,20255,1,2,2:1:0:0:
274,142,20490,1,6,0:0:0:0:
55,278,20725,6,0,P|33:244|109:136,1,190,2|2,0:0|0:0,0:0:0:0:
313,253,21662,1,2,0:0:0:0:
318,158,21896,1,2,2:1:0:0:
213,140,22131,1,2,0:0:0:0:
431,226,22365,6,0,P|472:199|429:88,1,190,0|0,0:0|0:0,0:0:0:0:
326,74,23068,1,2,0:0:0:0:
116,67,23537,1,2,0:0:0:0:
210,65,23771,1,0,0:0:0:0:
401,208,24240,1,0,0:0:0:0:
306,206,24474,1,2,0:0:0:0:
106,327,24709,1,8,0:0:0:0:
104,232,24943,5,10,0:0:0:0:
314,214,25412,1,2,0:0:0:0:
210,206,25646,1,0,0:0:0:0:
205,111,25880,1,2,0:0:0:0:
424,81,26115,6,0,P|458:102|407:211,1,190,0|0,0:0|0:0,0:0:0:0:
304,207,26818,1,2,0:0:0:0:
95,90,27287,1,2,0:0:0:0:
189,88,27521,2,0,L|193:278,1,190,0|0,0:0|0:0,0:0:0:0:
88,289,28225,1,2,0:0:0:0:
192,289,28459,1,2,2:1:0:0:
410,294,28693,5,2,0:0:0:0:
220,232,29162,1,2,0:0:0:0:
125,233,29396,1,0,0:0:0:0:
220,232,29631,1,2,0:0:0:0:
438,225,29865,6,0,P|457:204|354:22,1,285,0|2,0:0|0:0,0:0:0:0:
253,21,30803,2,0,L|63:26,2,190,0|0|4,0:0|0:0|0:0,0:0:0:0:
53,313,31975,6,0,P|38:271|126:172,1,190,8|8,0:0|0:0,0:0:0:0:
332,332,32912,2,0,L|336:141,1,190,8|8,0:0|0:0,0:0:0:0:
231,133,33615,1,8,0:0:0:0:
431,186,33850,6,0,P|446:144|358:45,1,190,8|8,0:0|0:0,0:0:0:0:
172,270,34787,2,0,L|366:264,1,190,8|8,0:0|0:0,0:0:0:0:
257,192,35490,1,8,0:0:0:0:
57,192,35725,6,0,P|41:158|130:55,1,190,8|8,0:0|0:0,0:0:0:0:
229,54,36428,1,8,0:0:0:0:
333,181,36662,2,0,L|336:87,1,95,8|8,0:0|0:0,0:0:0:0:
231,291,37131,2,0,L|228:197,1,95,8|8,0:0|0:0,0:0:0:0:
428,286,37600,6,0,P|466:264|430:148,1,190,8|8,0:0|0:0,0:0:0:0:
241,129,38537,2,0,L|50:125,1,190,8|8,0:0|0:0,0:0:0:0:
156,225,39240,1,8,0:0:0:0:
375,239,39475,5,10,0:0:0:0:
175,325,40412,2,0,L|171:230,1,95,0|0,3:0|3:0,3:0:0:0:
266,131,40881,1,0,3:0:0:0:
218,129,40998,1,0,3:0:0:0:
171,128,41115,1,2,0:0:0:0:
390,257,41350,6,0,P|429:242|388:133,1,190,6|8,0:0|0:0,0:0:0:0:
286,133,42053,1,0,0:0:0:0:
182,245,42287,2,0,L|372:242,1,190,2|8,0:0|0:0,0:0:0:0:
172,337,42990,6,0,P|96:305|107:209,1,190,0|2,0:0|2:1,0:0:0:0:
205,183,43693,1,8,0:0:0:0:
395,180,44162,2,0,L|489:184,2,95,2|0|8,0:0|0:0|0:0,0:0:0:0:
195,307,44865,2,0,P|185:277|284:179,1,190
376,331,45568,5,8,0:0:0:0:
380,236,45802,1,0,0:0:0:0:
275,146,46037,2,0,L|465:143,1,190,2|8,0:0|0:0,0:0:0:0:
265,276,46740,6,0,P|189:244|200:148,1,190,0|0,0:0|0:0,0:0:0:0:
303,156,47443,1,8,0:0:0:0:
307,61,47677,1,0,0:0:0:0:
202,51,47912,1,2,0:0:0:0:
107,47,48146,1,0,0:0:0:0:
202,51,48381,1,8,0:0:0:0:
400,303,48615,6,0,P|424:216|352:164,1,190,4|2,0:0|2:1,0:0:0:0:
257,76,49318,1,8,0:0:0:0:
352,72,49553,1,0,0:0:0:0:
153,237,49787,2,0,P|77:205|88:109,1,190,2|8,0:0|0:0,0:0:0:0:
182,73,50490,6,0,L|372:69,1,190,0|2,0:0|2:1,0:0:0:0:
277,277,51193,1,8,0:0:0:0:
273,182,51427,1,0,0:0:0:0:
378,282,51662,1,2,0:0:0:0:
442,216,51896,1,0,0:0:0:0:
426,126,52130,1,8,0:0:0:0:
344,85,52365,1,0,0:0:0:0:
144,69,52600,5,2,3:0:0:0:
49,65,52834,1,2,3:0:0:0:
144,69,53069,1,2,3:0:0:0:
352,313,53537,1,2,3:0:0:0:
356,218,53771,1,2,3:0:0:0:
251,191,54006,1,2,3:0:0:0:
52,330,54240,6,0,L|46:140,1,190,6|6,0:0|0:0,0:0:0:0:
408,263,55178,2,0,L|414:73,1,190,6|2,0:0|0:0,0:0:0:0:
319,44,55881,1,0,3:0:0:0:
366,41,55998,1,0,3:0:0:0:
413,39,56115,1,0,3:0:0:0:
194,273,56350,6,0,P|118:241|129:145,1,190,2|12,0:0|0:0,0:0:0:0:
232,128,57053,1,0,0:0:0:0:
336,48,57287,2,0,L|144:44,1,190,2|8,0:0|0:0,0:0:0:0:
346,280,57990,6,0,P|422:248|411:152,1,190,0|2,0:0|2:1,0:0:0:0:
308,125,58693,1,8,0:0:0:0:
142,328,59162,2,0,L|48:326,2,95,2|0|8,0:0|0:0|0:0,0:0:0:0:
342,338,59865,2,0,P|358:314|281:199,1,190
189,309,60568,5,8,0:0:0:0:
186,214,60802,1,0,0:0:0:0:
292,203,61037,2,0,P|331:182|295:68,1,190,2|8,0:0|0:0,0:0:0:0:
95,63,61740,6,0,L|88:253,1,190,0|2,0:0|2:1,0:0:0:0:
193,250,62443,1,8,0:0:0:0:
88,252,62678,1,0,0:0:0:0:
306,221,62912,2,0,L|455:200,2,142.5,2|0|4,0:0|0:0|0:0,0:0:0:0:
87,204,63850,6,0,P|102:125|194:77,1,190,0|8,0:0|0:0,0:0:0:0:
298,76,64553,1,0,0:0:0:0:
193,72,64787,1,2,0:0:0:0:
89,83,65021,1,0,0:0:0:0:
193,72,65256,1,8,0:0:0:0:
392,287,65490,6,0,P|431:266|395:152,1,190,0|2,0:0|2:1,0:0:0:0:
290,185,66193,1,8,0:0:0:0:
287,90,66427,1,0,0:0:0:0:
392,318,66662,1,2,0:0:0:0:
388,224,66896,1,0,0:0:0:0:
329,152,67130,1,8,0:0:0:0:
238,130,67365,1,0,0:0:0:0:
38,257,67600,5,2,3:0:0:0:
36,162,67834,1,2,3:0:0:0:
140,148,68068,1,2,3:0:0:0:
349,313,68537,1,2,3:0:0:0:
351,218,68771,1,2,3:0:0:0:
256,129,69006,1,2,3:0:0:0:
303,126,69123,1,2,3:0:0:0:
350,124,69240,1,2,3:0:0:0:
131,68,69475,5,4,0:0:0:0:
256,192,69943,12,0,71115,0:0:0:0:
