osu file format v14

[General]
AudioFilename: audio.mp3
AudioLeadIn: 0
PreviewTime: 41291
Countdown: 0
SampleSet: Soft
StackLeniency: 0.7
Mode: 2
LetterboxInBreaks: 0
WidescreenStoryboard: 1

[Editor]
DistanceSpacing: 1
BeatDivisor: 4
GridSize: 32
TimelineZoom: 2.4

[Metadata]
Title:RIDE ON TIME (REDALiCE's CITY POP SHARK Remix)
TitleUnicode:RIDE ON TIME (REDALiCE's CITY POP SHARK Remix)
Artist:Gawr Gura
ArtistUnicode:Gawr Gura
Creator:Nelly
Version:Platter
Source:
Tags:japanese electronic pop jpop j-pop Yamashita Tatsuro 山下達郎 hololive EN vtuber holomyth がうる ぐら a
BeatmapID:2819449
BeatmapSetID:1354675

[Difficulty]
HPDrainRate:5
CircleSize:3.2
OverallDifficulty:7.4
ApproachRate:7.4
SliderMultiplier:2.2
SliderTickRate:1

[Events]
//Background and Video events
0,0,"gura.jpg",0,0
//Break Periods
//Storyboard Layer 0 (Background)
//Storyboard Layer 1 (Fail)
//Storyboard Layer 2 (Pass)
//Storyboard Layer 3 (Foreground)
//Storyboard Layer 4 (Overlay)
//Storyboard Sound Samples

[TimingPoints]
100,468.75,4,2,1,40,1,0
1975,-100,4,2,1,70,0,0
31975,-100,4,2,2,70,0,0
41350,-100,4,2,3,80,0,1
54240,-100,4,2,3,80,0,0
54943,-100,4,2,1,80,0,0
56350,-100,4,2,3,80,0,1
69475,-100,4,2,3,80,0,0
69592,-100,4,2,3,60,0,0

[Colours]
Combo1 : 215,215,215
Combo2 : 121,219,240
Combo3 : 45,182,234

[HitObjects]
177,301,100,6,0,L|174:190,1,110,8|8,0:0|0:0,0:0:0:0:
228,186,451,1,8,0:0:0:0:
282,182,568,1,8,0:0:0:0:
392,78,803,1,8,0:0:0:0:
446,81,920,1,8,0:0:0:0:
392,78,1037,1,8,0:0:0:0:
282,329,1271,1,8,0:0:0:0:
262,278,1388,1,8,0:0:0:0:
272,225,1505,1,8,0:0:0:0:
309,185,1622,1,8,0:0:0:0:
362,170,1739,1,8,0:0:0:0:
63,334,1975,6,0,P|34:282|125:172,1,220,6|2,0:0|0:0,0:0:0:0:
231,168,2678,1,0,0:0:0:0:
440,309,2912,2,0,L|443:199,1,110,2|2,0:0|2:1,0:0:0:0:
333,187,3381,1,2,0:0:0:0:
124,94,3615,6,0,L|347:92,1,220,0|0,0:0|0:0,0:0:0:0:
234,323,4318,2,0,L|231:213,1,110,2|0,0:0|0:0,0:0:0:0:
341,195,4787,1,2,0:0:0:0:
132,222,5021,2,0,P|86:202|131:74,1,220,0|0,0:0|0:0,0:0:0:0:
428,224,5725,6,0,L|430:115,1,110,2|8,0:0|0:0,0:0:0:0:
375,110,6076,1,8,0:0:0:0:
320,106,6193,1,10,0:0:0:0:
210,310,6428,1,0,0:0:0:0:
209,255,6545,1,0,0:0:0:0:
207,201,6662,1,2,0:0:0:0:
318,216,6896,1,0,0:0:0:0:
320,106,7130,1,2,0:0:0:0:
110,237,7365,6,0,P|67:204|126:80,1,220,0|0,0:0|0:0,0:0:0:0:
237,57,8068,2,0,L|18:52,1,220,2|2,0:0|0:0,0:0:0:0:
228,282,8771,2,0,P|281:266|275:127,1,220,0|0,0:0|0:0,0:0:0:0:
165,110,9475,5,2,0:0:0:0:
374,89,9709,1,2,2:1:0:0:
484,203,9943,1,2,0:0:0:0:
429,200,10060,1,0,0:0:0:0:
374,198,10177,1,0,0:0:0:0:
264,284,10412,1,2,0:0:0:0:
258,174,10646,1,0,0:0:0:0:
369,161,10881,1,2,0:0:0:0:
160,101,11115,6,0,P|105:110|55:248,1,220,0|0,0:0|0:0,0:0:0:0:
265,283,11818,1,2,0:0:0:0:
375,269,12053,2,0,L|378:160,1,110,0|2,0:0|0:0,0:0:0:0:
268,192,12521,2,0,L|271:83,1,110,0|2,0:0|0:0,0:0:0:0:
381,56,12990,5,0,0:0:0:0:
171,71,13225,1,2,0:0:0:0:
164,188,13459,1,2,0:0:0:0:
461,333,13693,2,0,P|468:284|353:181,1,220,6|2,0:0|0:0,0:0:0:0:
243,175,14396,1,0,0:0:0:0:
239,65,14630,1,2,0:0:0:0:
349,53,14865,1,0,0:0:0:0:
139,50,15100,6,0,L|28:47,1,110,2|0,0:0|0:0,0:0:0:0:
238,293,15568,2,0,P|293:278|301:138,1,220,2|2,0:0|0:0,0:0:0:0:
92,223,16271,2,0,L|89:111,1,110,0|2,0:0|0:0,0:0:0:0:
387,248,16740,6,0,L|163:242,1,220,0|0,0:0|0:0,0:0:0:0:
277,166,17443,2,0,L|281:55,1,110,2|0,0:0|0:0,0:0:0:0:
71,290,17912,2,0,P|30:256|94:133,1,220,2|2,0:0|0:0,0:0:0:0:
303,119,18615,5,0,0:0:0:0:
413,258,18850,2,0,L|302:253,1,110,2|0,0:0|0:0,0:0:0:0:
193,243,19318,2,0,L|191:134,1,110,2|0,0:0|0:0,0:0:0:0:
401,77,19787,1,2,2:1:0:0:
450,100,19904,1,2,2:1:0:0:
469,151,20021,1,2,2:1:0:0:
449,200,20138,1,2,2:1:0:0:
401,224,20255,1,2,2:1:0:0:
103,233,20490,6,0,L|100:123,1,110,6|2,0:0|0:0,0:0:0:0:
210,101,20959,1,0,0:0:0:0:
419,339,21193,2,0,P|451:296|368:177,1,220,2|2,0:0|0:0,0:0:0:0:
162,304,21896,2,0,L|159:194,1,110,2|2,2:1|0:0,0:0:0:0:
269,228,22365,6,0,P|338:220|389:91,1,220,0|0,0:0|0:0,0:0:0:0:
280,151,23068,2,0,L|277:41,1,110,2|0,0:0|0:0,0:0:0:0:
387,31,23537,1,2,0:0:0:0:
178,27,23771,2,0,L|398:23,1,220,0|0,0:0|0:0,0:0:0:0:
99,283,24475,6,0,L|96:173,1,110,2|8,0:0|0:0,0:0:0:0:
151,165,24826,1,8,0:0:0:0:
206,158,24943,1,10,0:0:0:0:
316,71,25178,1,0,0:0:0:0:
261,68,25295,1,0,0:0:0:0:
206,66,25412,1,2,0:0:0:0:
96,275,25646,1,0,0:0:0:0:
98,165,25880,1,2,0:0:0:0:
308,277,26115,6,0,P|357:263|371:117,1,220,0|0,0:0|0:0,0:0:0:0:
261,87,26818,2,0,L|480:82,1,220,2|2,0:0|0:0,0:0:0:0:
271,243,27521,1,0,0:0:0:0:
161,232,27756,2,0,L|158:122,1,110,2|0,0:0|0:0,0:0:0:0:
268,86,28225,5,2,0:0:0:0:
59,292,28459,2,0,L|56:182,1,110,2|2,2:1|0:0,0:0:0:0:
111,178,28810,1,0,0:0:0:0:
167,174,28928,1,0,0:0:0:0:
277,158,29162,2,0,L|280:48,1,110,2|0,0:0|0:0,0:0:0:0:
169,40,29631,1,2,0:0:0:0:
378,284,29865,6,0,L|158:282,1,220,0|0,0:0|0:0,0:0:0:0:
368,170,30568,2,0,L|479:173,2,110,2|0|2,0:0|0:0|0:0,0:0:0:0:
258,162,31271,2,0,L|254:51,1,110,0|2,0:0|0:0,0:0:0:0:
364,31,31740,1,4,0:0:0:0:
66,308,31975,6,0,L|62:197,1,110,8|8,0:0|0:0,0:0:0:0:
172,142,32443,2,0,L|283:138,1,110,8|0,0:0|0:0,0:0:0:0:
392,258,32912,2,0,L|281:254,2,110,8|8|8,0:0|0:0|0:0,0:0:0:0:
182,44,33615,1,8,0:0:0:0:
127,44,33732,1,8,0:0:0:0:
182,44,33850,5,8,0:0:0:0:
292,44,34084,2,0,L|401:47,2,110,8|8|0,0:0|0:0|0:0,0:0:0:0:
182,154,34787,1,8,0:0:0:0:
292,263,35021,2,0,L|295:153,1,110,8|8,0:0|0:0,0:0:0:0:
186,154,35490,1,8,0:0:0:0:
396,339,35725,5,8,0:0:0:0:
469,234,35959,1,8,0:0:0:0:
436,110,36193,1,8,0:0:0:0:
320,58,36428,1,8,0:0:0:0:
111,264,36662,1,8,0:0:0:0:
109,154,36896,1,8,0:0:0:0:
219,141,37131,1,8,0:0:0:0:
109,154,37365,1,8,0:0:0:0:
407,293,37600,5,8,0:0:0:0:
461,294,37717,1,8,0:0:0:0:
407,293,37834,1,8,0:0:0:0:
297,285,38068,1,8,0:0:0:0:
294,230,38185,1,8,0:0:0:0:
291,175,38302,1,8,0:0:0:0:
182,220,38537,5,8,0:0:0:0:
179,165,38654,1,8,0:0:0:0:
176,110,38771,1,8,0:0:0:0:
286,64,39006,1,8,0:0:0:0:
341,61,39123,1,8,0:0:0:0:
396,58,39240,1,8,0:0:0:0:
98,266,39475,6,0,L|93:47,1,220,10|8,0:0|0:0,0:0:0:0:
314,214,40412,2,0,L|334:194,2,27.5,0|0|0,3:0|3:0|3:0,3:0:0:0:
259,223,40646,1,0,3:0:0:0:
49,217,40881,1,0,3:0:0:0:
47,162,40998,1,0,3:0:0:0:
46,107,41115,1,2,0:0:0:0:
344,74,41350,6,0,P|371:111|282:230,1,220,6|8,0:0|0:0,0:0:0:0:
175,230,42053,1,0,0:0:0:0:
384,317,42287,2,0,L|498:314,2,110,2|0|8,0:0|0:0|0:0,0:0:0:0:
86,267,42990,6,0,P|77:225|191:115,1,220,0|2,0:0|2:1,0:0:0:0:
400,241,43693,2,0,L|402:132,1,110,8|0,0:0|0:0,0:0:0:0:
292,120,44162,1,2,0:0:0:0:
83,314,44396,2,0,L|81:205,1,110,0|8,0:0|0:0,0:0:0:0:
379,139,44865,1,0,0:0:0:0:
489,287,45100,6,0,L|495:68,1,220,2|8,0:0|0:0,0:0:0:0:
385,44,45803,1,0,0:0:0:0:
176,266,46037,2,0,L|285:262,1,110,2|0,0:0|0:0,0:0:0:0:
396,256,46506,1,8,0:0:0:0:
99,334,46740,6,0,P|50:307|104:185,1,220,0|0,0:0|0:0,0:0:0:0:
312,199,47443,2,0,L|315:90,1,110,8|0,0:0|0:0,0:0:0:0:
205,56,47912,1,2,0:0:0:0:
314,52,48146,1,0,0:0:0:0:
425,51,48381,1,8,0:0:0:0:
114,333,48615,6,0,P|109:229|202:183,1,220,4|2,0:0|2:1,0:0:0:0:
412,61,49318,2,0,L|303:58,1,110,8|0,0:0|0:0,0:0:0:0:
93,240,49787,2,0,L|88:129,1,110,2|0,0:0|0:0,0:0:0:0:
198,101,50256,1,8,0:0:0:0:
407,332,50490,6,0,P|456:305|402:183,1,220,0|2,0:0|2:1,0:0:0:0:
194,180,51193,2,0,L|190:70,1,110,8|0,0:0|0:0,0:0:0:0:
400,24,51662,2,0,L|495:82,2,110,2|0|8,0:0|0:0|0:0,0:0:0:0:
102,149,52365,1,0,0:0:0:0:
47,152,52482,1,0,0:0:0:0:
102,149,52600,5,2,3:0:0:0:
311,211,52834,1,2,3:0:0:0:
353,179,52951,1,2,3:0:0:0:
354,126,53068,1,2,3:0:0:0:
313,92,53185,1,2,3:0:0:0:
204,77,53420,2,0,L|149:75,1,55,2|2,3:0|3:0,0:0:0:0:
259,187,53771,1,2,3:0:0:0:
148,198,54006,1,2,3:0:0:0:
447,331,54240,6,0,L|452:110,1,220,6|6,0:0|0:0,0:0:0:0:
342,91,54943,1,8,0:0:0:0:
132,343,55178,2,0,L|127:122,1,220,6|2,0:0|0:0,0:0:0:0:
337,33,55881,5,0,3:0:0:0:
364,34,55939,1,0,3:0:0:0:
391,35,55998,1,0,3:0:0:0:
336,116,56115,1,0,3:0:0:0:
38,337,56350,6,0,P|27:303|131:178,1,220,2|12,0:0|0:0,0:0:0:0:
242,177,57053,1,0,0:0:0:0:
451,301,57287,2,0,L|455:189,1,110,2|0,0:0|0:0,0:0:0:0:
345,168,57756,1,8,0:0:0:0:
48,266,57990,6,0,P|26:216|123:102,1,220,0|2,0:0|2:1,0:0:0:0:
328,275,58693,2,0,L|332:163,1,110,8|0,0:0|0:0,0:0:0:0:
222,138,59162,1,2,0:0:0:0:
13,245,59396,2,0,L|122:241,1,110,0|8,0:0|0:0,0:0:0:0:
421,275,59865,6,0,P|453:232|375:110,1,220,0|2,3:0|2:1,0:0:0:0:
167,291,60568,2,0,L|163:179,1,110,8|0,0:0|0:0,0:0:0:0:
273,100,61037,1,2,0:0:0:0:
163,97,61271,1,0,0:0:0:0:
53,94,61505,1,8,0:0:0:0:
351,336,61740,6,0,P|403:314|358:191,1,220,0|2,0:0|2:1,0:0:0:0:
149,174,62443,2,0,L|145:62,1,110,8|0,0:0|0:0,0:0:0:0:
355,32,62912,2,0,L|188:37,2,165,2|0|4,0:0|0:0|0:0,0:0:0:0:
57,307,63850,6,0,P|24:269|102:149,1,220,0|8,0:0|0:0,0:0:0:0:
211,146,64553,1,0,0:0:0:0:
420,279,64787,2,0,L|424:170,1,110,2|0,0:0|0:0,0:0:0:0:
368,166,65139,1,0,0:0:0:0:
313,162,65256,1,8,0:0:0:0:
16,314,65490,6,0,L|12:205,1,110,0|2,0:0|0:0,0:0:0:0:
122,174,65959,1,2,2:1:0:0:
331,86,66193,2,0,L|222:82,2,110,8|0|2,0:0|0:0|0:0,0:0:0:0:
121,281,66896,2,0,L|124:167,1,110,0|8,0:0|0:0,0:0:0:0:
422,149,67365,1,0,0:0:0:0:
477,152,67482,1,0,0:0:0:0:
422,149,67600,5,2,3:0:0:0:
213,211,67834,1,2,3:0:0:0:
171,179,67951,1,2,3:0:0:0:
170,126,68068,1,2,3:0:0:0:
211,92,68185,1,2,3:0:0:0:
320,77,68420,2,0,L|375:75,1,55,2|2,3:0|3:0,0:0:0:0:
177,185,68771,1,2,3:0:0:0:
376,198,69006,1,2,3:0:0:0:
431,201,69123,1,2,3:0:0:0:
376,198,69241,1,2,3:0:0:0:
79,281,69475,5,4,0:0:0:0:
256,192,69709,12,0,71115,0:0:0:0:
