osu file format v14

[General]
AudioFilename: audio.mp3
AudioLeadIn: 0
PreviewTime: 41291
Countdown: 0
SampleSet: Soft
StackLeniency: 0.7
Mode: 2
LetterboxInBreaks: 0
WidescreenStoryboard: 1

[Editor]
DistanceSpacing: 1
BeatDivisor: 4
GridSize: 32
TimelineZoom: 2.4

[Metadata]
Title:RIDE ON TIME (REDALiCE's CITY POP SHARK Remix)
TitleUnicode:RIDE ON TIME (REDALiCE's CITY POP SHARK Remix)
Artist:Gawr Gura
ArtistUnicode:Gawr Gura
Creator:Nelly
Version:Atlantis
Source:
Tags:japanese electronic pop jpop j-pop Yamashita Tatsuro 山下達郎 hololive EN vtuber holomyth がうる ぐら a
BeatmapID:2803884
BeatmapSetID:1354675

[Difficulty]
HPDrainRate:6
CircleSize:3.6
OverallDifficulty:8.4
ApproachRate:8.4
SliderMultiplier:2.4
SliderTickRate:2

[Events]
//Background and Video events
0,0,"gura.jpg",0,0
//Break Periods
//Storyboard Layer 0 (Background)
//Storyboard Layer 1 (Fail)
//Storyboard Layer 2 (Pass)
//Storyboard Layer 3 (Foreground)
//Storyboard Layer 4 (Overlay)
//Storyboard Sound Samples

[TimingPoints]
100,468.75,4,2,1,40,1,0
1975,-100,4,2,1,70,0,0
31975,-100,4,2,2,70,0,0
39475,-100,4,2,1,70,0,0
41350,-100,4,2,3,80,0,1
43459,-100,4,2,3,60,0,1
43693,-100,4,2,3,80,0,1
49084,-100,4,2,3,60,0,1
49318,-100,4,2,3,80,0,1
50959,-100,4,2,3,60,0,1
51193,-100,4,2,3,80,0,1
54240,-100,4,2,3,80,0,0
54943,-100,4,2,1,80,0,0
56350,-100,4,2,3,80,0,1
58459,-100,4,2,3,60,0,1
58693,-100,4,2,3,80,0,1
60334,-100,4,2,3,60,0,1
60568,-100,4,2,3,80,0,1
62209,-100,4,2,3,60,0,1
62443,-100,4,2,3,80,0,1
65959,-100,4,2,3,60,0,1
66193,-100,4,2,3,80,0,1
69475,-100,4,2,3,80,0,0
69592,-100,4,2,3,60,0,0

[Colours]
Combo1 : 215,215,215
Combo2 : 121,219,240
Combo3 : 45,182,234

[HitObjects]
146,346,100,5,8,0:0:0:0:
123,291,217,1,8,0:0:0:0:
144,237,334,1,8,0:0:0:0:
197,213,451,1,8,0:0:0:0:
329,199,568,1,8,0:0:0:0:
351,144,685,1,8,0:0:0:0:
330,90,802,1,8,0:0:0:0:
277,66,919,1,8,0:0:0:0:
144,65,1037,5,8,0:0:0:0:
96,66,1154,1,8,0:0:0:0:
144,65,1271,1,8,0:0:0:0:
223,63,1389,1,8,0:0:0:0:
355,169,1506,2,0,L|360:109,1,60,8|8,0:0|0:0,0:0:0:0:
228,221,1740,2,0,L|223:161,1,60,8|8,0:0|0:0,0:0:0:0:
441,301,1975,6,0,P|461:252|442:189,1,120,6|0,0:0|0:0,0:0:0:0:
383,182,2326,1,0,0:0:0:0:
323,174,2443,1,2,0:0:0:0:
203,232,2678,1,0,0:0:0:0:
150,206,2795,1,0,0:0:0:0:
128,152,2912,1,2,0:0:0:0:
151,98,3029,1,0,0:0:0:0:
204,74,3146,1,2,2:1:0:0:
397,73,3381,1,2,0:0:0:0:
86,291,3615,6,0,L|81:166,1,120,0|2,0:0|0:0,0:0:0:0:
201,150,4084,1,0,0:0:0:0:
393,213,4318,2,0,L|398:88,1,120,2|0,0:0|0:0,0:0:0:0:
205,71,4787,1,2,0:0:0:0:
85,229,5021,2,0,L|80:104,1,120,0|2,0:0|0:0,0:0:0:0:
205,71,5490,1,0,0:0:0:0:
397,65,5725,5,2,0:0:0:0:
205,167,5959,1,8,0:0:0:0:
145,163,6076,1,8,0:0:0:0:
277,282,6193,1,10,0:0:0:0:
327,251,6310,1,0,0:0:0:0:
347,196,6427,1,0,0:0:0:0:
328,141,6544,1,0,0:0:0:0:
278,110,6661,1,2,0:0:0:0:
158,101,6896,1,0,0:0:0:0:
350,50,7131,1,2,0:0:0:0:
39,302,7365,6,0,L|34:177,1,120,0|2,0:0|0:0,0:0:0:0:
159,144,7834,1,0,0:0:0:0:
351,123,8068,2,0,L|471:118,1,120,2|0,0:0|0:0,0:0:0:0:
278,260,8537,2,0,L|158:255,2,120,2|0|2,0:0|0:0|0:0,0:0:0:0:
470,239,9240,1,0,0:0:0:0:
157,50,9475,6,0,L|151:169,1,120,2|2,0:0|2:1,0:0:0:0:
271,345,9943,1,2,0:0:0:0:
293,290,10060,1,0,0:0:0:0:
282,231,10177,1,0,0:0:0:0:
243,187,10294,1,0,0:0:0:0:
186,171,10411,1,2,0:0:0:0:
66,75,10646,2,0,L|185:69,1,120,0|2,0:0|0:0,0:0:0:0:
498,291,11115,6,0,L|503:166,1,120,0|2,0:0|0:0,0:0:0:0:
378,133,11584,1,0,0:0:0:0:
186,128,11818,1,2,0:0:0:0:
379,224,12053,2,0,L|259:219,1,120,0|2,0:0|0:0,0:0:0:0:
139,351,12521,2,0,L|134:226,1,120,0|2,0:0|0:0,0:0:0:0:
447,151,12990,5,0,0:0:0:0:
254,158,13225,1,2,0:0:0:0:
447,151,13459,1,2,0:0:0:0:
134,331,13693,2,0,P|107:223|202:163,1,240,6|2,0:0|0:0,0:0:0:0:
395,163,14396,2,0,L|400:43,1,120,0|2,0:0|0:0,0:0:0:0:
87,320,14865,6,0,L|82:195,1,120,0|2,0:0|0:0,0:0:0:0:
207,162,15334,1,0,0:0:0:0:
399,278,15568,2,0,L|280:274,1,120,2|0,0:0|0:0,0:0:0:0:
87,218,16037,1,2,0:0:0:0:
279,119,16271,2,0,L|399:114,1,120,0|2,0:0|0:0,0:0:0:0:
86,328,16740,6,0,P|48:284|142:163,1,240,0|0,0:0|0:0,0:0:0:0:
331,241,17443,2,0,L|336:120,1,120,2|0,0:0|0:0,0:0:0:0:
263,112,17795,1,0,0:0:0:0:
155,108,17912,1,2,0:0:0:0:
347,41,18146,2,0,L|467:38,1,120,0|2,0:0|0:0,0:0:0:0:
479,154,18615,1,0,0:0:0:0:
166,228,18850,6,0,L|46:225,1,120,2|0,0:0|0:0,0:0:0:0:
238,323,19318,2,0,L|358:320,1,120,2|0,0:0|0:0,0:0:0:0:
165,339,19787,1,2,2:1:0:0:
107,327,19904,1,2,2:1:0:0:
74,279,20021,1,2,2:1:0:0:
83,221,20138,1,2,2:1:0:0:
130,185,20255,1,2,2:1:0:0:
443,169,20490,5,6,0:0:0:0:
251,163,20725,2,0,L|246:38,1,120,2|0,0:0|0:0,0:0:0:0:
438,288,21193,2,0,L|443:163,1,120,2|0,0:0|0:0,0:0:0:0:
382,163,21545,1,0,0:0:0:0:
322,158,21662,1,2,0:0:0:0:
130,173,21896,1,2,2:1:0:0:
322,158,22131,1,2,0:0:0:0:
11,293,22365,6,0,L|6:168,1,120,0|2,0:0|0:0,0:0:0:0:
126,145,22834,1,0,0:0:0:0:
318,46,23068,2,0,L|193:41,1,120,2|0,0:0|0:0,0:0:0:0:
391,317,23537,2,0,L|396:192,1,120,2|0,0:0|0:0,0:0:0:0:
276,169,24006,1,2,0:0:0:0:
468,136,24240,1,0,0:0:0:0:
155,117,24475,5,2,0:0:0:0:
35,212,24709,1,8,0:0:0:0:
32,152,24826,1,8,0:0:0:0:
29,92,24943,1,10,0:0:0:0:
221,267,25178,1,0,0:0:0:0:
224,207,25295,1,0,0:0:0:0:
227,147,25412,1,2,0:0:0:0:
35,40,25646,2,0,L|157:36,1,120,0|2,0:0|0:0,0:0:0:0:
467,288,26115,6,0,P|485:246|376:117,1,240,0|0,0:0|0:0,0:0:0:0:
183,243,26818,2,0,L|180:124,1,120,2|0,0:0|0:0,0:0:0:0:
372,50,27287,2,0,L|251:47,2,120,2|0|2,0:0|0:0|0:0,0:0:0:0:
179,110,27990,1,0,0:0:0:0:
492,285,28225,6,0,L|495:166,1,120,2|2,0:0|2:1,0:0:0:0:
303,146,28693,1,2,0:0:0:0:
159,140,28928,1,0,0:0:0:0:
99,141,29045,1,0,0:0:0:0:
159,140,29162,1,2,0:0:0:0:
351,341,29396,2,0,L|354:222,1,120,0|2,0:0|0:0,0:0:0:0:
41,311,29865,6,0,P|5:273|92:145,1,240,0|0,0:0|0:0,0:0:0:0:
284,148,30568,1,2,0:0:0:0:
91,285,30803,2,0,L|88:166,1,120,0|2,0:0|0:0,0:0:0:0:
208,140,31271,1,0,0:0:0:0:
401,194,31506,2,0,L|404:75,1,120,2|4,0:0|0:0,0:0:0:0:
91,285,31975,6,0,P|63:240|93:183,1,120,8|8,0:0|0:0,0:0:0:0:
149,176,32326,1,8,0:0:0:0:
208,168,32443,1,8,0:0:0:0:
352,158,32678,1,0,0:0:0:0:
412,159,32795,1,0,0:0:0:0:
352,158,32912,1,8,0:0:0:0:
160,86,33146,1,8,0:0:0:0:
353,73,33381,1,8,0:0:0:0:
42,266,33615,1,8,0:0:0:0:
36,196,33732,1,8,0:0:0:0:
103,180,33850,5,8,0:0:0:0:
247,167,34084,1,8,0:0:0:0:
439,156,34318,2,0,L|443:35,1,120,8|0,0:0|0:0,0:0:0:0:
250,23,34787,1,8,0:0:0:0:
130,196,35021,2,0,L|126:75,1,120,8|8,0:0|0:0,0:0:0:0:
439,268,35490,6,0,L|317:263,1,120,8|8,0:0|0:0,0:0:0:0:
187,256,35959,1,8,0:0:0:0:
379,182,36193,2,0,L|383:61,1,120,8|8,0:0|0:0,0:0:0:0:
190,60,36662,1,8,0:0:0:0:
382,39,36896,2,0,L|502:43,2,120,8|8|8,0:0|0:0|0:0,0:0:0:0:
68,315,37600,5,8,0:0:0:0:
40,249,37717,1,8,0:0:0:0:
66,184,37834,1,8,0:0:0:0:
138,164,37951,1,8,0:0:0:0:
270,199,38068,1,8,0:0:0:0:
274,128,38185,1,8,0:0:0:0:
233,71,38302,1,8,0:0:0:0:
162,51,38419,1,8,0:0:0:0:
295,289,38537,5,8,0:0:0:0:
366,269,38654,1,8,0:0:0:0:
407,212,38771,1,8,0:0:0:0:
403,141,38888,1,8,0:0:0:0:
270,113,39006,2,0,L|208:111,1,60,8|8,0:0|0:0,0:0:0:0:
306,30,39240,2,0,L|368:28,1,60,8|8,0:0|0:0,0:0:0:0:
112,324,39475,5,10,0:0:0:0:
89,269,39592,1,8,0:0:0:0:
110,215,39709,1,8,0:0:0:0:
163,191,39826,1,8,0:0:0:0:
295,182,39943,1,8,0:0:0:0:
301,112,40060,1,8,0:0:0:0:
228,95,40178,1,8,0:0:0:0:
420,48,40412,5,0,3:0:0:0:
454,53,40471,1,0,3:0:0:0:
420,48,40529,1,0,3:0:0:0:
288,52,40646,1,0,3:0:0:0:
481,268,40881,1,0,3:0:0:0:
483,208,40998,1,0,3:0:0:0:
486,148,41115,1,2,0:0:0:0:
101,273,41350,6,0,P|79:232|152:136,1,180,6|0,0:0|0:0,0:0:0:0:
221,130,41818,2,0,L|341:125,1,120,8|0,0:0|0:0,0:0:0:0:
148,34,42287,2,0,L|28:29,2,120,2|0|8,0:0|0:0|0:0,0:0:0:0:
461,283,42990,6,0,L|465:164,1,120,0|2,0:0|0:0,0:0:0:0:
273,127,43459,2,0,L|244:127,4,30,2|2|2|2|8,2:1|2:1|2:1|2:1|0:0,0:0:0:0:
371,140,43928,1,0,0:0:0:0:
179,263,44162,1,2,0:0:0:0:
59,244,44396,2,0,L|55:125,1,120,0|8,0:0|0:0,0:0:0:0:
368,92,44865,1,0,0:0:0:0:
488,305,45100,6,0,P|501:258|419:170,1,180,2|0,0:0|0:0,0:0:0:0:
348,163,45568,2,0,L|227:160,1,120,8|0,0:0|0:0,0:0:0:0:
108,308,46037,2,0,L|229:305,1,120,2|0,0:0|0:0,0:0:0:0:
421,306,46506,1,8,0:0:0:0:
110,234,46740,6,0,P|68:201|141:68,1,240,0|0,0:0|0:0,0:0:0:0:
333,69,47443,2,0,L|452:72,1,120,8|0,0:0|0:0,0:0:0:0:
261,298,47912,2,0,L|256:177,1,120,2|0,0:0|0:0,0:0:0:0:
448,164,48381,1,8,0:0:0:0:
136,243,48615,6,0,L|131:122,1,120,4|2,0:0|0:0,0:0:0:0:
324,74,49084,1,2,2:1:0:0:
351,83,49142,1,2,2:1:0:0:
363,110,49201,1,2,2:1:0:0:
353,137,49259,1,2,2:1:0:0:
326,148,49318,1,8,0:0:0:0:
226,87,49553,1,0,0:0:0:0:
418,289,49787,2,0,L|423:168,1,120,2|0,0:0|0:0,0:0:0:0:
362,163,50139,1,0,0:0:0:0:
422,144,50256,1,8,0:0:0:0:
111,274,50490,6,0,L|106:153,1,120,0|2,0:0|0:0,0:0:0:0:
298,90,50959,2,0,L|327:89,4,30,2|2|2|2|8,2:1|2:1|2:1|2:1|0:0,0:0:0:0:
128,109,51428,1,0,0:0:0:0:
320,319,51662,2,0,P|348:274|318:217,1,120,2|0,0:0|0:0,0:0:0:0:
262,210,52013,1,0,0:0:0:0:
203,202,52130,1,8,0:0:0:0:
71,181,52365,1,0,0:0:0:0:
65,121,52482,1,0,0:0:0:0:
283,75,52600,5,2,3:0:0:0:
403,277,52834,1,2,3:0:0:0:
417,220,52951,1,2,3:0:0:0:
390,168,53068,1,2,3:0:0:0:
319,155,53185,1,2,3:0:0:0:
127,147,53420,1,2,3:0:0:0:
121,87,53537,1,2,3:0:0:0:
313,51,53771,1,2,3:0:0:0:
121,42,54006,1,2,3:0:0:0:
432,292,54240,6,0,L|437:171,1,120,6|0,0:0|0:0,0:0:0:0:
364,163,54592,1,0,0:0:0:0:
148,202,54709,2,0,L|143:81,1,120,6|8,0:0|0:0,0:0:0:0:
456,49,55178,1,6,0:0:0:0:
169,284,55646,5,2,0:0:0:0:
361,268,55881,1,0,3:0:0:0:
362,238,55939,1,0,3:0:0:0:
364,208,55998,1,0,3:0:0:0:
292,201,56115,1,0,3:0:0:0:
364,184,56232,1,0,3:0:0:0:
146,260,56350,6,0,P|120:239|169:126,1,180,2|0,0:0|0:0,0:0:0:0:
238,63,56818,2,0,L|119:59,1,120,12|0,0:0|0:0,0:0:0:0:
311,220,57287,1,2,0:0:0:0:
431,206,57521,2,0,L|434:87,1,120,0|8,0:0|0:0,0:0:0:0:
121,274,57990,6,0,L|118:155,1,120,0|2,0:0|0:0,0:0:0:0:
310,78,58459,2,0,L|339:77,4,30,2|2|2|2|8,2:1|2:1|2:1|2:1|0:0,0:0:0:0:
212,83,58928,1,0,0:0:0:0:
404,218,59162,2,0,L|279:214,1,120,2|0,0:0|0:0,0:0:0:0:
140,210,59631,1,8,0:0:0:0:
451,324,59865,5,0,3:0:0:0:
452,264,59982,1,0,3:0:0:0:
454,204,60099,1,2,0:0:0:0:
262,106,60334,2,0,L|233:106,4,30,2|2|2|2|8,2:1|2:1|2:1|2:1|0:0,0:0:0:0:
360,111,60803,1,0,0:0:0:0:
168,212,61037,1,2,0:0:0:0:
48,202,61271,1,0,0:0:0:0:
47,142,61388,1,0,0:0:0:0:
45,82,61505,1,8,0:0:0:0:
358,37,61740,6,0,L|237:35,1,120,0|2,0:0|0:0,0:0:0:0:
430,183,62209,1,2,2:1:0:0:
457,172,62268,1,2,2:1:0:0:
467,145,62326,1,2,2:1:0:0:
455,118,62385,1,2,2:1:0:0:
428,109,62443,1,8,0:0:0:0:
332,188,62678,1,0,0:0:0:0:
140,197,62912,2,0,L|135:78,1,120,2|0,0:0|0:0,0:0:0:0:
208,66,63264,1,0,0:0:0:0:
340,53,63381,1,8,0:0:0:0:
29,329,63615,6,0,P|16:293|134:162,1,240,4|0,0:0|0:0,0:0:0:0:
325,210,64318,2,0,L|328:88,1,120,8|0,0:0|0:0,0:0:0:0:
208,72,64787,1,2,0:0:0:0:
400,45,65021,1,0,0:0:0:0:
460,46,65138,1,0,0:0:0:0:
400,45,65255,1,8,0:0:0:0:
87,300,65490,6,0,L|84:181,1,120,0|2,0:0|0:0,0:0:0:0:
276,104,65959,1,2,2:1:0:0:
303,113,66017,1,2,2:1:0:0:
315,140,66076,1,2,2:1:0:0:
305,167,66134,1,2,2:1:0:0:
278,178,66193,1,8,0:0:0:0:
106,126,66428,1,0,0:0:0:0:
298,329,66662,2,0,L|301:210,1,120,2|0,0:0|0:0,0:0:0:0:
109,191,67131,1,8,0:0:0:0:
420,111,67365,5,0,0:0:0:0:
480,112,67482,1,0,0:0:0:0:
420,111,67599,1,2,3:0:0:0:
228,267,67834,2,0,L|224:206,1,60,2|2,3:0|3:0,0:0:0:0:
320,178,68068,2,0,L|324:117,1,60,2|2,3:0|3:0,0:0:0:0:
132,126,68420,2,0,L|128:65,1,60,2|2,3:0|3:0,0:0:0:0:
320,31,68771,1,2,3:0:0:0:
128,343,69006,5,2,3:0:0:0:
100,277,69123,1,2,3:0:0:0:
126,212,69240,1,2,3:0:0:0:
198,192,69357,1,2,3:0:0:0:
416,193,69475,5,4,0:0:0:0:
256,192,69709,12,0,71115,0:0:0:0:
