osu file format v14

[General]
AudioFilename: audio.mp3
AudioLeadIn: 0
PreviewTime: 108314
Countdown: 0
SampleSet: Normal
StackLeniency: 0.7
Mode: 1
LetterboxInBreaks: 0
WidescreenStoryboard: 0

[Editor]
Bookmarks: 75314,171314,176961,182608
DistanceSpacing: 0.5
BeatDivisor: 4
GridSize: 32
TimelineZoom: 2.2

[Metadata]
Title:REFLECT (Assertive Hardcore Bootleg)
TitleUnicode:REFLECT (Assertive Hardcore Bootleg)
Artist:Gawr Gura
ArtistUnicode:Gawr Gura
Creator:Ph0eNiiXZ
Version:Ron's Inner Oni
Source:
Tags:phoenix phoeniixz [R] ron xtrem3x Maimaing Dtnt0r dtn japanese electronic pop j-core jcore j-pop jpop Hardcore Farhan Sarasin Neko Hacker Assertive bootleg remix がうる ぐら vtuber virtual youtuber holoen hololive english EN hololiveEN cover
BeatmapID:3245983
BeatmapSetID:1587010

[Difficulty]
HPDrainRate:5.5
CircleSize:2
OverallDifficulty:6
ApproachRate:10
SliderMultiplier:1.4
SliderTickRate:1

[Events]
//Background and Video events
0,0,"Reflect.jpg",0,50
//Break Periods
//Storyboard Layer 0 (Background)
//Storyboard Layer 1 (Fail)
//Storyboard Layer 2 (Pass)
//Storyboard Layer 3 (Foreground)
//Storyboard Layer 4 (Overlay)
//Storyboard Sound Samples

[TimingPoints]
491,352.941176470588,4,1,0,30,1,0
491,-666.666666666667,4,1,0,30,0,0
1902,-500,4,1,0,30,0,0
3314,-400,4,1,0,30,0,0
4726,-333.333333333336,4,1,0,30,0,0
6138,-285.714285714286,4,1,0,30,0,0
7373,-100,4,1,0,70,0,0
18667,-100,4,1,0,85,0,0
29961,-100,4,1,0,55,0,0
35608,-100,4,1,0,85,0,0
41255,-100,4,1,0,100,0,0
41432,-100,4,1,0,100,0,1
51314,-100,4,1,0,100,0,0
51446,-100,4,1,0,85,0,0
52549,-100,4,1,0,100,0,0
53079,-100,4,1,0,100,0,1
63843,-100,4,1,0,55,0,1
64020,-100,4,1,0,55,0,0
69432,-100,4,1,0,85,0,0
85843,-100,4,1,0,50,0,0
86432,-100,4,1,0,100,0,0
97726,-100,4,1,0,55,0,0
103196,-100,4,1,0,85,0,0
108314,-100,4,1,0,100,0,0
109196,-100,4,1,0,100,0,1
119079,-100,4,1,0,100,0,0
119211,-100,4,1,0,85,0,0
120314,-100,4,1,0,100,0,0
120843,-100,4,1,0,100,0,1
131608,-100,4,1,0,55,0,1
131785,-100,4,1,0,55,0,0
137255,-100,4,1,0,85,0,0
142549,-100,4,1,0,100,0,0
143079,-100,4,1,0,100,0,1
152961,-100,4,1,0,100,0,0
153093,-100,4,1,0,85,0,0
154196,-100,4,1,0,100,0,0
154726,-100,4,1,0,100,0,1
164388,-100,4,1,0,85,0,1
165490,-100,4,1,0,100,0,1
165667,-100,4,1,0,100,0,0

[HitObjects]
256,192,7549,5,4,0:0:0:0:
256,192,7726,1,8,0:0:0:0:
256,192,7902,1,0,0:0:0:0:
256,192,8079,1,8,0:0:0:0:
256,192,8167,1,0,0:0:0:0:
256,192,8432,1,0,0:0:0:0:
256,192,8520,1,0,0:0:0:0:
256,192,8608,1,8,0:0:0:0:
256,192,8785,1,8,0:0:0:0:
256,192,8961,1,0,0:0:0:0:
256,192,9138,1,8,0:0:0:0:
256,192,9314,1,0,0:0:0:0:
256,192,9490,1,8,0:0:0:0:
256,192,9579,1,8,0:0:0:0:
256,192,9667,1,0,0:0:0:0:
256,192,9843,1,0,0:0:0:0:
256,192,9902,1,0,0:0:0:0:
256,192,9961,1,0,0:0:0:0:
256,192,10020,1,8,0:0:0:0:
256,192,10196,1,8,0:0:0:0:
256,192,10373,1,0,0:0:0:0:
256,192,10549,1,8,0:0:0:0:
256,192,10726,1,0,0:0:0:0:
256,192,10902,1,8,0:0:0:0:
256,192,10990,1,8,0:0:0:0:
256,192,11079,1,0,0:0:0:0:
256,192,11167,1,0,0:0:0:0:
256,192,11255,1,8,0:0:0:0:
256,192,11432,1,8,0:0:0:0:
256,192,11520,1,8,0:0:0:0:
256,192,11608,1,8,0:0:0:0:
256,192,11785,1,0,0:0:0:0:
256,192,12049,1,8,0:0:0:0:
256,192,12138,1,8,0:0:0:0:
256,192,12314,1,0,0:0:0:0:
256,192,12579,1,0,0:0:0:0:
256,192,12667,1,0,0:0:0:0:
256,192,12843,1,8,0:0:0:0:
256,192,13196,1,0,0:0:0:0:
256,192,13373,1,0,0:0:0:0:
256,192,13549,1,8,0:0:0:0:
256,192,13726,1,8,0:0:0:0:
256,192,13814,1,0,0:0:0:0:
256,192,14079,1,0,0:0:0:0:
256,192,14255,1,8,0:0:0:0:
256,192,14343,1,0,0:0:0:0:
256,192,14608,1,0,0:0:0:0:
256,192,14785,1,0,0:0:0:0:
256,192,14961,1,8,0:0:0:0:
256,192,15138,1,8,0:0:0:0:
256,192,15226,1,0,0:0:0:0:
256,192,15314,1,8,0:0:0:0:
256,192,15490,1,0,0:0:0:0:
256,192,15667,1,8,0:0:0:0:
256,192,15755,1,0,0:0:0:0:
256,192,15843,1,8,0:0:0:0:
256,192,15932,1,8,0:0:0:0:
256,192,16020,1,0,0:0:0:0:
256,192,16196,1,0,0:0:0:0:
256,192,16373,1,8,0:0:0:0:
256,192,16549,1,0,0:0:0:0:
256,192,16638,1,0,0:0:0:0:
256,192,16726,1,0,0:0:0:0:
256,192,16902,1,0,0:0:0:0:
256,192,17079,1,8,0:0:0:0:
256,192,17255,1,0,0:0:0:0:
256,192,17314,1,0,0:0:0:0:
256,192,17373,1,0,0:0:0:0:
256,192,17432,1,8,0:0:0:0:
256,192,17608,1,8,0:0:0:0:
256,192,17696,1,0,0:0:0:0:
256,192,17873,1,8,0:0:0:0:
256,192,17961,1,8,0:0:0:0:
256,192,18138,1,0,0:0:0:0:
256,192,18226,1,0,0:0:0:0:
256,192,18490,1,12,0:0:0:0:
256,192,18843,1,4,0:0:0:0:
256,192,19020,1,8,0:0:0:0:
256,192,19108,1,8,0:0:0:0:
256,192,19196,1,0,0:0:0:0:
256,192,19549,1,0,0:0:0:0:
256,192,19726,1,8,0:0:0:0:
256,192,19902,1,0,0:0:0:0:
256,192,20079,1,0,0:0:0:0:
256,192,20167,1,8,0:0:0:0:
256,192,20255,1,0,0:0:0:0:
256,192,20432,1,0,0:0:0:0:
256,192,20520,1,8,0:0:0:0:
256,192,20696,1,8,0:0:0:0:
256,192,20785,1,8,0:0:0:0:
256,192,20961,1,0,0:0:0:0:
256,192,21138,1,8,0:0:0:0:
256,192,21226,1,0,0:0:0:0:
256,192,21402,1,0,0:0:0:0:
256,192,21490,1,0,0:0:0:0:
256,192,21667,1,8,0:0:0:0:
256,192,21843,1,0,0:0:0:0:
256,192,21932,1,8,0:0:0:0:
256,192,22020,1,0,0:0:0:0:
256,192,22108,1,0,0:0:0:0:
256,192,22196,1,8,0:0:0:0:
256,192,22373,1,0,0:0:0:0:
256,192,22549,1,8,0:0:0:0:
256,192,22726,1,0,0:0:0:0:
256,192,22902,1,8,0:0:0:0:
256,192,22990,1,8,0:0:0:0:
256,192,23079,1,0,0:0:0:0:
256,192,23255,1,0,0:0:0:0:
256,192,23314,1,0,0:0:0:0:
256,192,23373,1,0,0:0:0:0:
256,192,23432,1,0,0:0:0:0:
256,192,23608,1,8,0:0:0:0:
256,192,23785,1,0,0:0:0:0:
256,192,23961,1,0,0:0:0:0:
256,192,24020,1,0,0:0:0:0:
256,192,24079,1,0,0:0:0:0:
256,192,24138,1,8,0:0:0:0:
256,192,24314,1,8,0:0:0:0:
256,192,24490,1,0,0:0:0:0:
256,192,24667,1,8,0:0:0:0:
256,192,24755,1,8,0:0:0:0:
256,192,24843,1,0,0:0:0:0:
256,192,25196,1,0,0:0:0:0:
256,192,25373,1,8,0:0:0:0:
256,192,25549,1,0,0:0:0:0:
256,192,25726,1,8,0:0:0:0:
256,192,25814,1,8,0:0:0:0:
256,192,25902,1,0,0:0:0:0:
256,192,26079,1,8,0:0:0:0:
256,192,26167,1,8,0:0:0:0:
256,192,26343,1,0,0:0:0:0:
256,192,26432,1,8,0:0:0:0:
256,192,26608,1,0,0:0:0:0:
256,192,26785,1,8,0:0:0:0:
256,192,26873,1,0,0:0:0:0:
256,192,27049,1,0,0:0:0:0:
256,192,27138,1,8,0:0:0:0:
256,192,27314,1,0,0:0:0:0:
256,192,27490,1,8,0:0:0:0:
256,192,27579,1,8,0:0:0:0:
256,192,27667,1,0,0:0:0:0:
256,192,27755,1,0,0:0:0:0:
256,192,27843,1,8,0:0:0:0:
256,192,28020,1,0,0:0:0:0:
256,192,28196,1,8,0:0:0:0:
256,192,28373,1,0,0:0:0:0:
256,192,28549,1,8,0:0:0:0:
256,192,28638,1,0,0:0:0:0:
256,192,28726,1,8,0:0:0:0:
256,192,28902,1,8,0:0:0:0:
256,192,28961,1,8,0:0:0:0:
256,192,29020,1,8,0:0:0:0:
256,192,29079,1,8,0:0:0:0:
256,192,29255,1,0,0:0:0:0:
256,192,29432,1,8,0:0:0:0:
256,192,29608,1,8,0:0:0:0:
256,192,29667,1,8,0:0:0:0:
256,192,29726,1,8,0:0:0:0:
256,192,29785,1,0,0:0:0:0:
256,192,29961,1,8,0:0:0:0:
256,192,30138,1,0,0:0:0:0:
256,192,30490,1,8,0:0:0:0:
256,192,30667,1,0,0:0:0:0:
256,192,30843,1,0,0:0:0:0:
256,192,30932,1,8,0:0:0:0:
256,192,31020,1,0,0:0:0:0:
256,192,31108,1,0,0:0:0:0:
256,192,31196,1,8,0:0:0:0:
256,192,31373,1,0,0:0:0:0:
256,192,31549,1,8,0:0:0:0:
256,192,31814,1,8,0:0:0:0:
256,192,31902,1,8,0:0:0:0:
256,192,32079,1,0,0:0:0:0:
256,192,32255,1,8,0:0:0:0:
256,192,32343,1,0,0:0:0:0:
256,192,32432,1,8,0:0:0:0:
256,192,32608,1,8,0:0:0:0:
256,192,32696,1,8,0:0:0:0:
256,192,32785,1,8,0:0:0:0:
256,192,32873,1,8,0:0:0:0:
256,192,32961,1,0,0:0:0:0:
256,192,33314,1,8,0:0:0:0:
256,192,33490,1,0,0:0:0:0:
256,192,33667,1,8,0:0:0:0:
256,192,33755,1,0,0:0:0:0:
256,192,33843,1,0,0:0:0:0:
256,192,33932,1,8,0:0:0:0:
256,192,34108,1,0,0:0:0:0:
256,192,34196,1,8,0:0:0:0:
256,192,34285,1,8,0:0:0:0:
256,192,34373,1,0,0:0:0:0:
256,192,34638,1,0,0:0:0:0:
256,192,34726,1,8,0:0:0:0:
256,192,34902,1,0,0:0:0:0:
256,192,35079,1,0,0:0:0:0:
256,192,35167,1,0,0:0:0:0:
256,192,35255,1,0,0:0:0:0:
256,192,35343,1,0,0:0:0:0:
256,192,35432,1,8,0:0:0:0:
256,192,35608,1,8,0:0:0:0:
256,192,35785,1,4,0:0:0:0:
256,192,36138,1,0,0:0:0:0:
256,192,36490,1,8,0:0:0:0:
256,192,36843,1,8,0:0:0:0:
256,192,37196,1,0,0:0:0:0:
256,192,37549,1,0,0:0:0:0:
256,192,37902,1,8,0:0:0:0:
256,192,38255,1,8,0:0:0:0:
256,192,38608,1,0,0:0:0:0:
256,192,38785,1,0,0:0:0:0:
256,192,38961,1,8,0:0:0:0:
256,192,39138,1,8,0:0:0:0:
256,192,39314,1,0,0:0:0:0:
256,192,39402,1,0,0:0:0:0:
256,192,39490,1,0,0:0:0:0:
256,192,39579,1,0,0:0:0:0:
256,192,39667,1,8,0:0:0:0:
256,192,39755,1,8,0:0:0:0:
256,192,39843,1,8,0:0:0:0:
256,192,39932,1,8,0:0:0:0:
256,192,40020,1,0,0:0:0:0:
256,192,40726,1,8,0:0:0:0:
256,192,40814,1,8,0:0:0:0:
256,192,40902,1,0,0:0:0:0:
256,192,41079,1,12,0:0:0:0:
256,192,41432,1,4,0:0:0:0:
256,192,41608,1,8,0:0:0:0:
256,192,41696,1,0,0:0:0:0:
256,192,41785,1,8,0:0:0:0:
256,192,41961,1,8,0:0:0:0:
256,192,42049,1,8,0:0:0:0:
256,192,42138,1,0,0:0:0:0:
256,192,42226,1,8,0:0:0:0:
256,192,42314,1,0,0:0:0:0:
256,192,42490,1,8,0:0:0:0:
256,192,42667,1,8,0:0:0:0:
256,192,42755,1,8,0:0:0:0:
256,192,42843,1,0,0:0:0:0:
256,192,43020,1,0,0:0:0:0:
256,192,43108,1,8,0:0:0:0:
256,192,43196,1,0,0:0:0:0:
256,192,43373,1,0,0:0:0:0:
256,192,43461,1,8,0:0:0:0:
256,192,43549,1,8,0:0:0:0:
256,192,43638,1,8,0:0:0:0:
256,192,43726,1,0,0:0:0:0:
256,192,43902,1,8,0:0:0:0:
256,192,44079,1,0,0:0:0:0:
256,192,44167,1,0,0:0:0:0:
256,192,44255,1,8,0:0:0:0:
256,192,44432,1,8,0:0:0:0:
256,192,44520,1,0,0:0:0:0:
256,192,44608,1,0,0:0:0:0:
256,192,44696,1,8,0:0:0:0:
256,192,44873,1,0,0:0:0:0:
256,192,44961,1,8,0:0:0:0:
256,192,45049,1,8,0:0:0:0:
256,192,45138,1,0,0:0:0:0:
256,192,45226,1,0,0:0:0:0:
256,192,45314,1,8,0:0:0:0:
256,192,45490,1,0,0:0:0:0:
256,192,45667,1,8,0:0:0:0:
256,192,46020,1,8,0:0:0:0:
256,192,46196,1,0,0:0:0:0:
256,192,46285,1,8,0:0:0:0:
256,192,46373,1,0,0:0:0:0:
256,192,46461,1,0,0:0:0:0:
256,192,46549,1,8,0:0:0:0:
256,192,46726,1,8,0:0:0:0:
256,192,46814,1,8,0:0:0:0:
256,192,46902,1,8,0:0:0:0:
256,192,47079,1,0,0:0:0:0:
256,192,47255,1,8,0:0:0:0:
256,192,47343,1,0,0:0:0:0:
256,192,47432,1,8,0:0:0:0:
256,192,47608,1,8,0:0:0:0:
256,192,47696,1,8,0:0:0:0:
256,192,47785,1,0,0:0:0:0:
256,192,47873,1,8,0:0:0:0:
256,192,47961,1,0,0:0:0:0:
256,192,48138,1,8,0:0:0:0:
256,192,48314,1,8,0:0:0:0:
256,192,48402,1,8,0:0:0:0:
256,192,48490,1,0,0:0:0:0:
256,192,48667,1,0,0:0:0:0:
256,192,48755,1,8,0:0:0:0:
256,192,48843,1,0,0:0:0:0:
256,192,49020,1,0,0:0:0:0:
256,192,49108,1,8,0:0:0:0:
256,192,49196,1,8,0:0:0:0:
256,192,49285,1,8,0:0:0:0:
256,192,49373,1,0,0:0:0:0:
256,192,49549,1,8,0:0:0:0:
256,192,49726,1,0,0:0:0:0:
256,192,49814,1,0,0:0:0:0:
256,192,49902,1,8,0:0:0:0:
256,192,50079,1,8,0:0:0:0:
256,192,50167,1,8,0:0:0:0:
256,192,50255,1,0,0:0:0:0:
256,192,50343,1,8,0:0:0:0:
256,192,50520,1,8,0:0:0:0:
256,192,50608,1,0,0:0:0:0:
256,192,50696,1,0,0:0:0:0:
256,192,50785,1,8,0:0:0:0:
256,192,50873,1,0,0:0:0:0:
256,192,50961,1,8,0:0:0:0:
256,192,51138,1,8,0:0:0:0:
256,192,51314,1,0,0:0:0:0:
256,192,51579,1,8,0:0:0:0:
256,192,51755,1,0,0:0:0:0:
256,192,51843,1,8,0:0:0:0:
256,192,52108,1,8,0:0:0:0:
256,192,52196,1,0,0:0:0:0:
256,192,52373,1,12,0:0:0:0:
256,192,52726,1,0,0:0:0:0:
256,192,53079,1,12,0:0:0:0:
256,192,53255,1,0,0:0:0:0:
256,192,53343,1,8,0:0:0:0:
256,192,53432,1,0,0:0:0:0:
256,192,53608,1,8,0:0:0:0:
256,192,53696,1,0,0:0:0:0:
256,192,53873,1,0,0:0:0:0:
256,192,53961,1,0,0:0:0:0:
256,192,54049,1,0,0:0:0:0:
256,192,54138,1,8,0:0:0:0:
256,192,54314,1,0,0:0:0:0:
256,192,54490,1,8,0:0:0:0:
256,192,54667,1,0,0:0:0:0:
256,192,54755,1,0,0:0:0:0:
256,192,54843,1,8,0:0:0:0:
256,192,54932,1,8,0:0:0:0:
256,192,55020,1,0,0:0:0:0:
256,192,55196,1,8,0:0:0:0:
256,192,55373,1,8,0:0:0:0:
256,192,55461,1,8,0:0:0:0:
256,192,55549,1,0,0:0:0:0:
256,192,55726,1,8,0:0:0:0:
256,192,55902,1,0,0:0:0:0:
256,192,55990,1,0,0:0:0:0:
256,192,56079,1,8,0:0:0:0:
256,192,56255,1,8,0:0:0:0:
256,192,56343,1,8,0:0:0:0:
256,192,56432,1,0,0:0:0:0:
256,192,56520,1,8,0:0:0:0:
256,192,56696,1,8,0:0:0:0:
256,192,56785,1,0,0:0:0:0:
256,192,56961,1,8,0:0:0:0:
256,192,57138,1,0,0:0:0:0:
256,192,57226,1,0,0:0:0:0:
256,192,57314,1,8,0:0:0:0:
256,192,57402,1,0,0:0:0:0:
256,192,57490,1,8,0:0:0:0:
256,192,57579,1,8,0:0:0:0:
256,192,57667,1,0,0:0:0:0:
256,192,57843,1,8,0:0:0:0:
256,192,58020,1,8,0:0:0:0:
256,192,58108,1,8,0:0:0:0:
256,192,58196,1,8,0:0:0:0:
256,192,58373,1,0,0:0:0:0:
256,192,58549,1,8,0:0:0:0:
256,192,58638,1,0,0:0:0:0:
256,192,58726,1,8,0:0:0:0:
256,192,58902,1,8,0:0:0:0:
256,192,58990,1,8,0:0:0:0:
256,192,59079,1,0,0:0:0:0:
256,192,59167,1,8,0:0:0:0:
256,192,59255,1,0,0:0:0:0:
256,192,59432,1,8,0:0:0:0:
256,192,59608,1,8,0:0:0:0:
256,192,59696,1,8,0:0:0:0:
256,192,59785,1,0,0:0:0:0:
256,192,59961,1,0,0:0:0:0:
256,192,60049,1,8,0:0:0:0:
256,192,60138,1,0,0:0:0:0:
256,192,60314,1,0,0:0:0:0:
256,192,60402,1,8,0:0:0:0:
256,192,60490,1,8,0:0:0:0:
256,192,60579,1,8,0:0:0:0:
256,192,60667,1,0,0:0:0:0:
256,192,60843,1,8,0:0:0:0:
256,192,61020,1,0,0:0:0:0:
256,192,61108,1,0,0:0:0:0:
256,192,61196,1,8,0:0:0:0:
256,192,61373,1,8,0:0:0:0:
256,192,61461,1,0,0:0:0:0:
256,192,61549,1,0,0:0:0:0:
256,192,61638,1,8,0:0:0:0:
256,192,61814,1,0,0:0:0:0:
256,192,61902,1,8,0:0:0:0:
256,192,61990,1,8,0:0:0:0:
256,192,62079,1,0,0:0:0:0:
256,192,62167,1,0,0:0:0:0:
256,192,62255,1,8,0:0:0:0:
256,192,62432,1,8,0:0:0:0:
256,192,62520,1,8,0:0:0:0:
256,192,62608,1,0,0:0:0:0:
256,192,62873,1,8,0:0:0:0:
256,192,63138,1,8,0:0:0:0:
256,192,63314,1,0,0:0:0:0:
256,192,63402,1,8,0:0:0:0:
256,192,63490,1,0,0:0:0:0:
256,192,63667,1,12,0:0:0:0:
256,192,64020,1,4,0:0:0:0:
256,192,64373,1,8,0:0:0:0:
256,192,64549,1,0,0:0:0:0:
256,192,64638,1,8,0:0:0:0:
256,192,64814,1,8,0:0:0:0:
256,192,64902,1,0,0:0:0:0:
256,192,65167,1,8,0:0:0:0:
256,192,65343,1,8,0:0:0:0:
256,192,65432,1,0,0:0:0:0:
256,192,65785,1,8,0:0:0:0:
256,192,65961,1,0,0:0:0:0:
256,192,66138,1,8,0:0:0:0:
256,192,66226,1,8,0:0:0:0:
256,192,66314,1,8,0:0:0:0:
256,192,66490,1,0,0:0:0:0:
256,192,66843,1,4,0:0:0:0:
256,192,67196,1,8,0:0:0:0:
256,192,67373,1,0,0:0:0:0:
256,192,67461,1,8,0:0:0:0:
256,192,67638,1,8,0:0:0:0:
256,192,67726,1,0,0:0:0:0:
256,192,67990,1,8,0:0:0:0:
256,192,68079,1,0,0:0:0:0:
256,192,68167,1,8,0:0:0:0:
256,192,68255,1,8,0:0:0:0:
256,192,68608,1,8,0:0:0:0:
256,192,68785,1,0,0:0:0:0:
256,192,68961,1,0,0:0:0:0:
256,192,69049,1,8,0:0:0:0:
256,192,69138,1,8,0:0:0:0:
256,192,69314,1,8,0:0:0:0:
256,192,69667,1,0,0:0:0:0:
256,192,70020,1,0,0:0:0:0:
256,192,70373,1,8,0:0:0:0:
256,192,70549,1,0,0:0:0:0:
256,192,70638,1,0,0:0:0:0:
256,192,70726,1,8,0:0:0:0:
256,192,71079,1,0,0:0:0:0:
256,192,71432,1,0,0:0:0:0:
256,192,71785,1,8,0:0:0:0:
256,192,71961,1,8,0:0:0:0:
256,192,72049,1,0,0:0:0:0:
256,192,72138,1,8,0:0:0:0:
256,192,72490,1,0,0:0:0:0:
256,192,72667,1,0,0:0:0:0:
256,192,72843,1,8,0:0:0:0:
256,192,73020,1,8,0:0:0:0:
256,192,73196,1,0,0:0:0:0:
256,192,73373,1,0,0:0:0:0:
256,192,73549,1,8,0:0:0:0:
256,192,73726,1,8,0:0:0:0:
256,192,73902,1,0,0:0:0:0:
256,192,73990,1,0,0:0:0:0:
256,192,74079,1,0,0:0:0:0:
256,192,74167,1,0,0:0:0:0:
256,192,74255,1,8,0:0:0:0:
256,192,74343,1,8,0:0:0:0:
256,192,74432,1,8,0:0:0:0:
256,192,74520,1,8,0:0:0:0:
256,192,74608,1,0,0:0:0:0:
256,192,74696,1,8,0:0:0:0:
256,192,74785,1,0,0:0:0:0:
256,192,74961,1,12,0:0:0:0:
256,192,75314,1,0,0:0:0:0:
256,192,75432,1,8,0:0:0:0:
256,192,75549,1,8,0:0:0:0:
256,192,75667,1,0,0:0:0:0:
256,192,75785,1,0,0:0:0:0:
256,192,75902,1,8,0:0:0:0:
256,192,76020,1,0,0:0:0:0:
256,192,76138,1,0,0:0:0:0:
256,192,76255,1,8,0:0:0:0:
256,192,76373,1,0,0:0:0:0:
256,192,76490,1,0,0:0:0:0:
256,192,76608,1,8,0:0:0:0:
256,192,76726,1,8,0:0:0:0:
256,192,76843,1,0,0:0:0:0:
256,192,76961,1,8,0:0:0:0:
256,192,77079,1,0,0:0:0:0:
256,192,77196,1,0,0:0:0:0:
256,192,77314,1,8,0:0:0:0:
256,192,77432,1,0,0:0:0:0:
256,192,77785,1,0,0:0:0:0:
256,192,77902,1,8,0:0:0:0:
256,192,78020,1,8,0:0:0:0:
256,192,78138,1,0,0:0:0:0:
256,192,78255,1,0,0:0:0:0:
256,192,78373,1,8,0:0:0:0:
256,192,78490,1,0,0:0:0:0:
256,192,78608,1,8,0:0:0:0:
256,192,78726,1,8,0:0:0:0:
256,192,78843,1,0,0:0:0:0:
256,192,78961,1,0,0:0:0:0:
256,192,79079,1,8,0:0:0:0:
256,192,79196,1,0,0:0:0:0:
256,192,79314,1,0,0:0:0:0:
256,192,79432,1,0,0:0:0:0:
256,192,79549,1,8,0:0:0:0:
256,192,79667,1,0,0:0:0:0:
256,192,79785,1,0,0:0:0:0:
256,192,79902,1,8,0:0:0:0:
256,192,80020,1,8,0:0:0:0:
256,192,80138,1,0,0:0:0:0:
256,192,80255,1,8,0:0:0:0:
256,192,80608,1,12,0:0:0:0:
256,192,80961,1,0,0:0:0:0:
256,192,81079,1,0,0:0:0:0:
256,192,81196,1,8,0:0:0:0:
256,192,81314,1,0,0:0:0:0:
256,192,81432,1,0,0:0:0:0:
256,192,81549,1,8,0:0:0:0:
256,192,81667,1,0,0:0:0:0:
256,192,81785,1,8,0:0:0:0:
256,192,81902,1,8,0:0:0:0:
256,192,82020,1,0,0:0:0:0:
256,192,82138,1,0,0:0:0:0:
256,192,82255,1,8,0:0:0:0:
256,192,82373,1,0,0:0:0:0:
256,192,82490,1,8,0:0:0:0:
256,192,82608,1,8,0:0:0:0:
256,192,82726,1,0,0:0:0:0:
256,192,82843,1,0,0:0:0:0:
256,192,82961,1,8,0:0:0:0:
256,192,83079,1,0,0:0:0:0:
256,192,83432,1,8,0:0:0:0:
256,192,83549,1,8,0:0:0:0:
256,192,83667,1,0,0:0:0:0:
256,192,83785,1,8,0:0:0:0:
256,192,83902,1,8,0:0:0:0:
256,192,84020,1,0,0:0:0:0:
256,192,84138,1,8,0:0:0:0:
256,192,84255,1,8,0:0:0:0:
256,192,84373,1,0,0:0:0:0:
256,192,84490,1,8,0:0:0:0:
256,192,84608,1,0,0:0:0:0:
256,192,84726,1,0,0:0:0:0:
256,192,84843,1,8,0:0:0:0:
256,192,84961,1,8,0:0:0:0:
256,192,85079,1,8,0:0:0:0:
256,192,85196,1,0,0:0:0:0:
256,192,85549,1,8,0:0:0:0:
256,192,85667,1,8,0:0:0:0:
256,192,85785,1,0,0:0:0:0:
256,192,85902,1,8,0:0:0:0:
256,192,86255,1,0,0:0:0:0:
256,192,86432,1,8,0:0:0:0:
256,192,86490,1,8,0:0:0:0:
256,192,86549,1,8,0:0:0:0:
256,192,86608,1,0,0:0:0:0:
256,192,86961,1,8,0:0:0:0:
256,192,87079,1,0,0:0:0:0:
256,192,87196,1,0,0:0:0:0:
256,192,87314,1,8,0:0:0:0:
256,192,87432,1,0,0:0:0:0:
256,192,87549,1,0,0:0:0:0:
256,192,87667,1,8,0:0:0:0:
256,192,87785,1,8,0:0:0:0:
256,192,87902,1,0,0:0:0:0:
256,192,88020,1,8,0:0:0:0:
256,192,88138,1,8,0:0:0:0:
256,192,88255,1,0,0:0:0:0:
256,192,88373,1,0,0:0:0:0:
256,192,88490,1,8,0:0:0:0:
256,192,88608,1,8,0:0:0:0:
256,192,88726,1,0,0:0:0:0:
256,192,88843,1,8,0:0:0:0:
256,192,88961,1,8,0:0:0:0:
256,192,89079,1,0,0:0:0:0:
256,192,89432,1,0,0:0:0:0:
256,192,89549,1,8,0:0:0:0:
256,192,89667,1,8,0:0:0:0:
256,192,89785,1,0,0:0:0:0:
256,192,89902,1,0,0:0:0:0:
256,192,90020,1,8,0:0:0:0:
256,192,90138,1,0,0:0:0:0:
256,192,90255,1,8,0:0:0:0:
256,192,90373,1,8,0:0:0:0:
256,192,90490,1,0,0:0:0:0:
256,192,90608,1,0,0:0:0:0:
256,192,90726,1,8,0:0:0:0:
256,192,90843,1,4,0:0:0:0:
256,192,91196,1,4,0:0:0:0:
256,192,91549,1,4,0:0:0:0:
256,192,91902,1,12,0:0:0:0:
256,192,92255,1,0,0:0:0:0:
256,192,92373,1,8,0:0:0:0:
256,192,92490,1,8,0:0:0:0:
256,192,92608,1,0,0:0:0:0:
256,192,92726,1,0,0:0:0:0:
256,192,92843,1,8,0:0:0:0:
256,192,92961,1,0,0:0:0:0:
256,192,93079,1,8,0:0:0:0:
256,192,93196,1,8,0:0:0:0:
256,192,93314,1,0,0:0:0:0:
256,192,93432,1,0,0:0:0:0:
256,192,93549,1,8,0:0:0:0:
256,192,93667,1,8,0:0:0:0:
256,192,93785,1,0,0:0:0:0:
256,192,93902,1,8,0:0:0:0:
256,192,94020,1,0,0:0:0:0:
256,192,94138,1,0,0:0:0:0:
256,192,94255,1,8,0:0:0:0:
256,192,94373,1,0,0:0:0:0:
256,192,94490,1,0,0:0:0:0:
256,192,94608,1,8,0:0:0:0:
256,192,94726,1,8,0:0:0:0:
256,192,95079,1,8,0:0:0:0:
256,192,95196,1,8,0:0:0:0:
256,192,95314,1,0,0:0:0:0:
256,192,95432,1,8,0:0:0:0:
256,192,95549,1,8,0:0:0:0:
256,192,95667,1,0,0:0:0:0:
256,192,95785,1,8,0:0:0:0:
256,192,95902,1,0,0:0:0:0:
256,192,96020,1,0,0:0:0:0:
256,192,96138,1,8,0:0:0:0:
256,192,96255,1,0,0:0:0:0:
256,192,96373,1,0,0:0:0:0:
256,192,96490,1,8,0:0:0:0:
256,192,96843,1,8,0:0:0:0:
256,192,96961,1,8,0:0:0:0:
256,192,97079,1,8,0:0:0:0:
256,192,97196,1,0,0:0:0:0:
256,192,97549,1,12,0:0:0:0:
256,192,97902,1,4,0:0:0:0:
256,192,99314,1,8,0:0:0:0:
256,192,100020,1,8,0:0:0:0:
256,192,100373,1,8,0:0:0:0:
256,192,100726,1,0,0:0:0:0:
256,192,102138,1,8,0:0:0:0:
256,192,102843,1,8,0:0:0:0:
256,192,103549,1,4,0:0:0:0:
256,192,103902,1,0,0:0:0:0:
256,192,104255,1,8,0:0:0:0:
256,192,104608,1,8,0:0:0:0:
256,192,104961,1,0,0:0:0:0:
256,192,105314,1,0,0:0:0:0:
256,192,105667,1,8,0:0:0:0:
256,192,106020,1,8,0:0:0:0:
256,192,106373,1,0,0:0:0:0:
256,192,106549,1,0,0:0:0:0:
256,192,106726,1,8,0:0:0:0:
256,192,106902,1,8,0:0:0:0:
256,192,107079,1,0,0:0:0:0:
256,192,107167,1,0,0:0:0:0:
256,192,107255,1,0,0:0:0:0:
256,192,107343,1,0,0:0:0:0:
256,192,107432,1,8,0:0:0:0:
256,192,107520,1,8,0:0:0:0:
256,192,107608,1,8,0:0:0:0:
256,192,107696,1,8,0:0:0:0:
256,192,107785,1,0,0:0:0:0:
256,192,108490,1,8,0:0:0:0:
256,192,108579,1,8,0:0:0:0:
256,192,108667,1,0,0:0:0:0:
256,192,108843,1,12,0:0:0:0:
256,192,109196,1,4,0:0:0:0:
256,192,109373,1,8,0:0:0:0:
256,192,109461,1,0,0:0:0:0:
256,192,109549,1,8,0:0:0:0:
256,192,109726,1,8,0:0:0:0:
256,192,109814,1,8,0:0:0:0:
256,192,109902,1,0,0:0:0:0:
256,192,109990,1,8,0:0:0:0:
256,192,110079,1,0,0:0:0:0:
256,192,110255,1,8,0:0:0:0:
256,192,110432,1,8,0:0:0:0:
256,192,110520,1,8,0:0:0:0:
256,192,110608,1,0,0:0:0:0:
256,192,110785,1,0,0:0:0:0:
256,192,110873,1,8,0:0:0:0:
256,192,110961,1,0,0:0:0:0:
256,192,111138,1,0,0:0:0:0:
256,192,111226,1,8,0:0:0:0:
256,192,111314,1,8,0:0:0:0:
256,192,111402,1,8,0:0:0:0:
256,192,111490,1,0,0:0:0:0:
256,192,111667,1,8,0:0:0:0:
256,192,111843,1,0,0:0:0:0:
256,192,111932,1,0,0:0:0:0:
256,192,112020,1,8,0:0:0:0:
256,192,112196,1,8,0:0:0:0:
256,192,112285,1,0,0:0:0:0:
256,192,112373,1,0,0:0:0:0:
256,192,112461,1,8,0:0:0:0:
256,192,112638,1,0,0:0:0:0:
256,192,112726,1,8,0:0:0:0:
256,192,112814,1,8,0:0:0:0:
256,192,112902,1,0,0:0:0:0:
256,192,112990,1,0,0:0:0:0:
256,192,113079,1,8,0:0:0:0:
256,192,113255,1,0,0:0:0:0:
256,192,113432,1,8,0:0:0:0:
256,192,113785,1,8,0:0:0:0:
256,192,113961,1,0,0:0:0:0:
256,192,114049,1,8,0:0:0:0:
256,192,114138,1,0,0:0:0:0:
256,192,114226,1,0,0:0:0:0:
256,192,114314,1,8,0:0:0:0:
256,192,114490,1,8,0:0:0:0:
256,192,114579,1,8,0:0:0:0:
256,192,114667,1,8,0:0:0:0:
256,192,114843,1,0,0:0:0:0:
256,192,115020,1,8,0:0:0:0:
256,192,115108,1,0,0:0:0:0:
256,192,115196,1,8,0:0:0:0:
256,192,115373,1,8,0:0:0:0:
256,192,115461,1,8,0:0:0:0:
256,192,115549,1,0,0:0:0:0:
256,192,115638,1,8,0:0:0:0:
256,192,115726,1,0,0:0:0:0:
256,192,115902,1,8,0:0:0:0:
256,192,116079,1,8,0:0:0:0:
256,192,116167,1,8,0:0:0:0:
256,192,116255,1,0,0:0:0:0:
256,192,116432,1,0,0:0:0:0:
256,192,116520,1,8,0:0:0:0:
256,192,116608,1,0,0:0:0:0:
256,192,116785,1,0,0:0:0:0:
256,192,116873,1,8,0:0:0:0:
256,192,116961,1,8,0:0:0:0:
256,192,117049,1,8,0:0:0:0:
256,192,117138,1,0,0:0:0:0:
256,192,117314,1,8,0:0:0:0:
256,192,117490,1,0,0:0:0:0:
256,192,117579,1,0,0:0:0:0:
256,192,117667,1,8,0:0:0:0:
256,192,117843,1,8,0:0:0:0:
256,192,117932,1,8,0:0:0:0:
256,192,118020,1,0,0:0:0:0:
256,192,118108,1,8,0:0:0:0:
256,192,118285,1,8,0:0:0:0:
256,192,118373,1,0,0:0:0:0:
256,192,118461,1,0,0:0:0:0:
256,192,118549,1,8,0:0:0:0:
256,192,118638,1,0,0:0:0:0:
256,192,118726,1,8,0:0:0:0:
256,192,118902,1,8,0:0:0:0:
256,192,119079,1,0,0:0:0:0:
256,192,119343,1,8,0:0:0:0:
256,192,119520,1,0,0:0:0:0:
256,192,119608,1,8,0:0:0:0:
256,192,119873,1,8,0:0:0:0:
256,192,119961,1,0,0:0:0:0:
256,192,120138,1,12,0:0:0:0:
256,192,120490,1,0,0:0:0:0:
256,192,120843,1,12,0:0:0:0:
256,192,121020,1,0,0:0:0:0:
256,192,121108,1,8,0:0:0:0:
256,192,121196,1,0,0:0:0:0:
256,192,121373,1,8,0:0:0:0:
256,192,121461,1,0,0:0:0:0:
256,192,121638,1,0,0:0:0:0:
256,192,121726,1,0,0:0:0:0:
256,192,121814,1,0,0:0:0:0:
256,192,121902,1,8,0:0:0:0:
256,192,122079,1,0,0:0:0:0:
256,192,122255,1,8,0:0:0:0:
256,192,122432,1,0,0:0:0:0:
256,192,122520,1,0,0:0:0:0:
256,192,122608,1,8,0:0:0:0:
256,192,122696,1,8,0:0:0:0:
256,192,122785,1,0,0:0:0:0:
256,192,122961,1,8,0:0:0:0:
256,192,123138,1,8,0:0:0:0:
256,192,123226,1,8,0:0:0:0:
256,192,123314,1,0,0:0:0:0:
256,192,123490,1,8,0:0:0:0:
256,192,123667,1,0,0:0:0:0:
256,192,123755,1,0,0:0:0:0:
256,192,123843,1,8,0:0:0:0:
256,192,124020,1,8,0:0:0:0:
256,192,124108,1,8,0:0:0:0:
256,192,124196,1,0,0:0:0:0:
256,192,124285,1,8,0:0:0:0:
256,192,124461,1,8,0:0:0:0:
256,192,124549,1,0,0:0:0:0:
256,192,124726,1,8,0:0:0:0:
256,192,124902,1,0,0:0:0:0:
256,192,124990,1,0,0:0:0:0:
256,192,125079,1,8,0:0:0:0:
256,192,125167,1,0,0:0:0:0:
256,192,125255,1,8,0:0:0:0:
256,192,125343,1,8,0:0:0:0:
256,192,125432,1,0,0:0:0:0:
256,192,125608,1,8,0:0:0:0:
256,192,125785,1,8,0:0:0:0:
256,192,125873,1,8,0:0:0:0:
256,192,125961,1,8,0:0:0:0:
256,192,126138,1,0,0:0:0:0:
256,192,126314,1,8,0:0:0:0:
256,192,126402,1,0,0:0:0:0:
256,192,126490,1,8,0:0:0:0:
256,192,126667,1,8,0:0:0:0:
256,192,126755,1,8,0:0:0:0:
256,192,126843,1,0,0:0:0:0:
256,192,126932,1,8,0:0:0:0:
256,192,127020,1,0,0:0:0:0:
256,192,127196,1,8,0:0:0:0:
256,192,127373,1,8,0:0:0:0:
256,192,127461,1,8,0:0:0:0:
256,192,127549,1,0,0:0:0:0:
256,192,127726,1,0,0:0:0:0:
256,192,127814,1,8,0:0:0:0:
256,192,127902,1,0,0:0:0:0:
256,192,128079,1,0,0:0:0:0:
256,192,128167,1,8,0:0:0:0:
256,192,128255,1,8,0:0:0:0:
256,192,128343,1,8,0:0:0:0:
256,192,128432,1,0,0:0:0:0:
256,192,128608,1,8,0:0:0:0:
256,192,128785,1,0,0:0:0:0:
256,192,128873,1,0,0:0:0:0:
256,192,128961,1,8,0:0:0:0:
256,192,129138,1,8,0:0:0:0:
256,192,129226,1,0,0:0:0:0:
256,192,129314,1,0,0:0:0:0:
256,192,129402,1,8,0:0:0:0:
256,192,129579,1,0,0:0:0:0:
256,192,129667,1,8,0:0:0:0:
256,192,129755,1,8,0:0:0:0:
256,192,129843,1,0,0:0:0:0:
256,192,129932,1,0,0:0:0:0:
256,192,130020,1,8,0:0:0:0:
256,192,130196,1,8,0:0:0:0:
256,192,130285,1,8,0:0:0:0:
256,192,130373,1,0,0:0:0:0:
256,192,130638,1,8,0:0:0:0:
256,192,130902,1,8,0:0:0:0:
256,192,131079,1,0,0:0:0:0:
256,192,131167,1,8,0:0:0:0:
256,192,131255,1,0,0:0:0:0:
256,192,131432,1,12,0:0:0:0:
256,192,131785,1,4,0:0:0:0:
256,192,132138,1,8,0:0:0:0:
256,192,132314,1,0,0:0:0:0:
256,192,132402,1,8,0:0:0:0:
256,192,132579,1,8,0:0:0:0:
256,192,132667,1,0,0:0:0:0:
256,192,132932,1,8,0:0:0:0:
256,192,133108,1,8,0:0:0:0:
256,192,133196,1,0,0:0:0:0:
256,192,133549,1,8,0:0:0:0:
256,192,133726,1,0,0:0:0:0:
256,192,133902,1,8,0:0:0:0:
256,192,133990,1,8,0:0:0:0:
256,192,134079,1,8,0:0:0:0:
256,192,134255,1,0,0:0:0:0:
256,192,134608,1,4,0:0:0:0:
256,192,134961,1,8,0:0:0:0:
256,192,135138,1,0,0:0:0:0:
256,192,135226,1,8,0:0:0:0:
256,192,135402,1,8,0:0:0:0:
256,192,135490,1,0,0:0:0:0:
256,192,135755,1,8,0:0:0:0:
256,192,135843,1,0,0:0:0:0:
256,192,135932,1,8,0:0:0:0:
256,192,136020,1,8,0:0:0:0:
256,192,136373,1,8,0:0:0:0:
256,192,136549,1,0,0:0:0:0:
256,192,136726,1,0,0:0:0:0:
256,192,136814,1,8,0:0:0:0:
256,192,136902,1,8,0:0:0:0:
256,192,137079,1,8,0:0:0:0:
256,192,137432,1,4,0:0:0:0:
256,192,137785,1,8,0:0:0:0:
256,192,137961,1,0,0:0:0:0:
256,192,138049,1,8,0:0:0:0:
256,192,138226,1,8,0:0:0:0:
256,192,138314,1,0,0:0:0:0:
256,192,138490,1,8,0:0:0:0:
256,192,138579,1,8,0:0:0:0:
256,192,138667,1,8,0:0:0:0:
256,192,138843,1,4,0:0:0:0:
256,192,139196,1,8,0:0:0:0:
256,192,139373,1,0,0:0:0:0:
256,192,139461,1,0,0:0:0:0:
256,192,139549,1,8,0:0:0:0:
256,192,139638,1,8,0:0:0:0:
256,192,139726,1,0,0:0:0:0:
256,192,139902,1,8,0:0:0:0:
256,192,139990,1,8,0:0:0:0:
256,192,140079,1,8,0:0:0:0:
256,192,140255,1,4,0:0:0:0:
256,192,140608,1,8,0:0:0:0:
256,192,140785,1,0,0:0:0:0:
256,192,140961,1,8,0:0:0:0:
256,192,141049,1,8,0:0:0:0:
256,192,141138,1,0,0:0:0:0:
256,192,141314,1,8,0:0:0:0:
256,192,141402,1,0,0:0:0:0:
256,192,141490,1,0,0:0:0:0:
256,192,141667,1,8,0:0:0:0:
256,192,141755,1,8,0:0:0:0:
256,192,141843,1,0,0:0:0:0:
256,192,141932,1,0,0:0:0:0:
256,192,142020,1,8,0:0:0:0:
256,192,142108,1,8,0:0:0:0:
256,192,142196,1,8,0:0:0:0:
256,192,142726,1,12,0:0:0:0:
256,192,143079,1,4,0:0:0:0:
256,192,143255,1,8,0:0:0:0:
256,192,143343,1,0,0:0:0:0:
256,192,143432,1,8,0:0:0:0:
256,192,143608,1,8,0:0:0:0:
256,192,143696,1,8,0:0:0:0:
256,192,143785,1,0,0:0:0:0:
256,192,143873,1,8,0:0:0:0:
256,192,143961,1,0,0:0:0:0:
256,192,144138,1,8,0:0:0:0:
256,192,144314,1,8,0:0:0:0:
256,192,144402,1,8,0:0:0:0:
256,192,144490,1,0,0:0:0:0:
256,192,144667,1,0,0:0:0:0:
256,192,144755,1,8,0:0:0:0:
256,192,144843,1,0,0:0:0:0:
256,192,145020,1,0,0:0:0:0:
256,192,145108,1,8,0:0:0:0:
256,192,145196,1,8,0:0:0:0:
256,192,145285,1,8,0:0:0:0:
256,192,145373,1,0,0:0:0:0:
256,192,145549,1,8,0:0:0:0:
256,192,145726,1,0,0:0:0:0:
256,192,145814,1,0,0:0:0:0:
256,192,145902,1,8,0:0:0:0:
256,192,146079,1,8,0:0:0:0:
256,192,146167,1,0,0:0:0:0:
256,192,146255,1,0,0:0:0:0:
256,192,146343,1,8,0:0:0:0:
256,192,146520,1,0,0:0:0:0:
256,192,146608,1,8,0:0:0:0:
256,192,146696,1,8,0:0:0:0:
256,192,146785,1,0,0:0:0:0:
256,192,146873,1,0,0:0:0:0:
256,192,146961,1,8,0:0:0:0:
256,192,147138,1,0,0:0:0:0:
256,192,147314,1,8,0:0:0:0:
256,192,147667,1,8,0:0:0:0:
256,192,147843,1,0,0:0:0:0:
256,192,147932,1,8,0:0:0:0:
256,192,148020,1,0,0:0:0:0:
256,192,148108,1,0,0:0:0:0:
256,192,148196,1,8,0:0:0:0:
256,192,148373,1,8,0:0:0:0:
256,192,148461,1,8,0:0:0:0:
256,192,148549,1,8,0:0:0:0:
256,192,148726,1,0,0:0:0:0:
256,192,148902,1,8,0:0:0:0:
256,192,148990,1,0,0:0:0:0:
256,192,149079,1,8,0:0:0:0:
256,192,149255,1,8,0:0:0:0:
256,192,149343,1,8,0:0:0:0:
256,192,149432,1,0,0:0:0:0:
256,192,149520,1,8,0:0:0:0:
256,192,149608,1,0,0:0:0:0:
256,192,149785,1,8,0:0:0:0:
256,192,149961,1,8,0:0:0:0:
256,192,150049,1,8,0:0:0:0:
256,192,150138,1,0,0:0:0:0:
256,192,150314,1,0,0:0:0:0:
256,192,150402,1,8,0:0:0:0:
256,192,150490,1,0,0:0:0:0:
256,192,150667,1,0,0:0:0:0:
256,192,150755,1,8,0:0:0:0:
256,192,150843,1,8,0:0:0:0:
256,192,150932,1,8,0:0:0:0:
256,192,151020,1,0,0:0:0:0:
256,192,151196,1,8,0:0:0:0:
256,192,151373,1,0,0:0:0:0:
256,192,151461,1,0,0:0:0:0:
256,192,151549,1,8,0:0:0:0:
256,192,151726,1,8,0:0:0:0:
256,192,151814,1,8,0:0:0:0:
256,192,151902,1,0,0:0:0:0:
256,192,151990,1,8,0:0:0:0:
256,192,152167,1,8,0:0:0:0:
256,192,152255,1,0,0:0:0:0:
256,192,152343,1,0,0:0:0:0:
256,192,152432,1,8,0:0:0:0:
256,192,152520,1,0,0:0:0:0:
256,192,152608,1,8,0:0:0:0:
256,192,152785,1,8,0:0:0:0:
256,192,152961,1,0,0:0:0:0:
256,192,153226,1,8,0:0:0:0:
256,192,153402,1,0,0:0:0:0:
256,192,153490,1,8,0:0:0:0:
256,192,153755,1,8,0:0:0:0:
256,192,153843,1,0,0:0:0:0:
256,192,154020,1,12,0:0:0:0:
256,192,154373,1,0,0:0:0:0:
256,192,154726,1,12,0:0:0:0:
256,192,154902,1,0,0:0:0:0:
256,192,154990,1,8,0:0:0:0:
256,192,155079,1,0,0:0:0:0:
256,192,155255,1,8,0:0:0:0:
256,192,155343,1,0,0:0:0:0:
256,192,155520,1,0,0:0:0:0:
256,192,155608,1,0,0:0:0:0:
256,192,155696,1,0,0:0:0:0:
256,192,155785,1,8,0:0:0:0:
256,192,155961,1,0,0:0:0:0:
256,192,156138,1,8,0:0:0:0:
256,192,156314,1,0,0:0:0:0:
256,192,156402,1,0,0:0:0:0:
256,192,156490,1,8,0:0:0:0:
256,192,156579,1,8,0:0:0:0:
256,192,156667,1,0,0:0:0:0:
256,192,156843,1,8,0:0:0:0:
256,192,157020,1,8,0:0:0:0:
256,192,157108,1,8,0:0:0:0:
256,192,157196,1,0,0:0:0:0:
256,192,157373,1,8,0:0:0:0:
256,192,157549,1,0,0:0:0:0:
256,192,157638,1,0,0:0:0:0:
256,192,157726,1,8,0:0:0:0:
256,192,157902,1,8,0:0:0:0:
256,192,157990,1,8,0:0:0:0:
256,192,158079,1,0,0:0:0:0:
256,192,158167,1,8,0:0:0:0:
256,192,158343,1,8,0:0:0:0:
256,192,158432,1,0,0:0:0:0:
256,192,158608,1,8,0:0:0:0:
256,192,158785,1,0,0:0:0:0:
256,192,158873,1,0,0:0:0:0:
256,192,158961,1,8,0:0:0:0:
256,192,159049,1,0,0:0:0:0:
256,192,159138,1,8,0:0:0:0:
256,192,159226,1,8,0:0:0:0:
256,192,159314,1,0,0:0:0:0:
256,192,159490,1,8,0:0:0:0:
256,192,159667,1,8,0:0:0:0:
256,192,159755,1,8,0:0:0:0:
256,192,159843,1,8,0:0:0:0:
256,192,160020,1,0,0:0:0:0:
256,192,160196,1,8,0:0:0:0:
256,192,160285,1,0,0:0:0:0:
256,192,160373,1,8,0:0:0:0:
256,192,160549,1,8,0:0:0:0:
256,192,160638,1,8,0:0:0:0:
256,192,160726,1,0,0:0:0:0:
256,192,160814,1,8,0:0:0:0:
256,192,160902,1,0,0:0:0:0:
256,192,161079,1,8,0:0:0:0:
256,192,161255,1,8,0:0:0:0:
256,192,161343,1,8,0:0:0:0:
256,192,161432,1,0,0:0:0:0:
256,192,161608,1,0,0:0:0:0:
256,192,161696,1,8,0:0:0:0:
256,192,161785,1,0,0:0:0:0:
256,192,161961,1,0,0:0:0:0:
256,192,162049,1,8,0:0:0:0:
256,192,162138,1,8,0:0:0:0:
256,192,162226,1,8,0:0:0:0:
256,192,162314,1,0,0:0:0:0:
256,192,162490,1,8,0:0:0:0:
256,192,162667,1,0,0:0:0:0:
256,192,162755,1,0,0:0:0:0:
256,192,162843,1,8,0:0:0:0:
256,192,163020,1,8,0:0:0:0:
256,192,163108,1,0,0:0:0:0:
256,192,163196,1,0,0:0:0:0:
256,192,163285,1,8,0:0:0:0:
256,192,163461,1,0,0:0:0:0:
256,192,163549,1,8,0:0:0:0:
256,192,163638,1,8,0:0:0:0:
256,192,163726,1,0,0:0:0:0:
256,192,163814,1,0,0:0:0:0:
256,192,163902,1,8,0:0:0:0:
256,192,164079,1,8,0:0:0:0:
256,192,164167,1,8,0:0:0:0:
256,192,164255,1,0,0:0:0:0:
256,192,164520,1,8,0:0:0:0:
256,192,164785,1,8,0:0:0:0:
256,192,164961,1,0,0:0:0:0:
256,192,165049,1,8,0:0:0:0:
256,192,165138,1,0,0:0:0:0:
256,192,165314,1,12,0:0:0:0:
256,192,165667,1,4,0:0:0:0:
256,192,165843,1,8,0:0:0:0:
256,192,166020,1,0,0:0:0:0:
256,192,166196,1,8,0:0:0:0:
256,192,166285,1,0,0:0:0:0:
256,192,166549,1,0,0:0:0:0:
256,192,166638,1,0,0:0:0:0:
256,192,166726,1,8,0:0:0:0:
256,192,166902,1,8,0:0:0:0:
256,192,167079,1,0,0:0:0:0:
256,192,167255,1,8,0:0:0:0:
256,192,167432,1,0,0:0:0:0:
256,192,167608,1,8,0:0:0:0:
256,192,167696,1,8,0:0:0:0:
256,192,167785,1,0,0:0:0:0:
256,192,167961,1,0,0:0:0:0:
256,192,168020,1,0,0:0:0:0:
256,192,168079,1,0,0:0:0:0:
256,192,168138,1,8,0:0:0:0:
256,192,168314,1,8,0:0:0:0:
256,192,168490,1,0,0:0:0:0:
256,192,168667,1,8,0:0:0:0:
256,192,168843,1,0,0:0:0:0:
256,192,169020,1,8,0:0:0:0:
256,192,169108,1,8,0:0:0:0:
256,192,169196,1,0,0:0:0:0:
256,192,169373,1,8,0:0:0:0:
256,192,169549,1,8,0:0:0:0:
256,192,169638,1,8,0:0:0:0:
256,192,169726,1,8,0:0:0:0:
256,192,169902,1,0,0:0:0:0:
256,192,170167,1,0,0:0:0:0:
256,192,170432,1,8,0:0:0:0:
256,192,170696,1,0,0:0:0:0:
256,192,170785,1,0,0:0:0:0:
256,192,170873,1,0,0:0:0:0:
256,192,170961,1,8,0:0:0:0:
256,192,171314,1,0,0:0:0:0:
256,192,171490,1,8,0:0:0:0:
256,192,171667,1,0,0:0:0:0:
256,192,171843,1,8,0:0:0:0:
256,192,171932,1,0,0:0:0:0:
256,192,172020,1,0,0:0:0:0:
256,192,172196,1,0,0:0:0:0:
256,192,172285,1,8,0:0:0:0:
256,192,172373,1,0,0:0:0:0:
256,192,172549,1,8,0:0:0:0:
256,192,172726,1,0,0:0:0:0:
256,192,172902,1,8,0:0:0:0:
256,192,173079,1,0,0:0:0:0:
256,192,173255,1,8,0:0:0:0:
256,192,173343,1,8,0:0:0:0:
256,192,173432,1,0,0:0:0:0:
256,192,173608,1,0,0:0:0:0:
256,192,173667,1,0,0:0:0:0:
256,192,173726,1,0,0:0:0:0:
256,192,173785,1,8,0:0:0:0:
256,192,173961,1,8,0:0:0:0:
256,192,174138,1,0,0:0:0:0:
256,192,174314,1,8,0:0:0:0:
256,192,174490,1,0,0:0:0:0:
256,192,174667,1,8,0:0:0:0:
256,192,174755,1,8,0:0:0:0:
256,192,174843,1,0,0:0:0:0:
256,192,174932,1,0,0:0:0:0:
256,192,175020,1,8,0:0:0:0:
256,192,175196,1,8,0:0:0:0:
256,192,175285,1,8,0:0:0:0:
256,192,175373,1,8,0:0:0:0:
256,192,175549,1,0,0:0:0:0:
256,192,175726,1,8,0:0:0:0:
256,192,175814,1,0,0:0:0:0:
256,192,175990,1,8,0:0:0:0:
256,192,176079,1,0,0:0:0:0:
256,192,176255,1,8,0:0:0:0:
256,192,176343,1,0,0:0:0:0:
256,192,176432,1,0,0:0:0:0:
256,192,176520,1,0,0:0:0:0:
256,192,176608,1,8,0:0:0:0:
256,192,176961,1,0,0:0:0:0:
256,192,177049,1,0,0:0:0:0:
256,192,177138,1,8,0:0:0:0:
256,192,177314,1,0,0:0:0:0:
256,192,177490,1,8,0:0:0:0:
256,192,177579,1,0,0:0:0:0:
256,192,177667,1,0,0:0:0:0:
256,192,177843,1,0,0:0:0:0:
256,192,177932,1,8,0:0:0:0:
256,192,178020,1,0,0:0:0:0:
256,192,178196,1,8,0:0:0:0:
256,192,178373,1,0,0:0:0:0:
256,192,178461,1,0,0:0:0:0:
256,192,178549,1,8,0:0:0:0:
256,192,178726,1,0,0:0:0:0:
256,192,178902,1,8,0:0:0:0:
256,192,178990,1,8,0:0:0:0:
256,192,179079,1,0,0:0:0:0:
256,192,179255,1,0,0:0:0:0:
256,192,179314,1,0,0:0:0:0:
256,192,179373,1,0,0:0:0:0:
256,192,179432,1,8,0:0:0:0:
256,192,179608,1,8,0:0:0:0:
256,192,179785,1,0,0:0:0:0:
256,192,179873,1,0,0:0:0:0:
256,192,179961,1,8,0:0:0:0:
256,192,180138,1,0,0:0:0:0:
256,192,180314,1,8,0:0:0:0:
256,192,180402,1,0,0:0:0:0:
256,192,180490,1,0,0:0:0:0:
256,192,180667,1,8,0:0:0:0:
256,192,180843,1,8,0:0:0:0:
256,192,180932,1,8,0:0:0:0:
256,192,181020,1,8,0:0:0:0:
256,192,181196,1,0,0:0:0:0:
256,192,181373,1,8,0:0:0:0:
256,192,181461,1,0,0:0:0:0:
256,192,181638,1,8,0:0:0:0:
256,192,181726,1,0,0:0:0:0:
256,192,181902,1,8,0:0:0:0:
256,192,181990,1,0,0:0:0:0:
256,192,182079,1,0,0:0:0:0:
256,192,182167,1,0,0:0:0:0:
256,192,182255,1,8,0:0:0:0:
256,192,182608,1,0,0:0:0:0:
256,192,182696,1,0,0:0:0:0:
256,192,182785,1,8,0:0:0:0:
256,192,182873,1,0,0:0:0:0:
256,192,182961,1,0,0:0:0:0:
256,192,183138,1,8,0:0:0:0:
256,192,183226,1,0,0:0:0:0:
256,192,183314,1,0,0:0:0:0:
256,192,183490,1,0,0:0:0:0:
256,192,183579,1,8,0:0:0:0:
256,192,183667,1,0,0:0:0:0:
256,192,183755,1,0,0:0:0:0:
256,192,183843,1,8,0:0:0:0:
256,192,184020,1,0,0:0:0:0:
256,192,184108,1,0,0:0:0:0:
256,192,184196,1,8,0:0:0:0:
256,192,184285,1,8,0:0:0:0:
256,192,184373,1,0,0:0:0:0:
256,192,184549,1,8,0:0:0:0:
256,192,184638,1,8,0:0:0:0:
256,192,184726,1,0,0:0:0:0:
256,192,184902,1,0,0:0:0:0:
256,192,184961,1,0,0:0:0:0:
256,192,185020,1,0,0:0:0:0:
256,192,185079,1,8,0:0:0:0:
256,192,185255,1,8,0:0:0:0:
256,192,185432,1,0,0:0:0:0:
256,192,185520,1,0,0:0:0:0:
256,192,185608,1,8,0:0:0:0:
256,192,185696,1,0,0:0:0:0:
256,192,185785,1,0,0:0:0:0:
256,192,185961,1,8,0:0:0:0:
256,192,186049,1,0,0:0:0:0:
256,192,186138,1,0,0:0:0:0:
256,192,186226,1,0,0:0:0:0:
256,192,186314,1,8,0:0:0:0:
256,192,186490,1,0,0:0:0:0:
256,192,186579,1,0,0:0:0:0:
256,192,186667,1,8,0:0:0:0:
256,192,186843,1,0,0:0:0:0:
256,192,187020,1,8,0:0:0:0:
256,192,187108,1,0,0:0:0:0:
256,192,187285,1,8,0:0:0:0:
256,192,187373,1,0,0:0:0:0:
256,192,187549,1,8,0:0:0:0:
256,192,187638,1,0,0:0:0:0:
256,192,187726,1,0,0:0:0:0:
256,192,187814,1,0,0:0:0:0:
256,192,187902,1,8,0:0:0:0:
256,192,187990,1,8,0:0:0:0:
256,192,188079,1,8,0:0:0:0:
256,192,188255,1,4,0:0:0:0:
