osu file format v14

[General]
AudioFilename: audio.mp3
AudioLeadIn: 0
PreviewTime: 108314
Countdown: 0
SampleSet: Normal
StackLeniency: 0.7
Mode: 1
LetterboxInBreaks: 0
WidescreenStoryboard: 0

[Editor]
DistanceSpacing: 0.5
BeatDivisor: 12
GridSize: 32
TimelineZoom: 2.2

[Metadata]
Title:REFLECT (Assertive Hardcore Bootleg)
TitleUnicode:REFLECT (Assertive Hardcore Bootleg)
Artist:Gawr Gura
ArtistUnicode:Gawr Gura
Creator:Ph0eNiiXZ
Version:Alternate Reality
Source:
Tags:phoenix phoeniixz [R] ron xtrem3x Maimaing Dtnt0r dtn japanese electronic pop j-core jcore j-pop jpop Hardcore Farhan Sarasin Neko Hacker Assertive bootleg remix がうる ぐら vtuber virtual youtuber holoen hololive english EN hololiveEN cover
BeatmapID:3241328
BeatmapSetID:1587010

[Difficulty]
HPDrainRate:6
CircleSize:2
OverallDifficulty:6.5
ApproachRate:10
SliderMultiplier:1.4
SliderTickRate:1

[Events]
//Background and Video events
0,0,"Reflect.jpg",0,50
//Break Periods
//Storyboard Layer 0 (Background)
//Storyboard Layer 1 (Fail)
//Storyboard Layer 2 (Pass)
//Storyboard Layer 3 (Foreground)
//Storyboard Layer 4 (Overlay)
//Storyboard Sound Samples

[TimingPoints]
491,352.941176470588,4,1,0,30,1,0
491,-666.666666666667,4,1,0,30,0,0
1902,-500,4,1,0,30,0,0
3314,-400,4,1,0,30,0,0
4726,-333.333333333336,4,1,0,30,0,0
6138,-285.714285714286,4,1,0,30,0,0
7373,-100,4,1,0,70,0,0
7549,-100,4,1,0,70,0,0
13196,-100,4,1,0,70,0,0
13373,-99.9246940411018,4,1,0,70,0,0
13549,-99.7014640538249,4,1,0,70,0,0
13726,-99.3307276476584,4,1,0,70,0,0
13814,-99.0932544468915,4,1,0,70,0,0
13902,-98.8214591520696,4,1,0,70,0,0
14079,-98.1744153559222,4,1,0,70,0,0
14255,-97.4049221271918,4,1,0,70,0,0
14343,-96.9758778833245,4,1,0,70,0,0
14608,-95.5209182419388,4,1,0,70,0,0
14785,-94.4267719905238,4,1,0,70,0,0
14961,-93.255193982088,4,1,0,70,0,0
15138,-92.004880812913,4,1,0,70,0,0
15226,-91.360097835738,4,1,0,70,0,0
15314,-90.7019090654531,4,1,0,70,0,0
15490,-89.3511177819193,4,1,0,70,0,0
15579,-88.6534699368625,4,1,0,70,0,0
15667,-87.9558918911808,4,1,0,70,0,0
15755,-87.2519315375559,4,1,0,70,0,0
16020,-85.1063829787234,4,1,0,70,0,0
16196,-83.6721525749896,4,1,0,70,0,0
16373,-82.2327305585273,4,1,0,70,0,0
16549,-80.8123425174673,4,1,0,70,0,0
16726,-79.4020495760438,4,1,0,70,0,0
16814,-78.7096832551529,4,1,0,70,0,0
16902,-78.0241329753776,4,1,0,70,0,0
17079,-76.6685472116312,4,1,0,70,0,0
17255,-75.3554431200427,4,1,0,70,0,0
17314,-74.923765444901,4,1,0,70,0,0
17373,-74.4965986845719,4,1,0,70,0,0
17432,-74.0740740740741,4,1,0,70,0,0
17608,-74.4433503866072,4,1,0,70,0,0
17696,-74.9067781100869,4,1,0,70,0,0
17873,-76.4139856631117,4,1,0,70,0,0
17961,-77.456848728475,4,1,0,70,0,0
18138,-80.1699874790638,4,1,0,70,0,0
18226,-81.8368434741434,4,1,0,70,0,0
18314,-83.7234088447931,4,1,0,70,0,0
18402,-86.2068965517241,4,1,0,70,0,0
18490,-88.1811516141463,4,1,0,70,0,0
18667,-100,4,1,0,85,0,0
28726,-100,4,1,0,85,0,0
28902,-100.287419070303,4,1,0,85,0,0
28961,-100.512284953178,4,1,0,85,0,0
29020,-100.801527711047,4,1,0,85,0,0
29079,-101.154994824226,4,1,0,85,0,0
29255,-102.588642150659,4,1,0,85,0,0
29343,-103.516355012668,4,1,0,85,0,0
29432,-104.595287567243,4,1,0,85,0,0
29608,-107.134642735737,4,1,0,85,0,0
29667,-108.102479082363,4,1,0,85,0,0
29726,-109.126435204288,4,1,0,85,0,0
29785,-110.204675833421,4,1,0,85,0,0
29961,-117.64705882353,4,1,0,55,0,0
30138,-117.647058823529,4,1,0,55,0,0
30402,-117.567909463739,4,1,0,55,0,0
30490,-117.506438473274,4,1,0,55,0,0
30667,-117.330044301395,4,1,0,55,0,0
30843,-117.085440751364,4,1,0,55,0,0
30932,-116.93580203561,4,1,0,55,0,0
31020,-116.770916077025,4,1,0,55,0,0
31196,-116.391367856471,4,1,0,55,0,0
31285,-116.174579978983,4,1,0,55,0,0
31373,-115.944108718742,4,1,0,55,0,0
31461,-115.697850242284,4,1,0,55,0,0
31549,-115.436059157482,4,1,0,55,0,0
31726,-114.863563012512,4,1,0,55,0,0
31814,-114.556672587424,4,1,0,55,0,0
31990,-113.900075398447,4,1,0,55,0,0
32079,-113.546970095492,4,1,0,55,0,0
32255,-112.808714559322,4,1,0,55,0,0
32343,-112.420376045104,4,1,0,55,0,0
32432,-112.015088699325,4,1,0,55,0,0
32520,-111.602332731844,4,1,0,55,0,0
32608,-111.177998740536,4,1,0,55,0,0
32785,-110.29098916698,4,1,0,55,0,0
32961,-109.367187547749,4,1,0,55,0,0
33138,-108.399272341925,4,1,0,55,0,0
33226,-107.904537141577,4,1,0,55,0,0
33314,-107.401357563431,4,1,0,55,0,0
33402,-106.890129224904,4,1,0,55,0,0
33490,-106.371246691084,4,1,0,55,0,0
33667,-105.305993564225,4,1,0,55,0,0
33755,-104.766425180933,4,1,0,55,0,0
33843,-104.220763288537,4,1,0,55,0,0
34020,-103.106323004022,4,1,0,55,0,0
34108,-102.544594601195,4,1,0,55,0,0
34196,-101.978273591391,4,1,0,55,0,0
34285,-101.401215039057,4,1,0,55,0,0
34373,-100.826745665258,4,1,0,55,0,0
34549,-99.6675850803398,4,1,0,55,0,0
34638,-99.0769220563986,4,1,0,55,0,0
34726,-98.4903715766771,4,1,0,55,0,0
34902,-97.31102708523,4,1,0,55,0,0
34990,-96.7188557513518,4,1,0,55,0,0
35079,-96.1186711353161,4,1,0,55,0,0
35167,-95.5242554495115,4,1,0,55,0,0
35255,-94.9291558875589,4,1,0,55,0,0
35343,-94.3336487383619,4,1,0,55,0,0
35432,-93.7312337842017,4,1,0,55,0,0
35608,-100,4,1,0,85,0,0
35785,-91.3456259393012,4,1,0,85,0,0
36049,-89.5720346537487,4,1,0,85,0,0
36138,-88.9773351769023,4,1,0,85,0,0
36314,-87.8072694400448,4,1,0,85,0,0
36490,-86.646353135222,4,1,0,85,0,0
36755,-84.9185992465788,4,1,0,85,0,0
36843,-84.350844058537,4,1,0,85,0,0
37020,-83.2187720862218,4,1,0,85,0,0
37196,-82.1070389087336,4,1,0,85,0,0
37461,-80.4613464221482,4,1,0,85,0,0
37549,-79.9227599789427,4,1,0,85,0,0
37726,-78.8519502249282,4,1,0,85,0,0
37902,-77.8042510820015,4,1,0,85,0,0
38167,-76.2600485480351,4,1,0,85,0,0
38255,-75.7563441609109,4,1,0,85,0,0
38432,-74.757235896474,4,1,0,85,0,0
38608,-73.7826265266166,4,1,0,85,0,0
38785,-72.8217225169488,4,1,0,85,0,0
38961,-71.8856032765477,4,1,0,85,0,0
39138,-70.9638009264028,4,1,0,85,0,0
39314,-70.0668510448189,4,1,0,85,0,0
39402,-69.625746983061,4,1,0,85,0,0
39490,-69.1895649606188,4,1,0,85,0,0
39579,-68.7534356876054,4,1,0,85,0,0
39667,-68.327160572846,4,1,0,85,0,0
39755,-67.9058098494633,4,1,0,85,0,0
39843,-67.4893799921238,4,1,0,85,0,0
39932,-67.0732174234038,4,1,0,85,0,0
40020,-66.6666666666667,4,1,0,85,0,0
40726,-105.263157894737,4,1,0,85,0,0
40814,-108.108108108108,4,1,0,85,0,0
40902,-111.111111111111,4,1,0,85,0,0
40990,-113.636363636364,4,1,0,85,0,0
41079,-66.6666666666667,4,1,0,85,0,0
41255,-66.6666666666667,4,1,0,100,0,0
41432,-66.6666666666667,4,1,0,100,0,1
41608,-80,4,1,0,100,0,1
51314,-80,4,1,0,100,0,0
51446,-83.3333333333333,4,1,0,85,0,0
51579,-83.7733610204687,4,1,0,85,0,0
51755,-86.4825136277332,4,1,0,85,0,0
51843,-87.9038784784909,4,1,0,85,0,0
52108,-92.4810060256746,4,1,0,85,0,0
52196,-94.1082378032525,4,1,0,85,0,0
52373,-97.5609756097561,4,1,0,85,0,0
52549,-105.263157894737,4,1,0,100,0,0
52902,-71.4285714285714,4,1,0,100,0,0
52961,-72.7310188523746,4,1,0,100,0,0
53020,-74.0818467995803,4,1,0,100,0,0
53079,-75.4838019886667,4,1,0,100,0,1
53255,-80,4,1,0,100,0,1
62608,-80,4,1,0,100,0,1
62873,-83.1199411331862,4,1,0,100,0,1
63049,-85.3301102885632,4,1,0,100,0,1
63138,-86.4931087289433,4,1,0,100,0,1
63314,-88.8888888888889,4,1,0,100,0,1
63402,-90.1372486434727,4,1,0,100,0,1
63490,-91.4211719002914,4,1,0,100,0,1
63579,-92.757431433733,4,1,0,100,0,1
63667,-94.1176470588235,4,1,0,100,0,1
63843,-100,4,1,0,55,0,1
64020,-100,4,1,0,55,0,0
64373,-117.647058823529,4,1,0,55,0,0
64549,-117.625832300946,4,1,0,55,0,0
64638,-117.59895110752,4,1,0,55,0,0
64814,-117.51395602498,4,1,0,55,0,0
64902,-117.455660619909,4,1,0,55,0,0
65167,-117.217022700227,4,1,0,55,0,0
65343,-117.00676352959,4,1,0,55,0,0
65432,-116.884922969827,4,1,0,55,0,0
65785,-116.301074821323,4,1,0,55,0,0
65961,-115.951383198881,4,1,0,55,0,0
66226,-115.353963734943,4,1,0,55,0,0
66314,-115.137257432398,4,1,0,55,0,0
66490,-114.677295794383,4,1,0,55,0,0
66579,-114.431530340518,4,1,0,55,0,0
66667,-114.180036634983,4,1,0,55,0,0
66755,-113.920262356201,4,1,0,55,0,0
66843,-113.652371893439,4,1,0,55,0,0
67196,-112.499622294409,4,1,0,55,0,0
67373,-111.877028941771,4,1,0,55,0,0
67461,-111.557048611352,4,1,0,55,0,0
67638,-110.893395166872,4,1,0,55,0,0
67726,-110.553852532942,4,1,0,55,0,0
67990,-109.499308837746,4,1,0,55,0,0
68079,-109.132311590853,4,1,0,55,0,0
68167,-108.764067992821,4,1,0,55,0,0
68255,-108.390679839733,4,1,0,55,0,0
68520,-107.237158681956,4,1,0,55,0,0
68608,-106.845083191675,4,1,0,55,0,0
68785,-106.044027677172,4,1,0,55,0,0
68961,-105.232284338195,4,1,0,55,0,0
69049,-104.821196050185,4,1,0,55,0,0
69138,-104.402152352114,4,1,0,55,0,0
69314,-103.564498392755,4,1,0,55,0,0
69432,-102.283479140271,4,1,0,85,0,0
69667,-101.853535895134,4,1,0,85,0,0
69755,-101.421613044896,4,1,0,85,0,0
69932,-100.547544534298,4,1,0,85,0,0
70020,-100.110668874669,4,1,0,85,0,0
70196,-99.2331192318429,4,1,0,85,0,0
70373,-98.3465252684395,4,1,0,85,0,0
70461,-97.9045987788422,4,1,0,85,0,0
70549,-97.4621155130505,4,1,0,85,0,0
70638,-97.0141837795211,4,1,0,85,0,0
70726,-96.5710107616809,4,1,0,85,0,0
71079,-94.7932562090074,4,1,0,85,0,0
71255,-93.9086826536723,4,1,0,85,0,0
71343,-93.4672688520311,4,1,0,85,0,0
71432,-93.0215881470095,4,1,0,85,0,0
71608,-92.142906606278,4,1,0,85,0,0
71785,-91.2635195047602,4,1,0,85,0,0
71873,-90.8281655967572,4,1,0,85,0,0
71961,-90.3941737027332,4,1,0,85,0,0
72049,-89.9616370363453,4,1,0,85,0,0
72138,-89.5257574291245,4,1,0,85,0,0
72490,-87.8190315803289,4,1,0,85,0,0
72667,-86.9723197879063,4,1,0,85,0,0
72755,-86.5544796111363,4,1,0,85,0,0
72843,-86.1388056349068,4,1,0,85,0,0
72932,-85.7206778424388,4,1,0,85,0,0
73020,-85.309555510114,4,1,0,85,0,0
73196,-84.4944322565058,4,1,0,85,0,0
73373,-83.6846295908348,4,1,0,85,0,0
73461,-83.2858615187703,4,1,0,85,0,0
73549,-82.8897127379258,4,1,0,85,0,0
73638,-82.4917732902399,4,1,0,85,0,0
73726,-82.1010298364565,4,1,0,85,0,0
73902,-81.3278361267093,4,1,0,85,0,0
73990,-80.9454630739742,4,1,0,85,0,0
74079,-80.5616580510579,4,1,0,85,0,0
74167,-80.1850799359014,4,1,0,85,0,0
74255,-79.8114318334009,4,1,0,85,0,0
74343,-79.4407438006978,4,1,0,85,0,0
74432,-79.068883012175,4,1,0,85,0,0
74520,-78.7042327316587,4,1,0,85,0,0
74608,-78.3426226402877,4,1,0,85,0,0
74696,-77.9840760564434,4,1,0,85,0,0
74785,-77.6245932155001,4,1,0,85,0,0
74961,-76.9230769230769,4,1,0,85,0,0
75138,-100,4,1,0,100,0,0
80608,-83.3333333333333,4,1,0,100,0,0
80961,-100,4,1,0,100,0,0
85843,-66.6666666666667,4,1,0,50,0,0
86432,-83.3333333333333,4,1,0,100,0,0
86490,-85.3405315614618,4,1,0,100,0,0
86549,-87.4840357598978,4,1,0,100,0,0
86608,-89.7379912663755,4,1,0,100,0,0
86843,-100,4,1,0,100,0,0
90843,-80,4,1,0,100,0,0
91196,-75,4,1,0,100,0,0
91549,-70.5882352941176,4,1,0,100,0,0
91902,-66.6666666666667,4,1,0,100,0,0
92196,-100,4,1,0,100,0,0
97549,-76.9230769230769,4,1,0,100,0,0
97726,-76.9230769230769,4,1,0,55,0,0
98138,-111.111111111111,4,1,0,55,0,0
103196,-83.3333333333333,4,1,0,85,0,0
103373,-111.111111111111,4,1,0,85,0,0
103549,-110.965926573528,4,1,0,85,0,0
103814,-110.207372240943,4,1,0,85,0,0
103902,-109.816491260943,4,1,0,85,0,0
104079,-108.831176146961,4,1,0,85,0,0
104255,-107.603281032553,4,1,0,85,0,0
104520,-105.336666855778,4,1,0,85,0,0
104608,-104.485452908482,4,1,0,85,0,0
104785,-102.644906893676,4,1,0,85,0,0
104961,-100.667767530159,4,1,0,85,0,0
105226,-97.475220664098,4,1,0,85,0,0
105314,-96.3712438751345,4,1,0,85,0,0
105490,-94.1169646222889,4,1,0,85,0,0
105667,-91.8076065176926,4,1,0,85,0,0
105932,-88.3187408228536,4,1,0,85,0,0
106020,-87.1615951174336,4,1,0,85,0,0
106196,-84.8621759410616,4,1,0,85,0,0
106373,-82.5819855694905,4,1,0,85,0,0
106549,-80.3594492032571,4,1,0,85,0,0
106726,-78.1798826029215,4,1,0,85,0,0
106902,-76.0764102318529,4,1,0,85,0,0
107079,-74.0318750661242,4,1,0,85,0,0
107167,-73.043492889259,4,1,0,85,0,0
107255,-72.0744767928829,4,1,0,85,0,0
107343,-71.1252458663906,4,1,0,85,0,0
107432,-70.1857038063196,4,1,0,85,0,0
107520,-69.2772426163485,4,1,0,85,0,0
107608,-68.3894036163246,4,1,0,85,0,0
107696,-67.5223423570831,4,1,0,85,0,0
107785,-66.6666666666667,4,1,0,85,0,0
108314,-83.3333333333333,4,1,0,100,0,0
108490,-105.263157894737,4,1,0,100,0,0
108579,-108.124618204032,4,1,0,100,0,0
108667,-111.111111111111,4,1,0,100,0,0
108755,-113.636363636364,4,1,0,100,0,0
108843,-66.6666666666667,4,1,0,100,0,0
109196,-66.6666666666667,4,1,0,100,0,1
109373,-80,4,1,0,100,0,1
119079,-80,4,1,0,100,0,0
119211,-83.3333333333333,4,1,0,85,0,0
119343,-83.7612418746846,4,1,0,85,0,0
119520,-86.4874804621656,4,1,0,85,0,0
119608,-87.9100339553285,4,1,0,85,0,0
119873,-92.4912326701845,4,1,0,85,0,0
119961,-94.1200013340893,4,1,0,85,0,0
120138,-97.5761557345873,4,1,0,85,0,0
120314,-83.3333333333333,4,1,0,100,0,0
120490,-105.263157894737,4,1,0,100,0,0
120667,-71.4285714285714,4,1,0,100,0,0
120726,-72.7310188523746,4,1,0,100,0,0
120785,-74.0818467995803,4,1,0,100,0,0
120843,-75.4595981188542,4,1,0,100,0,1
121020,-80,4,1,0,100,0,1
130373,-80,4,1,0,100,0,1
130638,-83.1199411331862,4,1,0,100,0,1
130814,-85.3301102885632,4,1,0,100,0,1
130902,-86.4798652580003,4,1,0,100,0,1
131079,-88.8888888888889,4,1,0,100,0,1
131167,-90.1372486434727,4,1,0,100,0,1
131255,-91.4211719002914,4,1,0,100,0,1
131343,-92.7422003284072,4,1,0,100,0,1
131432,-94.1176470588235,4,1,0,100,0,1
131608,-83.3333333333333,4,1,0,55,0,1
131785,-100,4,1,0,55,0,0
132138,-117.647058823529,4,1,0,55,0,0
132314,-117.616400749351,4,1,0,55,0,0
132403,-117.577582527045,4,1,0,55,0,0
132579,-117.454895851469,4,1,0,55,0,0
132667,-117.370794507277,4,1,0,55,0,0
132932,-117.026903027582,4,1,0,55,0,0
133020,-116.882968008936,4,1,0,55,0,0
133108,-116.724419609238,4,1,0,55,0,0
133196,-116.551405006038,4,1,0,55,0,0
133549,-115.712695614315,4,1,0,55,0,0
133726,-115.213339714349,4,1,0,55,0,0
133990,-114.363257290206,4,1,0,55,0,0
134079,-114.055840186128,4,1,0,55,0,0
134255,-113.404993292426,4,1,0,55,0,0
134343,-113.062112204701,4,1,0,55,0,0
134432,-112.703881834112,4,1,0,55,0,0
134520,-112.338645568066,4,1,0,55,0,0
134608,-111.962737793341,4,1,0,55,0,0
134961,-110.353698472869,4,1,0,55,0,0
135138,-109.49036983138,4,1,0,55,0,0
135226,-109.048208618071,4,1,0,55,0,0
135402,-108.134469560051,4,1,0,55,0,0
135491,-107.668702011838,4,1,0,55,0,0
135755,-106.229522819583,4,1,0,55,0,0
135844,-105.731272476336,4,1,0,55,0,0
135932,-105.2326735781,4,1,0,55,0,0
136020,-104.728477585989,4,1,0,55,0,0
136285,-103.179492112545,4,1,0,55,0,0
136373,-102.655954092194,4,1,0,55,0,0
136549,-101.59092429936,4,1,0,55,0,0
136638,-101.056039145556,4,1,0,55,0,0
136726,-100.517965696126,4,1,0,55,0,0
136814,-99.976985253089,4,1,0,55,0,0
136903,-99.4271826851198,4,1,0,55,0,0
137079,-98.3331003744719,4,1,0,55,0,0
137255,-100,4,1,0,85,0,0
137432,-96.1186711353161,4,1,0,85,0,0
137608,-95.0085469874474,4,1,0,85,0,0
137785,-93.8905526847371,4,1,0,85,0,0
137961,-92.7790580132428,4,1,0,85,0,0
138049,-92.2238938629482,4,1,0,85,0,0
138138,-91.6630832592115,4,1,0,85,0,0
138226,-91.10941898173,4,1,0,85,0,0
138314,-90.5567781018891,4,1,0,85,0,0
138490,-89.4552658102525,4,1,0,85,0,0
138579,-88.9005051046741,4,1,0,85,0,0
138667,-88.3536812570212,4,1,0,85,0,0
138755,-87.8087044858346,4,1,0,85,0,0
138843,-87.2657215304065,4,1,0,85,0,0
139020,-86.1801889548719,4,1,0,85,0,0
139196,-85.1104156341778,4,1,0,85,0,0
139373,-84.0452310062357,4,1,0,85,0,0
139549,-82.9975650491446,4,1,0,85,0,0
139638,-82.4724062268063,4,1,0,85,0,0
139726,-81.9563314251195,4,1,0,85,0,0
139902,-80.9340305738806,4,1,0,85,0,0
139990,-80.4279689351848,4,1,0,85,0,0
140079,-79.9197114454876,4,1,0,85,0,0
140167,-79.4207516167033,4,1,0,85,0,0
140255,-78.9254258490184,4,1,0,85,0,0
140432,-77.9404029333903,4,1,0,85,0,0
140608,-76.9762337935999,4,1,0,85,0,0
140785,-76.0223666108032,4,1,0,85,0,0
140873,-75.5541275809331,4,1,0,85,0,0
140961,-75.0899255000939,4,1,0,85,0,0
141049,-74.6297953424617,4,1,0,85,0,0
141138,-74.1686106491063,4,1,0,85,0,0
141226,-73.7167644331974,4,1,0,85,0,0
141314,-73.2690776850328,4,1,0,85,0,0
141402,-72.8255739210502,4,1,0,85,0,0
141490,-72.3862740570703,4,1,0,85,0,0
141667,-71.515485787198,4,1,0,85,0,0
141755,-71.0889469642734,4,1,0,85,0,0
141843,-70.6666717544756,4,1,0,85,0,0
141932,-70.2439440410089,4,1,0,85,0,0
142020,-69.8302706666124,4,1,0,85,0,0
142108,-69.4208828984565,4,1,0,85,0,0
142196,-69.0157841791419,4,1,0,85,0,0
142549,-66.6666666666667,4,1,0,100,0,0
143079,-66.6666666666667,4,1,0,100,0,1
143255,-80,4,1,0,100,0,1
152961,-80.0136000453335,4,1,0,100,0,0
153093,-83.3333333333333,4,1,0,85,0,0
153225,-83.7733610204687,4,1,0,85,0,0
153402,-86.4984072531242,4,1,0,85,0,0
153490,-87.920298879203,4,1,0,85,0,0
153755,-92.4991811333115,4,1,0,85,0,0
153843,-94.1082378032525,4,1,0,85,0,0
154020,-97.5609756097561,4,1,0,85,0,0
154196,-83.3333333333333,4,1,0,100,0,0
154372,-105.263157894737,4,1,0,100,0,0
154549,-71.4285714285714,4,1,0,100,0,0
154608,-72.7535037098104,4,1,0,100,0,0
154667,-74.1051747664532,4,1,0,100,0,0
154726,-75.4838019886667,4,1,0,100,0,1
154902,-80,4,1,0,100,0,1
164255,-80,4,1,0,100,0,1
164256,-80.0113330500071,4,1,0,100,0,1
164388,-83.3333333333333,4,1,0,85,0,1
164520,-83.1321754489255,4,1,0,85,0,1
164696,-85.3430039286794,4,1,0,85,0,1
164785,-86.4931087289433,4,1,0,85,0,1
164961,-88.902880528884,4,1,0,85,0,1
165049,-90.1516360734238,4,1,0,85,0,1
165137,-91.4359721547677,4,1,0,85,0,1
165226,-92.757431433733,4,1,0,85,0,1
165314,-94.1333333333333,4,1,0,85,0,1
165490,-100,4,1,0,100,0,1
165667,-100,4,1,0,100,0,0
171314,-95.2380952380952,4,1,0,100,0,0
176961,-90.9090909090909,4,1,0,100,0,0
182608,-86.9565217391304,4,1,0,100,0,0
182696,-86.9485939770336,4,1,0,100,0,0
182785,-86.9244630910903,4,1,0,100,0,0
182873,-86.8847120841822,4,1,0,100,0,0
182961,-86.8292269109547,4,1,0,100,0,0
183138,-86.6703807468215,4,1,0,100,0,0
183226,-86.5681837556717,4,1,0,100,0,0
183314,-86.4507826864375,4,1,0,100,0,0
183402,-86.3183721495499,4,1,0,100,0,0
183490,-86.1711703418024,4,1,0,100,0,0
183579,-86.0074975165439,4,1,0,100,0,0
183667,-85.8312971697851,4,1,0,100,0,0
183755,-85.6410964449404,4,1,0,100,0,0
183843,-85.4371991929782,4,1,0,100,0,0
184020,-84.9869326735548,4,1,0,100,0,0
184108,-84.7438091541031,4,1,0,100,0,0
184196,-84.4883851458557,4,1,0,100,0,0
184285,-84.217941989833,4,1,0,100,0,0
184373,-83.9389598856657,4,1,0,100,0,0
184549,-83.3481160813828,4,1,0,100,0,0
184638,-83.033513405264,4,1,0,100,0,0
184726,-82.7125808825361,4,1,0,100,0,0
184902,-82.0430742458732,4,1,0,100,0,0
184961,-81.8108825809857,4,1,0,100,0,0
185020,-81.5750244819741,4,1,0,100,0,0
185079,-81.3356375782146,4,1,0,100,0,0
185255,-80.6019311617374,4,1,0,100,0,0
185432,-79.8373202757133,4,1,0,100,0,0
185520,-79.4483399967348,4,1,0,100,0,0
185608,-79.05409435458,4,1,0,100,0,0
185696,-78.6550285273658,4,1,0,100,0,0
185785,-78.2469744304118,4,1,0,100,0,0
185873,-77.8395400096233,4,1,0,100,0,0
185961,-77.4285918439733,4,1,0,100,0,0
186049,-77.0145500859368,4,1,0,100,0,0
186138,-76.5930777044796,4,1,0,100,0,0
186314,-75.7531517973046,4,1,0,100,0,0
186402,-75.3307576870073,4,1,0,100,0,0
186490,-74.9072473599053,4,1,0,100,0,0
186667,-74.0535053111127,4,1,0,100,0,0
186843,-73.2043889977101,4,1,0,100,0,0
186932,-72.7757771323553,4,1,0,100,0,0
187020,-72.3529143868206,4,1,0,100,0,0
187108,-71.9312825060677,4,1,0,100,0,0
187196,-71.5111722176369,4,1,0,100,0,0
187285,-71.0881211683302,4,1,0,100,0,0
187373,-70.6719074487441,4,1,0,100,0,0
187461,-70.2580247727572,4,1,0,100,0,0
187549,-69.8467202530531,4,1,0,100,0,0
187638,-69.4336055015383,4,1,0,100,0,0
187726,-69.0281920913996,4,1,0,100,0,0
187814,-68.626037427711,4,1,0,100,0,0
187902,-68.2273469725917,4,1,0,100,0,0
187990,-67.8323162690239,4,1,0,100,0,0
188079,-67.4367086591545,4,1,0,100,0,0
188167,-67.0495921906325,4,1,0,100,0,0
188255,-66.6666666666667,4,1,0,100,0,0

[HitObjects]
256,192,7549,5,4,0:0:0:0:
256,192,7902,1,0,0:0:0:0:
256,192,8079,1,0,0:0:0:0:
256,192,8255,1,8,0:0:0:0:
256,192,8432,1,8,0:0:0:0:
256,192,8520,1,8,0:0:0:0:
256,192,8608,1,8,0:0:0:0:
256,192,8785,1,8,0:0:0:0:
256,192,8961,1,0,0:0:0:0:
256,192,9138,1,0,0:0:0:0:
256,192,9314,1,0,0:0:0:0:
256,192,9490,1,0,0:0:0:0:
256,192,9667,1,8,0:0:0:0:
256,192,9843,1,8,0:0:0:0:
256,192,9902,1,8,0:0:0:0:
256,192,9961,1,8,0:0:0:0:
256,192,10020,1,0,0:0:0:0:
256,192,10196,1,8,0:0:0:0:
256,192,10373,1,0,0:0:0:0:
256,192,10549,1,0,0:0:0:0:
256,192,10726,1,0,0:0:0:0:
256,192,10902,1,0,0:0:0:0:
256,192,11079,1,8,0:0:0:0:
256,192,11167,1,0,0:0:0:0:
256,192,11255,1,8,0:0:0:0:
256,192,11432,1,8,0:0:0:0:
256,192,11608,1,0,0:0:0:0:
256,192,11785,1,8,0:0:0:0:
256,192,11961,1,0,0:0:0:0:
256,192,12049,1,8,0:0:0:0:
256,192,12138,1,0,0:0:0:0:
256,192,12226,1,0,0:0:0:0:
256,192,12314,1,8,0:0:0:0:
256,192,12490,1,0,0:0:0:0:
256,192,12579,1,0,0:0:0:0:
256,192,12667,1,0,0:0:0:0:
256,192,12755,1,0,0:0:0:0:
256,192,12843,1,8,0:0:0:0:
256,192,13196,1,0,0:0:0:0:
256,192,13373,1,0,0:0:0:0:
256,192,13549,1,8,0:0:0:0:
256,192,13726,1,0,0:0:0:0:
256,192,13814,1,0,0:0:0:0:
256,192,13902,1,8,0:0:0:0:
256,192,14079,1,0,0:0:0:0:
256,192,14255,1,8,0:0:0:0:
256,192,14343,1,0,0:0:0:0:
256,192,14608,1,0,0:0:0:0:
256,192,14785,1,0,0:0:0:0:
256,192,14961,1,8,0:0:0:0:
256,192,15138,1,8,0:0:0:0:
256,192,15226,1,8,0:0:0:0:
256,192,15314,1,8,0:0:0:0:
256,192,15490,1,0,0:0:0:0:
256,192,15579,1,0,0:0:0:0:
256,192,15667,1,8,0:0:0:0:
256,192,15755,1,0,0:0:0:0:
256,192,16020,1,0,0:0:0:0:
256,192,16196,1,0,0:0:0:0:
256,192,16373,1,8,0:0:0:0:
256,192,16549,1,0,0:0:0:0:
256,192,16726,1,8,0:0:0:0:
256,192,16814,1,8,0:0:0:0:
256,192,16902,1,0,0:0:0:0:
256,192,17079,1,8,0:0:0:0:
256,192,17255,1,0,0:0:0:0:
256,192,17314,1,0,0:0:0:0:
256,192,17373,1,0,0:0:0:0:
256,192,17432,1,8,0:0:0:0:
256,192,17608,1,0,0:0:0:0:
256,192,17696,1,8,0:0:0:0:
256,192,17873,1,0,0:0:0:0:
256,192,17961,1,8,0:0:0:0:
256,192,18138,1,0,0:0:0:0:
256,192,18226,1,8,0:0:0:0:
256,192,18314,1,0,0:0:0:0:
256,192,18402,1,0,0:0:0:0:
256,192,18490,1,8,0:0:0:0:
256,192,18843,1,4,0:0:0:0:
256,192,19020,1,8,0:0:0:0:
256,192,19196,1,0,0:0:0:0:
256,192,19461,1,8,0:0:0:0:
256,192,19549,1,0,0:0:0:0:
256,192,19726,1,8,0:0:0:0:
256,192,19902,1,0,0:0:0:0:
256,192,20079,1,0,0:0:0:0:
256,192,20167,1,0,0:0:0:0:
256,192,20255,1,8,0:0:0:0:
256,192,20432,1,0,0:0:0:0:
256,192,20520,1,8,0:0:0:0:
256,192,20608,1,0,0:0:0:0:
256,192,20696,1,0,0:0:0:0:
256,192,20785,1,8,0:0:0:0:
256,192,20961,1,0,0:0:0:0:
256,192,21138,1,8,0:0:0:0:
256,192,21226,1,8,0:0:0:0:
256,192,21314,1,0,0:0:0:0:
256,192,21490,1,0,0:0:0:0:
256,192,21667,1,8,0:0:0:0:
256,192,21843,1,0,0:0:0:0:
256,192,21932,1,8,0:0:0:0:
256,192,22108,1,0,0:0:0:0:
256,192,22196,1,8,0:0:0:0:
256,192,22373,1,0,0:0:0:0:
256,192,22549,1,8,0:0:0:0:
256,192,22726,1,0,0:0:0:0:
256,192,22902,1,0,0:0:0:0:
256,192,22990,1,0,0:0:0:0:
256,192,23079,1,8,0:0:0:0:
256,192,23255,1,8,0:0:0:0:
256,192,23314,1,8,0:0:0:0:
256,192,23373,1,8,0:0:0:0:
256,192,23432,1,0,0:0:0:0:
256,192,23608,1,0,0:0:0:0:
256,192,23696,1,8,0:0:0:0:
256,192,23785,1,0,0:0:0:0:
256,192,23961,1,0,0:0:0:0:
256,192,24020,1,0,0:0:0:0:
256,192,24079,1,0,0:0:0:0:
256,192,24138,1,8,0:0:0:0:
256,192,24314,1,8,0:0:0:0:
256,192,24490,1,0,0:0:0:0:
256,192,24667,1,8,0:0:0:0:
256,192,24843,1,0,0:0:0:0:
256,192,25108,1,8,0:0:0:0:
256,192,25196,1,0,0:0:0:0:
256,192,25373,1,8,0:0:0:0:
256,192,25549,1,0,0:0:0:0:
256,192,25726,1,0,0:0:0:0:
256,192,25814,1,0,0:0:0:0:
256,192,25902,1,8,0:0:0:0:
256,192,26079,1,0,0:0:0:0:
256,192,26167,1,8,0:0:0:0:
256,192,26255,1,0,0:0:0:0:
256,192,26343,1,0,0:0:0:0:
256,192,26432,1,8,0:0:0:0:
256,192,26608,1,0,0:0:0:0:
256,192,26696,1,0,0:0:0:0:
256,192,26785,1,8,0:0:0:0:
256,192,26873,1,8,0:0:0:0:
256,192,26961,1,0,0:0:0:0:
256,192,27138,1,8,0:0:0:0:
256,192,27314,1,0,0:0:0:0:
256,192,27490,1,0,0:0:0:0:
256,192,27579,1,8,0:0:0:0:
256,192,27667,1,0,0:0:0:0:
256,192,27843,1,8,0:0:0:0:
256,192,27932,1,8,0:0:0:0:
256,192,28020,1,0,0:0:0:0:
256,192,28108,1,8,0:0:0:0:
256,192,28196,1,0,0:0:0:0:
256,192,28285,1,0,0:0:0:0:
256,192,28373,1,8,0:0:0:0:
256,192,28549,1,0,0:0:0:0:
256,192,28638,1,0,0:0:0:0:
256,192,28726,1,8,0:0:0:0:
256,192,28902,1,8,0:0:0:0:
256,192,28961,1,8,0:0:0:0:
256,192,29020,1,8,0:0:0:0:
256,192,29079,1,0,0:0:0:0:
256,192,29255,1,0,0:0:0:0:
256,192,29343,1,8,0:0:0:0:
256,192,29432,1,0,0:0:0:0:
256,192,29608,1,0,0:0:0:0:
256,192,29667,1,0,0:0:0:0:
256,192,29726,1,0,0:0:0:0:
256,192,29785,1,8,0:0:0:0:
256,192,30138,1,0,0:0:0:0:
256,192,30402,1,0,0:0:0:0:
256,192,30490,1,8,0:0:0:0:
256,192,30667,1,0,0:0:0:0:
256,192,30843,1,8,0:0:0:0:
256,192,30932,1,8,0:0:0:0:
256,192,31020,1,0,0:0:0:0:
256,192,31196,1,8,0:0:0:0:
256,192,31285,1,0,0:0:0:0:
256,192,31373,1,8,0:0:0:0:
256,192,31461,1,8,0:0:0:0:
256,192,31549,1,0,0:0:0:0:
256,192,31726,1,0,0:0:0:0:
256,192,31814,1,8,0:0:0:0:
256,192,31990,1,0,0:0:0:0:
256,192,32079,1,0,0:0:0:0:
256,192,32255,1,8,0:0:0:0:
256,192,32343,1,0,0:0:0:0:
256,192,32432,1,0,0:0:0:0:
256,192,32520,1,0,0:0:0:0:
256,192,32608,1,8,0:0:0:0:
256,192,32785,1,8,0:0:0:0:
256,192,32961,1,0,0:0:0:0:
256,192,33138,1,0,0:0:0:0:
256,192,33226,1,8,0:0:0:0:
256,192,33314,1,0,0:0:0:0:
256,192,33402,1,0,0:0:0:0:
256,192,33490,1,8,0:0:0:0:
256,192,33667,1,8,0:0:0:0:
256,192,33755,1,8,0:0:0:0:
256,192,33843,1,0,0:0:0:0:
256,192,34020,1,8,0:0:0:0:
256,192,34108,1,8,0:0:0:0:
256,192,34196,1,0,0:0:0:0:
256,192,34285,1,0,0:0:0:0:
256,192,34373,1,8,0:0:0:0:
256,192,34549,1,0,0:0:0:0:
256,192,34638,1,8,0:0:0:0:
256,192,34726,1,0,0:0:0:0:
256,192,34902,1,8,0:0:0:0:
256,192,34990,1,8,0:0:0:0:
256,192,35079,1,0,0:0:0:0:
256,192,35167,1,0,0:0:0:0:
256,192,35255,1,8,0:0:0:0:
256,192,35343,1,0,0:0:0:0:
256,192,35432,1,8,0:0:0:0:
256,192,35785,1,12,0:0:0:0:
256,192,36049,1,0,0:0:0:0:
256,192,36138,1,8,0:0:0:0:
256,192,36314,1,0,0:0:0:0:
256,192,36490,1,8,0:0:0:0:
256,192,36755,1,0,0:0:0:0:
256,192,36843,1,0,0:0:0:0:
256,192,37020,1,0,0:0:0:0:
256,192,37196,1,8,0:0:0:0:
256,192,37461,1,0,0:0:0:0:
256,192,37549,1,8,0:0:0:0:
256,192,37726,1,0,0:0:0:0:
256,192,37902,1,8,0:0:0:0:
256,192,38167,1,8,0:0:0:0:
256,192,38255,1,8,0:0:0:0:
256,192,38432,1,8,0:0:0:0:
256,192,38608,1,0,0:0:0:0:
256,192,38785,1,8,0:0:0:0:
256,192,38961,1,0,0:0:0:0:
256,192,39138,1,0,0:0:0:0:
256,192,39314,1,8,0:0:0:0:
256,192,39402,1,8,0:0:0:0:
256,192,39490,1,0,0:0:0:0:
256,192,39579,1,0,0:0:0:0:
256,192,39667,1,8,0:0:0:0:
256,192,39755,1,8,0:0:0:0:
256,192,39843,1,8,0:0:0:0:
256,192,39932,1,8,0:0:0:0:
256,192,40020,1,0,0:0:0:0:
256,192,40726,1,8,0:0:0:0:
256,192,40814,1,8,0:0:0:0:
256,192,40902,1,0,0:0:0:0:
256,192,40990,1,0,0:0:0:0:
256,192,41079,1,12,0:0:0:0:
256,192,41432,1,4,0:0:0:0:
256,192,41608,1,8,0:0:0:0:
256,192,41696,1,0,0:0:0:0:
256,192,41785,1,8,0:0:0:0:
256,192,41961,1,8,0:0:0:0:
256,192,42049,1,0,0:0:0:0:
256,192,42226,1,8,0:0:0:0:
256,192,42314,1,0,0:0:0:0:
256,192,42402,1,0,0:0:0:0:
256,192,42490,1,8,0:0:0:0:
256,192,42667,1,8,0:0:0:0:
256,192,42755,1,0,0:0:0:0:
256,192,42932,1,0,0:0:0:0:
256,192,43020,1,8,0:0:0:0:
256,192,43108,1,0,0:0:0:0:
256,192,43196,1,8,0:0:0:0:
256,192,43373,1,8,0:0:0:0:
256,192,43461,1,0,0:0:0:0:
256,192,43638,1,8,0:0:0:0:
256,192,43726,1,0,0:0:0:0:
256,192,43814,1,0,0:0:0:0:
256,192,43902,1,8,0:0:0:0:
256,192,43990,1,0,0:0:0:0:
256,192,44079,1,0,0:0:0:0:
256,192,44255,1,8,0:0:0:0:
256,192,44432,1,8,0:0:0:0:
256,192,44520,1,8,0:0:0:0:
256,192,44608,1,0,0:0:0:0:
256,192,44696,1,8,0:0:0:0:
256,192,44873,1,8,0:0:0:0:
256,192,44961,1,0,0:0:0:0:
256,192,45049,1,8,0:0:0:0:
256,192,45138,1,8,0:0:0:0:
256,192,45226,1,8,0:0:0:0:
256,192,45314,1,0,0:0:0:0:
256,192,45490,1,0,0:0:0:0:
256,192,45667,1,8,0:0:0:0:
256,192,45755,1,0,0:0:0:0:
256,192,45843,1,0,0:0:0:0:
256,192,45932,1,0,0:0:0:0:
256,192,46020,1,8,0:0:0:0:
256,192,46196,1,8,0:0:0:0:
256,192,46285,1,0,0:0:0:0:
256,192,46461,1,8,0:0:0:0:
256,192,46549,1,0,0:0:0:0:
256,192,46726,1,8,0:0:0:0:
256,192,46814,1,8,0:0:0:0:
256,192,46902,1,0,0:0:0:0:
256,192,46990,1,0,0:0:0:0:
256,192,47079,1,8,0:0:0:0:
256,192,47255,1,0,0:0:0:0:
256,192,47343,1,0,0:0:0:0:
256,192,47432,1,8,0:0:0:0:
256,192,47608,1,8,0:0:0:0:
256,192,47696,1,0,0:0:0:0:
256,192,47873,1,8,0:0:0:0:
256,192,47961,1,0,0:0:0:0:
256,192,48049,1,0,0:0:0:0:
256,192,48138,1,8,0:0:0:0:
256,192,48314,1,0,0:0:0:0:
256,192,48402,1,8,0:0:0:0:
256,192,48579,1,0,0:0:0:0:
256,192,48667,1,0,0:0:0:0:
256,192,48755,1,0,0:0:0:0:
256,192,48843,1,8,0:0:0:0:
256,192,49020,1,8,0:0:0:0:
256,192,49108,1,0,0:0:0:0:
256,192,49285,1,0,0:0:0:0:
256,192,49373,1,0,0:0:0:0:
256,192,49461,1,8,0:0:0:0:
256,192,49549,1,8,0:0:0:0:
256,192,49638,1,0,0:0:0:0:
256,192,49726,1,0,0:0:0:0:
256,192,49902,1,8,0:0:0:0:
256,192,50079,1,0,0:0:0:0:
256,192,50167,1,0,0:0:0:0:
256,192,50255,1,8,0:0:0:0:
256,192,50343,1,8,0:0:0:0:
256,192,50520,1,8,0:0:0:0:
256,192,50608,1,0,0:0:0:0:
256,192,50785,1,0,0:0:0:0:
256,192,50873,1,0,0:0:0:0:
256,192,50961,1,8,0:0:0:0:
256,192,51138,1,0,0:0:0:0:
256,192,51314,1,8,0:0:0:0:
256,192,51579,1,0,0:0:0:0:
256,192,51755,1,0,0:0:0:0:
256,192,51843,1,8,0:0:0:0:
256,192,52108,1,8,0:0:0:0:
256,192,52196,1,0,0:0:0:0:
256,192,52373,1,12,0:0:0:0:
256,192,52726,1,0,0:0:0:0:
256,192,52902,1,0,0:0:0:0:
256,192,52961,1,0,0:0:0:0:
256,192,53020,1,0,0:0:0:0:
256,192,53079,1,8,0:0:0:0:
256,192,53255,1,0,0:0:0:0:
256,192,53432,1,8,0:0:0:0:
256,192,53520,1,8,0:0:0:0:
256,192,53608,1,0,0:0:0:0:
256,192,53696,1,0,0:0:0:0:
256,192,53785,1,8,0:0:0:0:
256,192,53961,1,0,0:0:0:0:
256,192,54049,1,0,0:0:0:0:
256,192,54138,1,8,0:0:0:0:
256,192,54314,1,0,0:0:0:0:
256,192,54490,1,8,0:0:0:0:
256,192,54579,1,8,0:0:0:0:
256,192,54667,1,0,0:0:0:0:
256,192,54755,1,8,0:0:0:0:
256,192,54843,1,0,0:0:0:0:
256,192,54932,1,0,0:0:0:0:
256,192,55020,1,8,0:0:0:0:
256,192,55196,1,8,0:0:0:0:
256,192,55285,1,0,0:0:0:0:
256,192,55373,1,8,0:0:0:0:
256,192,55549,1,0,0:0:0:0:
256,192,55726,1,0,0:0:0:0:
256,192,55814,1,0,0:0:0:0:
256,192,55902,1,8,0:0:0:0:
256,192,56079,1,8,0:0:0:0:
256,192,56255,1,0,0:0:0:0:
256,192,56343,1,0,0:0:0:0:
256,192,56432,1,8,0:0:0:0:
256,192,56520,1,8,0:0:0:0:
256,192,56608,1,0,0:0:0:0:
256,192,56785,1,8,0:0:0:0:
256,192,56873,1,0,0:0:0:0:
256,192,56961,1,8,0:0:0:0:
256,192,57138,1,0,0:0:0:0:
256,192,57226,1,0,0:0:0:0:
256,192,57314,1,8,0:0:0:0:
256,192,57402,1,0,0:0:0:0:
256,192,57490,1,8,0:0:0:0:
256,192,57579,1,8,0:0:0:0:
256,192,57667,1,0,0:0:0:0:
256,192,57843,1,8,0:0:0:0:
256,192,58020,1,0,0:0:0:0:
256,192,58196,1,8,0:0:0:0:
256,192,58285,1,8,0:0:0:0:
256,192,58373,1,0,0:0:0:0:
256,192,58549,1,8,0:0:0:0:
256,192,58638,1,0,0:0:0:0:
256,192,58726,1,8,0:0:0:0:
256,192,58814,1,8,0:0:0:0:
256,192,58902,1,0,0:0:0:0:
256,192,58990,1,8,0:0:0:0:
256,192,59079,1,0,0:0:0:0:
256,192,59255,1,8,0:0:0:0:
256,192,59432,1,0,0:0:0:0:
256,192,59520,1,0,0:0:0:0:
256,192,59608,1,8,0:0:0:0:
256,192,59696,1,0,0:0:0:0:
256,192,59785,1,8,0:0:0:0:
256,192,59961,1,0,0:0:0:0:
256,192,60049,1,0,0:0:0:0:
256,192,60138,1,8,0:0:0:0:
256,192,60226,1,8,0:0:0:0:
256,192,60314,1,0,0:0:0:0:
256,192,60402,1,8,0:0:0:0:
256,192,60490,1,0,0:0:0:0:
256,192,60667,1,0,0:0:0:0:
256,192,60843,1,8,0:0:0:0:
256,192,61020,1,0,0:0:0:0:
256,192,61108,1,0,0:0:0:0:
256,192,61196,1,8,0:0:0:0:
256,192,61373,1,0,0:0:0:0:
256,192,61461,1,8,0:0:0:0:
256,192,61549,1,0,0:0:0:0:
256,192,61638,1,8,0:0:0:0:
256,192,61814,1,8,0:0:0:0:
256,192,61902,1,0,0:0:0:0:
256,192,61990,1,0,0:0:0:0:
256,192,62079,1,8,0:0:0:0:
256,192,62167,1,0,0:0:0:0:
256,192,62255,1,8,0:0:0:0:
256,192,62432,1,8,0:0:0:0:
256,192,62520,1,8,0:0:0:0:
256,192,62608,1,0,0:0:0:0:
256,192,62873,1,0,0:0:0:0:
256,192,63049,1,0,0:0:0:0:
256,192,63138,1,8,0:0:0:0:
256,192,63314,1,8,0:0:0:0:
256,192,63402,1,8,0:0:0:0:
256,192,63490,1,0,0:0:0:0:
256,192,63579,1,0,0:0:0:0:
256,192,63667,1,12,0:0:0:0:
256,192,64020,1,4,0:0:0:0:
256,192,64373,1,8,0:0:0:0:
256,192,64549,1,0,0:0:0:0:
256,192,64638,1,8,0:0:0:0:
256,192,64814,1,8,0:0:0:0:
256,192,64902,1,8,0:0:0:0:
256,192,65167,1,8,0:0:0:0:
256,192,65343,1,8,0:0:0:0:
256,192,65432,1,0,0:0:0:0:
256,192,65785,1,8,0:0:0:0:
256,192,65961,1,0,0:0:0:0:
256,192,66226,1,8,0:0:0:0:
256,192,66314,1,8,0:0:0:0:
256,192,66490,1,0,0:0:0:0:
256,192,66579,1,8,0:0:0:0:
256,192,66667,1,8,0:0:0:0:
256,192,66755,1,8,0:0:0:0:
256,192,66843,1,0,0:0:0:0:
256,192,67196,1,8,0:0:0:0:
256,192,67373,1,0,0:0:0:0:
256,192,67461,1,8,0:0:0:0:
256,192,67638,1,8,0:0:0:0:
256,192,67726,1,8,0:0:0:0:
256,192,67990,1,8,0:0:0:0:
256,192,68079,1,0,0:0:0:0:
256,192,68167,1,0,0:0:0:0:
256,192,68255,1,8,0:0:0:0:
256,192,68520,1,8,0:0:0:0:
256,192,68608,1,8,0:0:0:0:
256,192,68785,1,0,0:0:0:0:
256,192,68961,1,0,0:0:0:0:
256,192,69049,1,8,0:0:0:0:
256,192,69138,1,0,0:0:0:0:
256,192,69314,1,8,0:0:0:0:
256,192,69579,1,8,0:0:0:0:
256,192,69667,1,0,0:0:0:0:
256,192,69755,1,8,0:0:0:0:
256,192,69932,1,8,0:0:0:0:
256,192,70020,1,0,0:0:0:0:
256,192,70196,1,0,0:0:0:0:
256,192,70373,1,8,0:0:0:0:
256,192,70461,1,8,0:0:0:0:
256,192,70549,1,0,0:0:0:0:
256,192,70638,1,0,0:0:0:0:
256,192,70726,1,8,0:0:0:0:
256,192,71079,1,8,0:0:0:0:
256,192,71255,1,0,0:0:0:0:
256,192,71343,1,0,0:0:0:0:
256,192,71432,1,8,0:0:0:0:
256,192,71608,1,8,0:0:0:0:
256,192,71785,1,0,0:0:0:0:
256,192,71873,1,0,0:0:0:0:
256,192,71961,1,8,0:0:0:0:
256,192,72049,1,0,0:0:0:0:
256,192,72138,1,8,0:0:0:0:
256,192,72490,1,8,0:0:0:0:
256,192,72667,1,0,0:0:0:0:
256,192,72755,1,8,0:0:0:0:
256,192,72843,1,0,0:0:0:0:
256,192,72932,1,0,0:0:0:0:
256,192,73020,1,8,0:0:0:0:
256,192,73196,1,0,0:0:0:0:
256,192,73373,1,8,0:0:0:0:
256,192,73461,1,0,0:0:0:0:
256,192,73549,1,8,0:0:0:0:
256,192,73638,1,8,0:0:0:0:
256,192,73726,1,0,0:0:0:0:
256,192,73902,1,8,0:0:0:0:
256,192,73990,1,8,0:0:0:0:
256,192,74079,1,0,0:0:0:0:
256,192,74167,1,8,0:0:0:0:
256,192,74255,1,0,0:0:0:0:
256,192,74343,1,0,0:0:0:0:
256,192,74432,1,8,0:0:0:0:
256,192,74520,1,0,0:0:0:0:
256,192,74608,1,8,0:0:0:0:
256,192,74696,1,8,0:0:0:0:
256,192,74785,1,0,0:0:0:0:
256,192,74961,1,12,0:0:0:0:
256,192,75314,1,0,0:0:0:0:
256,192,75432,1,0,0:0:0:0:
256,192,75549,1,0,0:0:0:0:
256,192,75667,1,8,0:0:0:0:
256,192,75785,1,0,0:0:0:0:
256,192,75902,1,0,0:0:0:0:
256,192,76020,1,8,0:0:0:0:
256,192,76138,1,0,0:0:0:0:
256,192,76255,1,8,0:0:0:0:
256,192,76373,1,8,0:0:0:0:
256,192,76490,1,0,0:0:0:0:
256,192,76608,1,8,0:0:0:0:
256,192,76726,1,0,0:0:0:0:
256,192,76843,1,0,0:0:0:0:
256,192,76961,1,0,0:0:0:0:
256,192,77079,1,8,0:0:0:0:
256,192,77196,1,8,0:0:0:0:
256,192,77314,1,8,0:0:0:0:
256,192,77432,1,0,0:0:0:0:
256,192,77549,1,8,0:0:0:0:
256,192,77667,1,0,0:0:0:0:
256,192,77785,1,8,0:0:0:0:
256,192,77902,1,8,0:0:0:0:
256,192,78020,1,8,0:0:0:0:
256,192,78138,1,0,0:0:0:0:
256,192,78255,1,0,0:0:0:0:
256,192,78373,1,0,0:0:0:0:
256,192,78490,1,8,0:0:0:0:
256,192,78608,1,0,0:0:0:0:
256,192,78726,1,0,0:0:0:0:
256,192,78843,1,8,0:0:0:0:
256,192,78961,1,0,0:0:0:0:
256,192,79079,1,8,0:0:0:0:
256,192,79196,1,0,0:0:0:0:
256,192,79314,1,0,0:0:0:0:
256,192,79432,1,0,0:0:0:0:
256,192,79549,1,8,0:0:0:0:
256,192,79667,1,0,0:0:0:0:
256,192,79785,1,8,0:0:0:0:
256,192,79902,1,8,0:0:0:0:
256,192,80020,1,0,0:0:0:0:
256,192,80138,1,8,0:0:0:0:
256,192,80255,1,0,0:0:0:0:
256,192,80373,1,0,0:0:0:0:
256,192,80490,1,0,0:0:0:0:
256,192,80608,1,12,0:0:0:0:
256,192,80961,1,8,0:0:0:0:
256,192,81079,1,0,0:0:0:0:
256,192,81196,1,8,0:0:0:0:
256,192,81314,1,8,0:0:0:0:
256,192,81432,1,0,0:0:0:0:
256,192,81549,1,0,0:0:0:0:
256,192,81667,1,8,0:0:0:0:
256,192,81785,1,8,0:0:0:0:
256,192,81902,1,0,0:0:0:0:
256,192,82020,1,8,0:0:0:0:
256,192,82138,1,0,0:0:0:0:
256,192,82255,1,0,0:0:0:0:
256,192,82373,1,8,0:0:0:0:
256,192,82490,1,0,0:0:0:0:
256,192,82608,1,8,0:0:0:0:
256,192,82726,1,8,0:0:0:0:
256,192,82843,1,0,0:0:0:0:
256,192,82961,1,0,0:0:0:0:
256,192,83079,1,8,0:0:0:0:
256,192,83196,1,8,0:0:0:0:
256,192,83314,1,0,0:0:0:0:
256,192,83432,1,8,0:0:0:0:
256,192,83549,1,8,0:0:0:0:
256,192,83667,1,0,0:0:0:0:
256,192,83785,1,8,0:0:0:0:
256,192,83902,1,0,0:0:0:0:
256,192,84020,1,0,0:0:0:0:
256,192,84138,1,8,0:0:0:0:
256,192,84255,1,0,0:0:0:0:
256,192,84373,1,0,0:0:0:0:
256,192,84490,1,8,0:0:0:0:
256,192,84608,1,8,0:0:0:0:
256,192,84726,1,0,0:0:0:0:
256,192,84843,1,8,0:0:0:0:
256,192,84961,1,8,0:0:0:0:
256,192,85079,1,0,0:0:0:0:
256,192,85196,1,8,0:0:0:0:
256,192,85314,1,8,0:0:0:0:
256,192,85432,1,8,0:0:0:0:
256,192,85549,1,0,0:0:0:0:
256,192,85667,1,0,0:0:0:0:
256,192,85785,1,0,0:0:0:0:
256,192,85902,12,0,86255,0:0:0:0:
256,192,86432,5,8,0:0:0:0:
256,192,86490,1,8,0:0:0:0:
256,192,86549,1,8,0:0:0:0:
256,192,86608,1,0,0:0:0:0:
256,192,86843,1,8,0:0:0:0:
256,192,86961,1,0,0:0:0:0:
256,192,87079,1,0,0:0:0:0:
256,192,87196,1,8,0:0:0:0:
256,192,87314,1,8,0:0:0:0:
256,192,87432,1,0,0:0:0:0:
256,192,87549,1,8,0:0:0:0:
256,192,87667,1,8,0:0:0:0:
256,192,87785,1,0,0:0:0:0:
256,192,87902,1,0,0:0:0:0:
256,192,88020,1,8,0:0:0:0:
256,192,88138,1,0,0:0:0:0:
256,192,88255,1,0,0:0:0:0:
256,192,88373,1,8,0:0:0:0:
256,192,88490,1,8,0:0:0:0:
256,192,88608,1,0,0:0:0:0:
256,192,88726,1,8,0:0:0:0:
256,192,88843,1,0,0:0:0:0:
256,192,88961,1,0,0:0:0:0:
256,192,89079,1,8,0:0:0:0:
256,192,89196,1,0,0:0:0:0:
256,192,89314,1,8,0:0:0:0:
256,192,89432,1,8,0:0:0:0:
256,192,89549,1,0,0:0:0:0:
256,192,89667,1,8,0:0:0:0:
256,192,89785,1,0,0:0:0:0:
256,192,89902,1,8,0:0:0:0:
256,192,90020,1,8,0:0:0:0:
256,192,90138,1,0,0:0:0:0:
256,192,90255,1,0,0:0:0:0:
256,192,90373,1,8,0:0:0:0:
256,192,90490,1,8,0:0:0:0:
256,192,90608,1,0,0:0:0:0:
256,192,90726,1,8,0:0:0:0:
256,192,90843,1,4,0:0:0:0:
256,192,91196,1,4,0:0:0:0:
256,192,91549,1,4,0:0:0:0:
256,192,91902,1,12,0:0:0:0:
256,192,92255,1,0,0:0:0:0:
256,192,92373,1,0,0:0:0:0:
256,192,92490,1,8,0:0:0:0:
256,192,92608,1,8,0:0:0:0:
256,192,92726,1,0,0:0:0:0:
256,192,92843,1,8,0:0:0:0:
256,192,92961,1,0,0:0:0:0:
256,192,93079,1,0,0:0:0:0:
256,192,93196,1,8,0:0:0:0:
256,192,93314,1,8,0:0:0:0:
256,192,93432,1,0,0:0:0:0:
256,192,93549,1,8,0:0:0:0:
256,192,93667,1,0,0:0:0:0:
256,192,93785,1,0,0:0:0:0:
256,192,93902,1,8,0:0:0:0:
256,192,94020,1,8,0:0:0:0:
256,192,94138,1,0,0:0:0:0:
256,192,94255,1,0,0:0:0:0:
256,192,94373,1,8,0:0:0:0:
256,192,94490,1,0,0:0:0:0:
256,192,94608,1,8,0:0:0:0:
256,192,94726,1,0,0:0:0:0:
256,192,94843,1,0,0:0:0:0:
256,192,94961,1,0,0:0:0:0:
256,192,95079,1,8,0:0:0:0:
256,192,95196,1,8,0:0:0:0:
256,192,95314,1,8,0:0:0:0:
256,192,95432,1,0,0:0:0:0:
256,192,95549,1,8,0:0:0:0:
256,192,95667,1,8,0:0:0:0:
256,192,95785,1,0,0:0:0:0:
256,192,95902,1,8,0:0:0:0:
256,192,96020,1,0,0:0:0:0:
256,192,96138,1,8,0:0:0:0:
256,192,96255,1,8,0:0:0:0:
256,192,96373,1,0,0:0:0:0:
256,192,96490,1,8,0:0:0:0:
256,192,96608,1,0,0:0:0:0:
256,192,96726,1,0,0:0:0:0:
256,192,96843,1,8,0:0:0:0:
256,192,96961,1,8,0:0:0:0:
256,192,97079,1,8,0:0:0:0:
256,192,97196,1,0,0:0:0:0:
256,192,97314,1,0,0:0:0:0:
256,192,97432,1,0,0:0:0:0:
256,192,97549,1,12,0:0:0:0:
256,192,97902,1,4,0:0:0:0:
256,192,98138,1,8,0:0:0:0:
256,192,98373,1,8,0:0:0:0:
256,192,98608,1,0,0:0:0:0:
256,192,98843,1,8,0:0:0:0:
256,192,99079,1,0,0:0:0:0:
256,192,99314,1,8,0:0:0:0:
256,192,99549,1,8,0:0:0:0:
256,192,99785,1,8,0:0:0:0:
256,192,100020,1,0,0:0:0:0:
256,192,100373,1,8,0:0:0:0:
256,192,100608,1,8,0:0:0:0:
256,192,100726,1,0,0:0:0:0:
256,192,100961,1,8,0:0:0:0:
256,192,101196,1,8,0:0:0:0:
256,192,101432,1,0,0:0:0:0:
256,192,101667,1,8,0:0:0:0:
256,192,101902,1,0,0:0:0:0:
256,192,102138,1,8,0:0:0:0:
256,192,102373,1,8,0:0:0:0:
256,192,102608,1,8,0:0:0:0:
256,192,102843,1,0,0:0:0:0:
256,192,103373,1,0,0:0:0:0:
256,192,103549,1,12,0:0:0:0:
256,192,103814,1,8,0:0:0:0:
256,192,103902,1,0,0:0:0:0:
256,192,104079,1,0,0:0:0:0:
256,192,104255,1,8,0:0:0:0:
256,192,104520,1,0,0:0:0:0:
256,192,104608,1,0,0:0:0:0:
256,192,104785,1,0,0:0:0:0:
256,192,104961,1,8,0:0:0:0:
256,192,105226,1,8,0:0:0:0:
256,192,105314,1,0,0:0:0:0:
256,192,105490,1,0,0:0:0:0:
256,192,105667,1,8,0:0:0:0:
256,192,105932,1,8,0:0:0:0:
256,192,106020,1,8,0:0:0:0:
256,192,106196,1,0,0:0:0:0:
256,192,106373,1,8,0:0:0:0:
256,192,106549,1,8,0:0:0:0:
256,192,106726,1,0,0:0:0:0:
256,192,106902,1,0,0:0:0:0:
256,192,107079,1,8,0:0:0:0:
256,192,107167,1,8,0:0:0:0:
256,192,107255,1,0,0:0:0:0:
256,192,107343,1,0,0:0:0:0:
256,192,107432,1,8,0:0:0:0:
256,192,107520,1,0,0:0:0:0:
256,192,107608,1,8,0:0:0:0:
256,192,107696,1,8,0:0:0:0:
256,192,107785,1,0,0:0:0:0:
256,192,108490,1,8,0:0:0:0:
256,192,108579,1,8,0:0:0:0:
256,192,108667,1,0,0:0:0:0:
256,192,108755,1,0,0:0:0:0:
256,192,108843,1,12,0:0:0:0:
256,192,109196,1,4,0:0:0:0:
256,192,109373,1,8,0:0:0:0:
256,192,109461,1,0,0:0:0:0:
256,192,109549,1,8,0:0:0:0:
256,192,109726,1,8,0:0:0:0:
256,192,109814,1,0,0:0:0:0:
256,192,109990,1,8,0:0:0:0:
256,192,110079,1,0,0:0:0:0:
256,192,110167,1,0,0:0:0:0:
256,192,110255,1,8,0:0:0:0:
256,192,110432,1,8,0:0:0:0:
256,192,110520,1,0,0:0:0:0:
256,192,110696,1,0,0:0:0:0:
256,192,110785,1,8,0:0:0:0:
256,192,110873,1,0,0:0:0:0:
256,192,110961,1,8,0:0:0:0:
256,192,111138,1,8,0:0:0:0:
256,192,111226,1,0,0:0:0:0:
256,192,111314,1,0,0:0:0:0:
256,192,111402,1,8,0:0:0:0:
256,192,111490,1,0,0:0:0:0:
256,192,111579,1,0,0:0:0:0:
256,192,111667,1,8,0:0:0:0:
256,192,111843,1,0,0:0:0:0:
256,192,112020,1,8,0:0:0:0:
256,192,112196,1,8,0:0:0:0:
256,192,112285,1,8,0:0:0:0:
256,192,112373,1,0,0:0:0:0:
256,192,112461,1,8,0:0:0:0:
256,192,112638,1,8,0:0:0:0:
256,192,112726,1,0,0:0:0:0:
256,192,112814,1,8,0:0:0:0:
256,192,112902,1,8,0:0:0:0:
256,192,112990,1,8,0:0:0:0:
256,192,113079,1,0,0:0:0:0:
256,192,113255,1,0,0:0:0:0:
256,192,113432,1,8,0:0:0:0:
256,192,113520,1,0,0:0:0:0:
256,192,113608,1,0,0:0:0:0:
256,192,113696,1,0,0:0:0:0:
256,192,113785,1,8,0:0:0:0:
256,192,113961,1,8,0:0:0:0:
256,192,114049,1,0,0:0:0:0:
256,192,114226,1,8,0:0:0:0:
256,192,114314,1,0,0:0:0:0:
256,192,114490,1,8,0:0:0:0:
256,192,114579,1,8,0:0:0:0:
256,192,114667,1,0,0:0:0:0:
256,192,114755,1,0,0:0:0:0:
256,192,114843,1,8,0:0:0:0:
256,192,115020,1,0,0:0:0:0:
256,192,115108,1,0,0:0:0:0:
256,192,115196,1,8,0:0:0:0:
256,192,115373,1,8,0:0:0:0:
256,192,115461,1,0,0:0:0:0:
256,192,115638,1,8,0:0:0:0:
256,192,115726,1,0,0:0:0:0:
256,192,115814,1,0,0:0:0:0:
256,192,115902,1,8,0:0:0:0:
256,192,116079,1,0,0:0:0:0:
256,192,116167,1,8,0:0:0:0:
256,192,116343,1,0,0:0:0:0:
256,192,116432,1,0,0:0:0:0:
256,192,116520,1,0,0:0:0:0:
256,192,116608,1,8,0:0:0:0:
256,192,116696,1,8,0:0:0:0:
256,192,116785,1,8,0:0:0:0:
256,192,116873,1,0,0:0:0:0:
256,192,117049,1,0,0:0:0:0:
256,192,117138,1,0,0:0:0:0:
256,192,117226,1,8,0:0:0:0:
256,192,117314,1,8,0:0:0:0:
256,192,117490,1,0,0:0:0:0:
256,192,117667,1,8,0:0:0:0:
256,192,117755,1,8,0:0:0:0:
256,192,117843,1,0,0:0:0:0:
256,192,117932,1,8,0:0:0:0:
256,192,118020,1,8,0:0:0:0:
256,192,118108,1,0,0:0:0:0:
256,192,118285,1,0,0:0:0:0:
256,192,118373,1,8,0:0:0:0:
256,192,118461,1,0,0:0:0:0:
256,192,118549,1,0,0:0:0:0:
256,192,118638,1,0,0:0:0:0:
256,192,118726,1,8,0:0:0:0:
256,192,118902,1,0,0:0:0:0:
256,192,119079,1,8,0:0:0:0:
256,192,119343,1,0,0:0:0:0:
256,192,119520,1,0,0:0:0:0:
256,192,119608,1,8,0:0:0:0:
256,192,119873,1,8,0:0:0:0:
256,192,119961,1,0,0:0:0:0:
256,192,120138,1,12,0:0:0:0:
256,192,120490,1,0,0:0:0:0:
256,192,120667,1,0,0:0:0:0:
256,192,120726,1,0,0:0:0:0:
256,192,120785,1,0,0:0:0:0:
256,192,120843,1,8,0:0:0:0:
256,192,121020,1,8,0:0:0:0:
256,192,121108,1,0,0:0:0:0:
256,192,121196,1,8,0:0:0:0:
256,192,121285,1,8,0:0:0:0:
256,192,121373,1,0,0:0:0:0:
256,192,121461,1,0,0:0:0:0:
256,192,121549,1,8,0:0:0:0:
256,192,121726,1,8,0:0:0:0:
256,192,121814,1,0,0:0:0:0:
256,192,121902,1,8,0:0:0:0:
256,192,122079,1,0,0:0:0:0:
256,192,122255,1,8,0:0:0:0:
256,192,122343,1,8,0:0:0:0:
256,192,122432,1,0,0:0:0:0:
256,192,122520,1,8,0:0:0:0:
256,192,122608,1,0,0:0:0:0:
256,192,122696,1,0,0:0:0:0:
256,192,122785,1,8,0:0:0:0:
256,192,122961,1,8,0:0:0:0:
256,192,123049,1,0,0:0:0:0:
256,192,123138,1,8,0:0:0:0:
256,192,123314,1,0,0:0:0:0:
256,192,123490,1,0,0:0:0:0:
256,192,123579,1,0,0:0:0:0:
256,192,123667,1,8,0:0:0:0:
256,192,123843,1,8,0:0:0:0:
256,192,123932,1,8,0:0:0:0:
256,192,124020,1,0,0:0:0:0:
256,192,124108,1,0,0:0:0:0:
256,192,124196,1,8,0:0:0:0:
256,192,124285,1,8,0:0:0:0:
256,192,124373,1,0,0:0:0:0:
256,192,124549,1,0,0:0:0:0:
256,192,124726,1,8,0:0:0:0:
256,192,124814,1,8,0:0:0:0:
256,192,124902,1,0,0:0:0:0:
256,192,124990,1,8,0:0:0:0:
256,192,125079,1,0,0:0:0:0:
256,192,125167,1,0,0:0:0:0:
256,192,125255,1,8,0:0:0:0:
256,192,125343,1,8,0:0:0:0:
256,192,125432,1,0,0:0:0:0:
256,192,125608,1,8,0:0:0:0:
256,192,125785,1,0,0:0:0:0:
256,192,125873,1,0,0:0:0:0:
256,192,125961,1,8,0:0:0:0:
256,192,126049,1,8,0:0:0:0:
256,192,126138,1,0,0:0:0:0:
256,192,126314,1,8,0:0:0:0:
256,192,126402,1,0,0:0:0:0:
256,192,126490,1,8,0:0:0:0:
256,192,126579,1,8,0:0:0:0:
256,192,126667,1,0,0:0:0:0:
256,192,126755,1,8,0:0:0:0:
256,192,126843,1,0,0:0:0:0:
256,192,127020,1,8,0:0:0:0:
256,192,127196,1,0,0:0:0:0:
256,192,127285,1,0,0:0:0:0:
256,192,127373,1,8,0:0:0:0:
256,192,127461,1,0,0:0:0:0:
256,192,127549,1,8,0:0:0:0:
256,192,127726,1,0,0:0:0:0:
256,192,127814,1,0,0:0:0:0:
256,192,127902,1,8,0:0:0:0:
256,192,127990,1,8,0:0:0:0:
256,192,128079,1,0,0:0:0:0:
256,192,128167,1,8,0:0:0:0:
256,192,128255,1,0,0:0:0:0:
256,192,128432,1,0,0:0:0:0:
256,192,128608,1,8,0:0:0:0:
256,192,128785,1,0,0:0:0:0:
256,192,128873,1,0,0:0:0:0:
256,192,128961,1,8,0:0:0:0:
256,192,129138,1,0,0:0:0:0:
256,192,129226,1,8,0:0:0:0:
256,192,129314,1,0,0:0:0:0:
256,192,129402,1,8,0:0:0:0:
256,192,129579,1,8,0:0:0:0:
256,192,129667,1,0,0:0:0:0:
256,192,129755,1,0,0:0:0:0:
256,192,129843,1,8,0:0:0:0:
256,192,129932,1,0,0:0:0:0:
256,192,130020,1,8,0:0:0:0:
256,192,130196,1,8,0:0:0:0:
256,192,130285,1,8,0:0:0:0:
256,192,130373,1,0,0:0:0:0:
256,192,130638,1,0,0:0:0:0:
256,192,130814,1,0,0:0:0:0:
256,192,130902,1,8,0:0:0:0:
256,192,131079,1,8,0:0:0:0:
256,192,131167,1,8,0:0:0:0:
256,192,131255,1,0,0:0:0:0:
256,192,131343,1,0,0:0:0:0:
256,192,131432,1,12,0:0:0:0:
256,192,131785,1,4,0:0:0:0:
256,192,132138,1,8,0:0:0:0:
256,192,132314,1,0,0:0:0:0:
256,192,132402,1,8,0:0:0:0:
256,192,132579,1,8,0:0:0:0:
256,192,132667,1,8,0:0:0:0:
256,192,132932,1,8,0:0:0:0:
256,192,133020,1,8,0:0:0:0:
256,192,133108,1,8,0:0:0:0:
256,192,133196,1,0,0:0:0:0:
256,192,133549,1,8,0:0:0:0:
256,192,133726,1,0,0:0:0:0:
256,192,133990,1,8,0:0:0:0:
256,192,134079,1,8,0:0:0:0:
256,192,134255,1,0,0:0:0:0:
256,192,134343,1,8,0:0:0:0:
256,192,134432,1,8,0:0:0:0:
256,192,134520,1,8,0:0:0:0:
256,192,134608,1,4,0:0:0:0:
256,192,134961,1,8,0:0:0:0:
256,192,135138,1,0,0:0:0:0:
256,192,135226,1,8,0:0:0:0:
256,192,135402,1,8,0:0:0:0:
256,192,135490,1,8,0:0:0:0:
256,192,135755,1,8,0:0:0:0:
256,192,135843,1,0,0:0:0:0:
256,192,135932,1,8,0:0:0:0:
256,192,136020,1,8,0:0:0:0:
256,192,136285,1,8,0:0:0:0:
256,192,136373,1,8,0:0:0:0:
256,192,136549,1,0,0:0:0:0:
256,192,136638,1,0,0:0:0:0:
256,192,136726,1,8,0:0:0:0:
256,192,136814,1,8,0:0:0:0:
256,192,136902,1,0,0:0:0:0:
256,192,137079,1,8,0:0:0:0:
256,192,137432,1,4,0:0:0:0:
256,192,137608,1,0,0:0:0:0:
256,192,137785,1,8,0:0:0:0:
256,192,137961,1,0,0:0:0:0:
256,192,138049,1,8,0:0:0:0:
256,192,138138,1,0,0:0:0:0:
256,192,138226,1,8,0:0:0:0:
256,192,138314,1,8,0:0:0:0:
256,192,138490,1,0,0:0:0:0:
256,192,138579,1,0,0:0:0:0:
256,192,138667,1,8,0:0:0:0:
256,192,138755,1,8,0:0:0:0:
256,192,138843,1,4,0:0:0:0:
256,192,139020,1,0,0:0:0:0:
256,192,139196,1,8,0:0:0:0:
256,192,139373,1,0,0:0:0:0:
256,192,139549,1,8,0:0:0:0:
256,192,139638,1,8,0:0:0:0:
256,192,139726,1,0,0:0:0:0:
256,192,139902,1,0,0:0:0:0:
256,192,139990,1,8,0:0:0:0:
256,192,140079,1,8,0:0:0:0:
256,192,140167,1,8,0:0:0:0:
256,192,140255,1,4,0:0:0:0:
256,192,140432,1,0,0:0:0:0:
256,192,140608,1,8,0:0:0:0:
256,192,140785,1,0,0:0:0:0:
256,192,140873,1,8,0:0:0:0:
256,192,140961,1,8,0:0:0:0:
256,192,141049,1,0,0:0:0:0:
256,192,141138,1,8,0:0:0:0:
256,192,141226,1,0,0:0:0:0:
256,192,141314,1,8,0:0:0:0:
256,192,141402,1,8,0:0:0:0:
256,192,141490,1,0,0:0:0:0:
256,192,141667,1,8,0:0:0:0:
256,192,141755,1,0,0:0:0:0:
256,192,141843,1,0,0:0:0:0:
256,192,141932,1,8,0:0:0:0:
256,192,142020,1,0,0:0:0:0:
256,192,142108,1,0,0:0:0:0:
256,192,142196,1,8,0:0:0:0:
256,192,142726,1,12,0:0:0:0:
256,192,143079,1,4,0:0:0:0:
256,192,143255,1,8,0:0:0:0:
256,192,143343,1,0,0:0:0:0:
256,192,143432,1,8,0:0:0:0:
256,192,143608,1,8,0:0:0:0:
256,192,143696,1,0,0:0:0:0:
256,192,143785,1,0,0:0:0:0:
256,192,143873,1,8,0:0:0:0:
256,192,143961,1,0,0:0:0:0:
256,192,144049,1,0,0:0:0:0:
256,192,144138,1,8,0:0:0:0:
256,192,144314,1,8,0:0:0:0:
256,192,144402,1,0,0:0:0:0:
256,192,144579,1,0,0:0:0:0:
256,192,144667,1,8,0:0:0:0:
256,192,144755,1,0,0:0:0:0:
256,192,144843,1,8,0:0:0:0:
256,192,145020,1,8,0:0:0:0:
256,192,145108,1,8,0:0:0:0:
256,192,145196,1,0,0:0:0:0:
256,192,145285,1,0,0:0:0:0:
256,192,145373,1,8,0:0:0:0:
256,192,145461,1,0,0:0:0:0:
256,192,145549,1,8,0:0:0:0:
256,192,145726,1,0,0:0:0:0:
256,192,145902,1,8,0:0:0:0:
256,192,146079,1,8,0:0:0:0:
256,192,146167,1,0,0:0:0:0:
256,192,146255,1,0,0:0:0:0:
256,192,146343,1,8,0:0:0:0:
256,192,146520,1,8,0:0:0:0:
256,192,146608,1,0,0:0:0:0:
256,192,146696,1,8,0:0:0:0:
256,192,146785,1,8,0:0:0:0:
256,192,146873,1,8,0:0:0:0:
256,192,146961,1,0,0:0:0:0:
256,192,147138,1,0,0:0:0:0:
256,192,147314,1,8,0:0:0:0:
256,192,147402,1,0,0:0:0:0:
256,192,147490,1,0,0:0:0:0:
256,192,147579,1,0,0:0:0:0:
256,192,147667,1,8,0:0:0:0:
256,192,147843,1,8,0:0:0:0:
256,192,147932,1,8,0:0:0:0:
256,192,148020,1,0,0:0:0:0:
256,192,148108,1,8,0:0:0:0:
256,192,148196,1,8,0:0:0:0:
256,192,148285,1,0,0:0:0:0:
256,192,148373,1,8,0:0:0:0:
256,192,148549,1,0,0:0:0:0:
256,192,148638,1,0,0:0:0:0:
256,192,148726,1,8,0:0:0:0:
256,192,148902,1,8,0:0:0:0:
256,192,148990,1,0,0:0:0:0:
256,192,149079,1,8,0:0:0:0:
256,192,149167,1,8,0:0:0:0:
256,192,149255,1,8,0:0:0:0:
256,192,149343,1,0,0:0:0:0:
256,192,149520,1,8,0:0:0:0:
256,192,149608,1,0,0:0:0:0:
256,192,149696,1,0,0:0:0:0:
256,192,149785,1,8,0:0:0:0:
256,192,149961,1,8,0:0:0:0:
256,192,150049,1,0,0:0:0:0:
256,192,150226,1,0,0:0:0:0:
256,192,150314,1,0,0:0:0:0:
256,192,150402,1,0,0:0:0:0:
256,192,150490,1,8,0:0:0:0:
256,192,150579,1,8,0:0:0:0:
256,192,150667,1,8,0:0:0:0:
256,192,150755,1,0,0:0:0:0:
256,192,150932,1,0,0:0:0:0:
256,192,151020,1,0,0:0:0:0:
256,192,151108,1,8,0:0:0:0:
256,192,151196,1,8,0:0:0:0:
256,192,151373,1,0,0:0:0:0:
256,192,151549,1,8,0:0:0:0:
256,192,151638,1,0,0:0:0:0:
256,192,151726,1,0,0:0:0:0:
256,192,151814,1,8,0:0:0:0:
256,192,151902,1,0,0:0:0:0:
256,192,151990,1,8,0:0:0:0:
256,192,152167,1,8,0:0:0:0:
256,192,152255,1,0,0:0:0:0:
256,192,152343,1,8,0:0:0:0:
256,192,152432,1,0,0:0:0:0:
256,192,152520,1,0,0:0:0:0:
256,192,152608,1,8,0:0:0:0:
256,192,152785,1,0,0:0:0:0:
256,192,152961,1,8,0:0:0:0:
256,192,153226,1,0,0:0:0:0:
256,192,153402,1,0,0:0:0:0:
256,192,153490,1,8,0:0:0:0:
256,192,153755,1,8,0:0:0:0:
256,192,153843,1,0,0:0:0:0:
256,192,154020,1,12,0:0:0:0:
256,192,154373,1,0,0:0:0:0:
256,192,154549,1,0,0:0:0:0:
256,192,154608,1,0,0:0:0:0:
256,192,154667,1,0,0:0:0:0:
256,192,154726,1,8,0:0:0:0:
256,192,154902,1,0,0:0:0:0:
256,192,154990,1,0,0:0:0:0:
256,192,155079,1,8,0:0:0:0:
256,192,155167,1,0,0:0:0:0:
256,192,155255,1,8,0:0:0:0:
256,192,155343,1,8,0:0:0:0:
256,192,155432,1,0,0:0:0:0:
256,192,155608,1,0,0:0:0:0:
256,192,155696,1,0,0:0:0:0:
256,192,155785,1,8,0:0:0:0:
256,192,155961,1,8,0:0:0:0:
256,192,156049,1,0,0:0:0:0:
256,192,156138,1,8,0:0:0:0:
256,192,156226,1,8,0:0:0:0:
256,192,156314,1,0,0:0:0:0:
256,192,156402,1,0,0:0:0:0:
256,192,156490,1,8,0:0:0:0:
256,192,156579,1,0,0:0:0:0:
256,192,156667,1,8,0:0:0:0:
256,192,156843,1,8,0:0:0:0:
256,192,156932,1,0,0:0:0:0:
256,192,157020,1,8,0:0:0:0:
256,192,157196,1,0,0:0:0:0:
256,192,157373,1,0,0:0:0:0:
256,192,157461,1,0,0:0:0:0:
256,192,157549,1,8,0:0:0:0:
256,192,157638,1,0,0:0:0:0:
256,192,157726,1,8,0:0:0:0:
256,192,157814,1,8,0:0:0:0:
256,192,157902,1,0,0:0:0:0:
256,192,157990,1,8,0:0:0:0:
256,192,158079,1,0,0:0:0:0:
256,192,158167,1,0,0:0:0:0:
256,192,158255,1,8,0:0:0:0:
256,192,158432,1,0,0:0:0:0:
256,192,158520,1,0,0:0:0:0:
256,192,158608,1,8,0:0:0:0:
256,192,158785,1,8,0:0:0:0:
256,192,158873,1,0,0:0:0:0:
256,192,158961,1,8,0:0:0:0:
256,192,159049,1,8,0:0:0:0:
256,192,159138,1,0,0:0:0:0:
256,192,159226,1,8,0:0:0:0:
256,192,159314,1,0,0:0:0:0:
256,192,159490,1,8,0:0:0:0:
256,192,159667,1,0,0:0:0:0:
256,192,159755,1,0,0:0:0:0:
256,192,159843,1,8,0:0:0:0:
256,192,159932,1,8,0:0:0:0:
256,192,160020,1,0,0:0:0:0:
256,192,160196,1,8,0:0:0:0:
256,192,160285,1,0,0:0:0:0:
256,192,160373,1,8,0:0:0:0:
256,192,160461,1,8,0:0:0:0:
256,192,160549,1,0,0:0:0:0:
256,192,160638,1,8,0:0:0:0:
256,192,160726,1,0,0:0:0:0:
256,192,160902,1,8,0:0:0:0:
256,192,161079,1,0,0:0:0:0:
256,192,161167,1,8,0:0:0:0:
256,192,161255,1,8,0:0:0:0:
256,192,161343,1,8,0:0:0:0:
256,192,161432,1,0,0:0:0:0:
256,192,161608,1,0,0:0:0:0:
256,192,161696,1,0,0:0:0:0:
256,192,161785,1,8,0:0:0:0:
256,192,161873,1,0,0:0:0:0:
256,192,161961,1,8,0:0:0:0:
256,192,162049,1,8,0:0:0:0:
256,192,162138,1,0,0:0:0:0:
256,192,162314,1,0,0:0:0:0:
256,192,162490,1,8,0:0:0:0:
256,192,162667,1,0,0:0:0:0:
256,192,162755,1,0,0:0:0:0:
256,192,162843,1,8,0:0:0:0:
256,192,163020,1,0,0:0:0:0:
256,192,163108,1,8,0:0:0:0:
256,192,163196,1,0,0:0:0:0:
256,192,163285,1,8,0:0:0:0:
256,192,163461,1,8,0:0:0:0:
256,192,163549,1,0,0:0:0:0:
256,192,163638,1,8,0:0:0:0:
256,192,163726,1,8,0:0:0:0:
256,192,163814,1,0,0:0:0:0:
256,192,163902,1,8,0:0:0:0:
256,192,163990,1,8,0:0:0:0:
256,192,164079,1,0,0:0:0:0:
256,192,164167,1,8,0:0:0:0:
256,192,164255,1,0,0:0:0:0:
256,192,164520,1,0,0:0:0:0:
256,192,164696,1,0,0:0:0:0:
256,192,164785,1,8,0:0:0:0:
256,192,164961,1,8,0:0:0:0:
256,192,165049,1,8,0:0:0:0:
256,192,165138,1,0,0:0:0:0:
256,192,165226,1,0,0:0:0:0:
256,192,165314,1,12,0:0:0:0:
256,192,165667,1,0,0:0:0:0:
256,192,165843,1,8,0:0:0:0:
256,192,166020,1,0,0:0:0:0:
256,192,166196,1,0,0:0:0:0:
256,192,166373,1,8,0:0:0:0:
256,192,166549,1,8,0:0:0:0:
256,192,166638,1,0,0:0:0:0:
256,192,166726,1,8,0:0:0:0:
256,192,166902,1,8,0:0:0:0:
256,192,167079,1,0,0:0:0:0:
256,192,167255,1,8,0:0:0:0:
256,192,167432,1,0,0:0:0:0:
256,192,167608,1,0,0:0:0:0:
256,192,167785,1,8,0:0:0:0:
256,192,167961,1,8,0:0:0:0:
256,192,168020,1,8,0:0:0:0:
256,192,168079,1,8,0:0:0:0:
256,192,168138,1,0,0:0:0:0:
256,192,168314,1,8,0:0:0:0:
256,192,168490,1,0,0:0:0:0:
256,192,168667,1,8,0:0:0:0:
256,192,168843,1,0,0:0:0:0:
256,192,169020,1,0,0:0:0:0:
256,192,169196,1,8,0:0:0:0:
256,192,169285,1,0,0:0:0:0:
256,192,169373,1,8,0:0:0:0:
256,192,169549,1,0,0:0:0:0:
256,192,169726,1,0,0:0:0:0:
256,192,169902,1,8,0:0:0:0:
256,192,169990,1,0,0:0:0:0:
256,192,170079,1,0,0:0:0:0:
256,192,170167,1,8,0:0:0:0:
256,192,170343,1,0,0:0:0:0:
256,192,170432,1,8,0:0:0:0:
256,192,170608,1,0,0:0:0:0:
256,192,170696,1,8,0:0:0:0:
256,192,170785,1,0,0:0:0:0:
256,192,170873,1,0,0:0:0:0:
256,192,170961,1,8,0:0:0:0:
256,192,171314,1,0,0:0:0:0:
256,192,171490,1,8,0:0:0:0:
256,192,171579,1,8,0:0:0:0:
256,192,171667,1,0,0:0:0:0:
256,192,171843,1,0,0:0:0:0:
256,192,172020,1,8,0:0:0:0:
256,192,172196,1,8,0:0:0:0:
256,192,172285,1,0,0:0:0:0:
256,192,172373,1,8,0:0:0:0:
256,192,172549,1,8,0:0:0:0:
256,192,172726,1,0,0:0:0:0:
256,192,172902,1,8,0:0:0:0:
256,192,172990,1,8,0:0:0:0:
256,192,173079,1,0,0:0:0:0:
256,192,173255,1,0,0:0:0:0:
256,192,173432,1,8,0:0:0:0:
256,192,173608,1,8,0:0:0:0:
256,192,173667,1,8,0:0:0:0:
256,192,173726,1,8,0:0:0:0:
256,192,173785,1,0,0:0:0:0:
256,192,173961,1,8,0:0:0:0:
256,192,174138,1,0,0:0:0:0:
256,192,174314,1,8,0:0:0:0:
256,192,174402,1,8,0:0:0:0:
256,192,174490,1,0,0:0:0:0:
256,192,174667,1,0,0:0:0:0:
256,192,174843,1,8,0:0:0:0:
256,192,174932,1,0,0:0:0:0:
256,192,175020,1,8,0:0:0:0:
256,192,175196,1,0,0:0:0:0:
256,192,175373,1,0,0:0:0:0:
256,192,175549,1,8,0:0:0:0:
256,192,175638,1,0,0:0:0:0:
256,192,175726,1,0,0:0:0:0:
256,192,175814,1,8,0:0:0:0:
256,192,175990,1,0,0:0:0:0:
256,192,176079,1,8,0:0:0:0:
256,192,176167,1,0,0:0:0:0:
256,192,176255,1,0,0:0:0:0:
256,192,176343,1,8,0:0:0:0:
256,192,176432,1,0,0:0:0:0:
256,192,176520,1,0,0:0:0:0:
256,192,176608,1,8,0:0:0:0:
256,192,176961,1,0,0:0:0:0:
256,192,177049,1,0,0:0:0:0:
256,192,177138,1,8,0:0:0:0:
256,192,177226,1,8,0:0:0:0:
256,192,177314,1,0,0:0:0:0:
256,192,177490,1,0,0:0:0:0:
256,192,177667,1,8,0:0:0:0:
256,192,177843,1,8,0:0:0:0:
256,192,177932,1,0,0:0:0:0:
256,192,178020,1,8,0:0:0:0:
256,192,178196,1,8,0:0:0:0:
256,192,178373,1,0,0:0:0:0:
256,192,178461,1,0,0:0:0:0:
256,192,178549,1,8,0:0:0:0:
256,192,178638,1,8,0:0:0:0:
256,192,178726,1,0,0:0:0:0:
256,192,178902,1,0,0:0:0:0:
256,192,179079,1,8,0:0:0:0:
256,192,179255,1,8,0:0:0:0:
256,192,179314,1,8,0:0:0:0:
256,192,179373,1,8,0:0:0:0:
256,192,179432,1,0,0:0:0:0:
256,192,179608,1,8,0:0:0:0:
256,192,179785,1,0,0:0:0:0:
256,192,179873,1,0,0:0:0:0:
256,192,179961,1,8,0:0:0:0:
256,192,180049,1,8,0:0:0:0:
256,192,180138,1,0,0:0:0:0:
256,192,180314,1,0,0:0:0:0:
256,192,180490,1,8,0:0:0:0:
256,192,180579,1,0,0:0:0:0:
256,192,180667,1,8,0:0:0:0:
256,192,180843,1,0,0:0:0:0:
256,192,181020,1,0,0:0:0:0:
256,192,181196,1,8,0:0:0:0:
256,192,181285,1,0,0:0:0:0:
256,192,181373,1,0,0:0:0:0:
256,192,181461,1,8,0:0:0:0:
256,192,181549,1,0,0:0:0:0:
256,192,181638,1,0,0:0:0:0:
256,192,181726,1,8,0:0:0:0:
256,192,181814,1,0,0:0:0:0:
256,192,181902,1,0,0:0:0:0:
256,192,181990,1,8,0:0:0:0:
256,192,182079,1,0,0:0:0:0:
256,192,182167,1,0,0:0:0:0:
256,192,182255,1,8,0:0:0:0:
256,192,182608,1,0,0:0:0:0:
256,192,182696,1,0,0:0:0:0:
256,192,182785,1,8,0:0:0:0:
256,192,182873,1,8,0:0:0:0:
256,192,182961,1,0,0:0:0:0:
256,192,183138,1,0,0:0:0:0:
256,192,183226,1,0,0:0:0:0:
256,192,183314,1,8,0:0:0:0:
256,192,183402,1,0,0:0:0:0:
256,192,183490,1,8,0:0:0:0:
256,192,183579,1,8,0:0:0:0:
256,192,183667,1,0,0:0:0:0:
256,192,183755,1,0,0:0:0:0:
256,192,183843,1,8,0:0:0:0:
256,192,184020,1,0,0:0:0:0:
256,192,184108,1,8,0:0:0:0:
256,192,184196,1,8,0:0:0:0:
256,192,184285,1,8,0:0:0:0:
256,192,184373,1,0,0:0:0:0:
256,192,184549,1,0,0:0:0:0:
256,192,184638,1,0,0:0:0:0:
256,192,184726,1,8,0:0:0:0:
256,192,184902,1,8,0:0:0:0:
256,192,184961,1,8,0:0:0:0:
256,192,185020,1,8,0:0:0:0:
256,192,185079,1,0,0:0:0:0:
256,192,185255,1,8,0:0:0:0:
256,192,185432,1,0,0:0:0:0:
256,192,185520,1,0,0:0:0:0:
256,192,185608,1,8,0:0:0:0:
256,192,185696,1,0,0:0:0:0:
256,192,185785,1,8,0:0:0:0:
256,192,185873,1,8,0:0:0:0:
256,192,185961,1,0,0:0:0:0:
256,192,186049,1,0,0:0:0:0:
256,192,186138,1,8,0:0:0:0:
256,192,186314,1,8,0:0:0:0:
256,192,186402,1,0,0:0:0:0:
256,192,186490,1,8,0:0:0:0:
256,192,186667,1,0,0:0:0:0:
256,192,186843,1,8,0:0:0:0:
256,192,186932,1,0,0:0:0:0:
256,192,187020,1,0,0:0:0:0:
256,192,187108,1,8,0:0:0:0:
256,192,187196,1,0,0:0:0:0:
256,192,187285,1,0,0:0:0:0:
256,192,187373,1,8,0:0:0:0:
256,192,187461,1,0,0:0:0:0:
256,192,187549,1,0,0:0:0:0:
256,192,187638,1,8,0:0:0:0:
256,192,187726,1,0,0:0:0:0:
256,192,187814,1,0,0:0:0:0:
256,192,187902,1,8,0:0:0:0:
256,192,187990,1,8,0:0:0:0:
256,192,188079,1,8,0:0:0:0:
256,192,188167,1,8,0:0:0:0:
256,192,188255,1,0,0:0:0:0:
