osu file format v14

[General]
AudioFilename: audio.mp3
AudioLeadIn: 0
PreviewTime: 108314
Countdown: 0
SampleSet: Normal
StackLeniency: 0
Mode: 1
LetterboxInBreaks: 0
WidescreenStoryboard: 1

[Editor]
Bookmarks: 498,7556,18850,30145,41439,64027,75321,86615,90850,91203,91556,91909,92262,97909,109203,131792,143079,165674,167086,168497,169909,171321,172733,174145,175556,176968,177674,178380,179086,179792,180497,181203,181909,182615,182968,183321
DistanceSpacing: 1.2
BeatDivisor: 4
GridSize: 32
TimelineZoom: 1.600001

[Metadata]
Title:REFLECT (Assertive Hardcore Bootleg)
TitleUnicode:REFLECT (Assertive Hardcore Bootleg)
Artist:Gawr Gura
ArtistUnicode:Gawr Gura
Creator:Ph0eNiiXZ
Version:3x's Oni
Source:
Tags:phoenix phoeniixz [R] ron xtrem3x Maimaing Dtnt0r dtn japanese electronic pop j-core jcore j-pop jpop Hardcore Farhan Sarasin Neko Hacker Assertive bootleg remix がうる ぐら vtuber virtual youtuber holoen hololive english EN hololiveEN cover
BeatmapID:3247542
BeatmapSetID:1587010

[Difficulty]
HPDrainRate:5
CircleSize:4.5
OverallDifficulty:5
ApproachRate:5
SliderMultiplier:1.4
SliderTickRate:1

[Events]
//Background and Video events
0,0,"Reflect.jpg",0,50
//Break Periods
2,98102,102349
//Storyboard Layer 0 (Background)
//Storyboard Layer 1 (Fail)
//Storyboard Layer 2 (Pass)
//Storyboard Layer 3 (Foreground)
//Storyboard Layer 4 (Overlay)
//Storyboard Sound Samples

[TimingPoints]
491,352.941176470588,4,1,0,50,1,0
7549,-100,4,1,0,80,0,0
30138,-125,4,1,0,80,0,0
35785,-142.857142857143,4,1,0,80,0,0
36138,-140.845070422535,4,1,0,80,0,0
36314,-138.888888888889,4,1,0,80,0,0
36490,-136.986301369863,4,1,0,80,0,0
36843,-135.135135135135,4,1,0,80,0,0
37020,-133.333333333333,4,1,0,80,0,0
37196,-131.578947368421,4,1,0,80,0,0
37549,-129.87012987013,4,1,0,80,0,0
37726,-128.205128205128,4,1,0,80,0,0
37902,-126.582278481013,4,1,0,80,0,0
38255,-125,4,1,0,80,0,0
38432,-123.456790123457,4,1,0,80,0,0
38520,-121.951219512195,4,1,0,80,0,0
38608,-120.481927710843,4,1,0,80,0,0
38785,-117.647058823529,4,1,0,80,0,0
38961,-114.942528735632,4,1,0,80,0,0
39138,-112.359550561798,4,1,0,80,0,0
39314,-109.89010989011,4,1,0,80,0,0
39402,-107.52688172043,4,1,0,80,0,0
39490,-105.263157894737,4,1,0,80,0,0
39579,-103.092783505155,4,1,0,80,0,0
39667,-101.010101010101,4,1,0,80,0,0
39755,-99.009900990099,4,1,0,80,0,0
39843,-97.0873786407767,4,1,0,80,0,0
39932,-95.2380952380952,4,1,0,80,0,0
40020,-93.4579439252336,4,1,0,80,0,0
41432,-86.9565217391304,4,1,0,80,0,1
64020,-100,4,1,0,80,0,0
103549,-142.857142857143,4,1,0,80,0,0
103814,-140.845070422535,4,1,0,80,0,0
103902,-138.888888888889,4,1,0,80,0,0
104079,-136.986301369863,4,1,0,80,0,0
104255,-135.135135135135,4,1,0,80,0,0
104520,-133.333333333333,4,1,0,80,0,0
104608,-131.578947368421,4,1,0,80,0,0
104785,-129.87012987013,4,1,0,80,0,0
104961,-128.205128205128,4,1,0,80,0,0
105226,-126.582278481013,4,1,0,80,0,0
105314,-125,4,1,0,80,0,0
105490,-123.456790123457,4,1,0,80,0,0
105667,-121.951219512195,4,1,0,80,0,0
105932,-120.481927710843,4,1,0,80,0,0
106020,-119.047619047619,4,1,0,80,0,0
106196,-117.647058823529,4,1,0,80,0,0
106285,-116.279069767442,4,1,0,80,0,0
106373,-114.942528735632,4,1,0,80,0,0
106549,-113.636363636364,4,1,0,80,0,0
106726,-112.359550561798,4,1,0,80,0,0
106902,-111.111111111111,4,1,0,80,0,0
107079,-109.89010989011,4,1,0,80,0,0
107167,-107.52688172043,4,1,0,80,0,0
107255,-105.263157894737,4,1,0,80,0,0
107343,-103.092783505155,4,1,0,80,0,0
107432,-101.010101010101,4,1,0,80,0,0
107520,-99.009900990099,4,1,0,80,0,0
107608,-97.0873786407767,4,1,0,80,0,0
107696,-95.2380952380952,4,1,0,80,0,0
107785,-93.4579439252336,4,1,0,80,0,0
108490,-90.9090909090909,4,1,0,80,0,0
109196,-86.9565217391304,4,1,0,80,0,1
131785,-100,4,1,0,80,0,0
132138,-102.040816326531,4,1,0,80,0,0
132667,-104.166666666667,4,1,0,80,0,0
133196,-106.382978723404,4,1,0,80,0,0
133726,-108.695652173913,4,1,0,80,0,0
133902,-109.89010989011,4,1,0,80,0,0
134255,-111.111111111111,4,1,0,80,0,0
134608,-113.636363636364,4,1,0,80,0,0
134961,-116.279069767442,4,1,0,80,0,0
135490,-119.047619047619,4,1,0,80,0,0
135843,-125,4,1,0,80,0,0
136020,-128.205128205128,4,1,0,80,0,0
136373,-131.578947368421,4,1,0,80,0,0
136549,-135.135135135135,4,1,0,80,0,0
136902,-138.888888888889,4,1,0,80,0,0
137079,-142.857142857143,4,1,0,80,0,0
137432,-142.857142857143,4,1,0,80,0,0
137785,-140.845070422535,4,1,0,80,0,0
138138,-138.888888888889,4,1,0,80,0,0
138490,-136.986301369863,4,1,0,80,0,0
138843,-135.135135135135,4,1,0,80,0,0
139196,-131.578947368421,4,1,0,80,0,0
139549,-128.205128205128,4,1,0,80,0,0
139726,-125,4,1,0,80,0,0
139902,-121.951219512195,4,1,0,80,0,0
140255,-119.047619047619,4,1,0,80,0,0
140432,-117.647058823529,4,1,0,80,0,0
140608,-116.279069767442,4,1,0,80,0,0
140696,-114.942528735632,4,1,0,80,0,0
140785,-113.636363636364,4,1,0,80,0,0
140961,-112.359550561798,4,1,0,80,0,0
141138,-111.111111111111,4,1,0,80,0,0
141314,-109.89010989011,4,1,0,80,0,0
141402,-108.695652173913,4,1,0,80,0,0
141490,-107.52688172043,4,1,0,80,0,0
141667,-106.382978723404,4,1,0,80,0,0
141755,-104.166666666667,4,1,0,80,0,0
141843,-102.040816326531,4,1,0,80,0,0
142020,-100,4,1,0,80,0,0
142108,-98.0392156862745,4,1,0,80,0,0
142196,-96.1538461538461,4,1,0,80,0,0
142285,-94.3396226415094,4,1,0,80,0,0
143079,-86.9565217391304,4,1,0,80,0,1
165667,-100,4,1,0,80,0,0
182785,-99.009900990099,4,1,0,80,0,0
182873,-98.0392156862745,4,1,0,80,0,0
182961,-97.0873786407767,4,1,0,80,0,0
183138,-96.1538461538461,4,1,0,80,0,0
183314,-95.2380952380952,4,1,0,80,0,0
183402,-94.3396226415094,4,1,0,80,0,0
183490,-93.4579439252336,4,1,0,80,0,0
183667,-92.5925925925926,4,1,0,80,0,0
184020,-91.743119266055,4,1,0,80,0,0
184196,-90.9090909090909,4,1,0,80,0,0
184285,-90.0900900900901,4,1,0,80,0,0
184373,-89.2857142857143,4,1,0,80,0,0
184549,-88.4955752212389,4,1,0,80,0,0
184726,-87.719298245614,4,1,0,80,0,0
184902,-86.9565217391304,4,1,0,80,0,0
184990,-86.2068965517241,4,1,0,80,0,0
185079,-85.4700854700855,4,1,0,80,0,0
185255,-84.7457627118644,4,1,0,80,0,0
185432,-84.0336134453781,4,1,0,80,0,0
185608,-83.3333333333333,4,1,0,80,0,0
185785,-82.6446280991736,4,1,0,80,0,0
185961,-81.9672131147541,4,1,0,80,0,0
186138,-81.3008130081301,4,1,0,80,0,0
186226,-80.6451612903226,4,1,0,80,0,0
186314,-80,4,1,0,80,0,0
186490,-79.3650793650794,4,1,0,80,0,0
186667,-78.7401574803149,4,1,0,80,0,0
186843,-78.125,4,1,0,80,0,0
188079,-77.5193798449612,4,1,0,80,0,0
188255,-75.7575757575758,4,1,0,80,0,0

[HitObjects]
256,192,7549,5,4,0:0:0:0:
256,192,7726,1,8,0:0:0:0:
256,192,7902,1,0,0:0:0:0:
256,192,8255,1,8,0:0:0:0:
256,192,8432,1,0,0:0:0:0:
256,192,8608,1,8,0:0:0:0:
256,192,8961,1,0,0:0:0:0:
256,192,9138,1,8,0:0:0:0:
256,192,9314,1,0,0:0:0:0:
256,192,9667,1,8,0:0:0:0:
256,192,9843,1,8,0:0:0:0:
256,192,9932,1,8,0:0:0:0:
256,192,10020,1,0,0:0:0:0:
256,192,10196,1,0,0:0:0:0:
256,192,10373,1,0,0:0:0:0:
256,192,10549,1,8,0:0:0:0:
256,192,10726,1,0,0:0:0:0:
256,192,11079,1,8,0:0:0:0:
256,192,11167,1,8,0:0:0:0:
256,192,11255,1,8,0:0:0:0:
256,192,11432,1,0,0:0:0:0:
256,192,11608,1,0,0:0:0:0:
256,192,11785,1,8,0:0:0:0:
288,192,11961,1,0,0:0:0:0:
256,192,12049,1,8,0:0:0:0:
256,192,12314,1,8,0:0:0:0:
256,192,12490,1,0,0:0:0:0:
256,192,12579,1,8,0:0:0:0:
256,192,12843,1,8,0:0:0:0:
256,192,13196,1,0,0:0:0:0:
256,192,13373,1,0,0:0:0:0:
256,192,13549,1,8,0:0:0:0:
256,192,13902,1,8,0:0:0:0:
256,192,14079,1,0,0:0:0:0:
256,192,14255,1,8,0:0:0:0:
256,192,14608,1,0,0:0:0:0:
256,192,14785,1,0,0:0:0:0:
256,192,14961,1,8,0:0:0:0:
256,192,15314,1,0,0:0:0:0:
256,192,15490,1,8,0:0:0:0:
256,192,15579,1,8,0:0:0:0:
256,192,15667,1,8,0:0:0:0:
256,192,15843,1,0,0:0:0:0:
256,192,15932,1,0,0:0:0:0:
256,192,16020,1,8,0:0:0:0:
256,192,16196,1,0,0:0:0:0:
256,192,16373,1,8,0:0:0:0:
256,192,16726,1,8,0:0:0:0:
256,192,16814,1,8,0:0:0:0:
256,192,16902,1,0,0:0:0:0:
256,192,17079,1,8,0:0:0:0:
256,192,17255,1,0,0:0:0:0:
256,192,17343,1,0,0:0:0:0:
256,192,17432,1,8,0:0:0:0:
256,192,17608,1,0,0:0:0:0:
256,192,17696,1,8,0:0:0:0:
256,192,17961,1,8,0:0:0:0:
256,192,18138,1,0,0:0:0:0:
256,192,18226,1,8,0:0:0:0:
256,192,18490,1,12,0:0:0:0:
256,192,18843,5,4,0:0:0:0:
256,192,19196,1,0,0:0:0:0:
256,192,19373,1,8,0:0:0:0:
256,192,19549,1,0,0:0:0:0:
256,192,19902,1,0,0:0:0:0:
256,192,20079,1,0,0:0:0:0:
256,192,20167,1,0,0:0:0:0:
256,192,20255,1,8,0:0:0:0:
256,192,20432,1,8,0:0:0:0:
256,192,20520,1,8,0:0:0:0:
256,192,20785,1,8,0:0:0:0:
256,192,20961,1,0,0:0:0:0:
256,192,21138,1,8,0:0:0:0:
256,192,21226,1,8,0:0:0:0:
256,192,21490,1,8,0:0:0:0:
256,192,21667,1,0,0:0:0:0:
256,192,21932,1,0,0:0:0:0:
256,192,22020,1,0,0:0:0:0:
256,192,22196,1,8,0:0:0:0:
256,192,22373,1,0,0:0:0:0:
256,192,22726,1,0,0:0:0:0:
256,192,22902,1,8,0:0:0:0:
256,192,22990,1,8,0:0:0:0:
256,192,23079,1,8,0:0:0:0:
256,192,23255,1,8,0:0:0:0:
256,192,23343,1,0,0:0:0:0:
256,192,23432,1,8,0:0:0:0:
256,192,23608,1,8,0:0:0:0:
256,192,23785,1,0,0:0:0:0:
256,192,23873,1,0,0:0:0:0:
256,192,23961,1,0,0:0:0:0:
256,192,24049,1,0,0:0:0:0:
256,192,24138,1,8,0:0:0:0:
256,192,24490,1,0,0:0:0:0:
256,192,24843,1,0,0:0:0:0:
256,192,25020,1,8,0:0:0:0:
256,192,25196,1,0,0:0:0:0:
256,192,25549,1,0,0:0:0:0:
256,192,25726,1,0,0:0:0:0:
256,192,25814,1,0,0:0:0:0:
256,192,25902,1,8,0:0:0:0:
256,192,26079,1,8,0:0:0:0:
256,192,26167,1,8,0:0:0:0:
256,192,26432,1,8,0:0:0:0:
256,192,26608,1,0,0:0:0:0:
256,192,26785,1,8,0:0:0:0:
256,192,26873,1,8,0:0:0:0:
224,192,27138,1,8,0:0:0:0:
256,192,27314,1,0,0:0:0:0:
256,192,27667,1,0,0:0:0:0:
256,192,27843,1,8,0:0:0:0:
256,192,28020,1,0,0:0:0:0:
256,192,28373,1,0,0:0:0:0:
256,192,28549,1,8,0:0:0:0:
256,192,28638,1,0,0:0:0:0:
256,192,28726,1,8,0:0:0:0:
256,192,28902,1,8,0:0:0:0:
256,192,28990,1,8,0:0:0:0:
256,192,29079,1,8,0:0:0:0:
256,192,29255,1,8,0:0:0:0:
256,192,29432,1,0,0:0:0:0:
256,192,29520,1,0,0:0:0:0:
256,192,29608,1,0,0:0:0:0:
256,192,29696,1,0,0:0:0:0:
256,192,29785,1,8,0:0:0:0:
256,192,30138,5,0,0:0:0:0:
256,192,30490,1,8,0:0:0:0:
256,192,30667,1,0,0:0:0:0:
256,192,30843,1,8,0:0:0:0:
256,192,31108,1,0,0:0:0:0:
256,192,31373,1,8,0:0:0:0:
256,192,31549,1,8,0:0:0:0:
256,192,31814,1,0,0:0:0:0:
256,192,32079,1,8,0:0:0:0:
256,192,32255,1,8,0:0:0:0:
256,192,32608,1,0,0:0:0:0:
256,192,32961,1,0,0:0:0:0:
256,192,33314,1,8,0:0:0:0:
256,192,33490,1,0,0:0:0:0:
256,192,33667,1,8,0:0:0:0:
256,192,33932,1,0,0:0:0:0:
256,192,34196,1,8,0:0:0:0:
256,192,34373,1,8,0:0:0:0:
256,192,34638,1,0,0:0:0:0:
256,192,34902,1,8,0:0:0:0:
256,192,35079,1,8,0:0:0:0:
256,192,35432,1,12,0:0:0:0:
256,192,35785,5,8,0:0:0:0:
256,192,36138,1,8,0:0:0:0:
256,192,36314,1,0,0:0:0:0:
256,192,36490,1,8,0:0:0:0:
256,192,36843,1,8,0:0:0:0:
256,192,37020,1,0,0:0:0:0:
256,192,37196,1,8,0:0:0:0:
256,192,37549,1,8,0:0:0:0:
256,192,37726,1,0,0:0:0:0:
256,192,37902,1,8,0:0:0:0:
256,192,38255,1,8,0:0:0:0:
256,192,38432,1,0,0:0:0:0:
256,192,38520,1,0,0:0:0:0:
256,192,38608,5,8,0:0:0:0:
256,192,38785,5,8,0:0:0:0:
256,192,38961,5,8,0:0:0:0:
256,192,39138,5,8,0:0:0:0:
256,192,39314,5,8,0:0:0:0:
256,192,39402,1,8,0:0:0:0:
256,192,39490,1,8,0:0:0:0:
256,192,39579,1,8,0:0:0:0:
256,192,39667,1,0,0:0:0:0:
256,192,39755,1,0,0:0:0:0:
256,192,39843,1,0,0:0:0:0:
256,192,39932,1,0,0:0:0:0:
256,192,40020,1,8,0:0:0:0:
256,192,41079,5,12,0:0:0:0:
256,192,41432,5,4,0:0:0:0:
256,192,41785,1,0,0:0:0:0:
256,192,41961,1,8,0:0:0:0:
256,192,42049,1,8,0:0:0:0:
256,192,42314,1,8,0:0:0:0:
256,192,42490,1,0,0:0:0:0:
256,192,42667,1,8,0:0:0:0:
256,192,42755,1,8,0:0:0:0:
256,192,43020,1,0,0:0:0:0:
256,192,43196,1,0,0:0:0:0:
256,224,43373,1,8,0:0:0:0:
256,192,43461,1,8,0:0:0:0:
256,192,43726,1,8,0:0:0:0:
256,192,43902,1,0,0:0:0:0:
256,192,44079,1,8,0:0:0:0:
256,192,44255,1,0,0:0:0:0:
256,192,44432,1,8,0:0:0:0:
256,192,44520,1,8,0:0:0:0:
256,192,44696,1,0,0:0:0:0:
256,192,44873,1,8,0:0:0:0:
256,192,45138,1,8,0:0:0:0:
256,192,45314,1,0,0:0:0:0:
256,192,45402,1,0,0:0:0:0:
256,192,45490,1,0,0:0:0:0:
256,192,45667,1,8,0:0:0:0:
256,192,45843,1,0,0:0:0:0:
256,192,46020,1,8,0:0:0:0:
256,192,46108,1,0,0:0:0:0:
256,192,46196,1,0,0:0:0:0:
256,192,46285,1,8,0:0:0:0:
256,192,46726,1,0,0:0:0:0:
256,192,46902,1,8,0:0:0:0:
256,192,46990,1,8,0:0:0:0:
256,192,47255,1,8,0:0:0:0:
256,192,47432,1,0,0:0:0:0:
256,192,47608,1,8,0:0:0:0:
256,192,47696,1,8,0:0:0:0:
256,192,47961,1,8,0:0:0:0:
256,192,48138,1,0,0:0:0:0:
256,192,48314,1,8,0:0:0:0:
256,192,48402,1,8,0:0:0:0:
256,192,48667,1,0,0:0:0:0:
256,192,48843,1,0,0:0:0:0:
256,192,49020,1,8,0:0:0:0:
256,192,49108,1,8,0:0:0:0:
256,160,49373,1,8,0:0:0:0:
256,160,49549,1,0,0:0:0:0:
256,160,49726,1,8,0:0:0:0:
256,192,49902,1,0,0:0:0:0:
256,160,50079,1,8,0:0:0:0:
256,160,50167,1,8,0:0:0:0:
256,160,50343,1,0,0:0:0:0:
256,160,50520,1,8,0:0:0:0:
256,160,50608,1,0,0:0:0:0:
256,160,50785,1,8,0:0:0:0:
256,160,50961,1,0,0:0:0:0:
256,160,51049,1,0,0:0:0:0:
256,160,51138,1,0,0:0:0:0:
256,160,51314,1,8,0:0:0:0:
256,160,51579,1,8,0:0:0:0:
256,160,51843,1,0,0:0:0:0:
256,128,52108,1,0,0:0:0:0:
256,192,52373,1,12,0:0:0:0:
256,192,52726,1,0,0:0:0:0:
256,192,53079,1,12,0:0:0:0:
256,192,53432,1,0,0:0:0:0:
256,192,53608,1,0,0:0:0:0:
256,192,53696,1,8,0:0:0:0:
256,192,53961,1,0,0:0:0:0:
256,192,54049,1,0,0:0:0:0:
256,192,54138,1,8,0:0:0:0:
256,192,54314,1,0,0:0:0:0:
256,192,54490,1,8,0:0:0:0:
256,192,54667,1,0,0:0:0:0:
256,192,54755,1,0,0:0:0:0:
256,192,54843,1,8,0:0:0:0:
256,192,55020,1,0,0:0:0:0:
256,192,55196,1,8,0:0:0:0:
256,192,55373,1,8,0:0:0:0:
256,192,55726,1,0,0:0:0:0:
256,192,55814,1,0,0:0:0:0:
256,224,55902,1,8,0:0:0:0:
256,224,56079,1,0,0:0:0:0:
256,224,56255,1,8,0:0:0:0:
256,224,56432,1,8,0:0:0:0:
256,224,56520,1,8,0:0:0:0:
256,192,56785,1,0,0:0:0:0:
256,192,56961,1,8,0:0:0:0:
256,192,57138,1,0,0:0:0:0:
256,160,57314,1,8,0:0:0:0:
256,160,57402,1,0,0:0:0:0:
256,160,57490,1,0,0:0:0:0:
256,160,57579,1,8,0:0:0:0:
256,192,58020,1,0,0:0:0:0:
256,192,58196,1,8,0:0:0:0:
256,192,58285,1,8,0:0:0:0:
256,192,58549,1,8,0:0:0:0:
256,192,58726,1,0,0:0:0:0:
256,192,58902,1,8,0:0:0:0:
256,192,58990,1,8,0:0:0:0:
256,192,59255,1,8,0:0:0:0:
256,192,59432,1,0,0:0:0:0:
256,192,59608,1,8,0:0:0:0:
256,192,59696,1,8,0:0:0:0:
256,192,59961,1,0,0:0:0:0:
256,192,60138,1,0,0:0:0:0:
256,192,60314,1,8,0:0:0:0:
256,192,60402,1,8,0:0:0:0:
256,192,60667,1,8,0:0:0:0:
256,192,60843,1,0,0:0:0:0:
256,192,61020,1,8,0:0:0:0:
256,192,61196,1,0,0:0:0:0:
256,192,61373,1,8,0:0:0:0:
256,192,61461,1,0,0:0:0:0:
256,192,61638,1,8,0:0:0:0:
256,192,61814,1,8,0:0:0:0:
256,192,61902,1,0,0:0:0:0:
256,192,62079,1,0,0:0:0:0:
256,192,62255,1,8,0:0:0:0:
256,192,62432,1,0,0:0:0:0:
256,192,62520,1,0,0:0:0:0:
256,192,62608,1,8,0:0:0:0:
256,192,62873,1,8,0:0:0:0:
256,192,63138,1,0,0:0:0:0:
256,192,63402,1,0,0:0:0:0:
256,192,63667,1,12,0:0:0:0:
256,192,64020,5,4,0:0:0:0:
256,192,64373,1,8,0:0:0:0:
256,192,64902,1,8,0:0:0:0:
256,192,65432,1,0,0:0:0:0:
256,192,65785,1,0,0:0:0:0:
256,192,66138,1,8,0:0:0:0:
256,192,66490,1,8,0:0:0:0:
256,192,66843,1,0,0:0:0:0:
256,192,67196,1,8,0:0:0:0:
256,192,67726,1,8,0:0:0:0:
256,192,68255,1,8,0:0:0:0:
256,192,68608,1,8,0:0:0:0:
256,192,68961,1,0,0:0:0:0:
256,192,69314,1,0,0:0:0:0:
256,192,69667,1,8,0:0:0:0:
256,192,70020,1,8,0:0:0:0:
256,192,70373,1,8,0:0:0:0:
256,192,70549,1,0,0:0:0:0:
256,192,70726,1,8,0:0:0:0:
256,192,71079,1,8,0:0:0:0:
256,192,71432,1,8,0:0:0:0:
256,192,71785,1,8,0:0:0:0:
256,192,71961,1,0,0:0:0:0:
256,192,72138,1,8,0:0:0:0:
256,192,72490,1,8,0:0:0:0:
256,192,72667,1,8,0:0:0:0:
256,192,72843,1,8,0:0:0:0:
256,192,73020,1,0,0:0:0:0:
256,192,73196,1,8,0:0:0:0:
256,192,73373,1,8,0:0:0:0:
256,192,73549,1,8,0:0:0:0:
256,192,73726,1,0,0:0:0:0:
256,192,73902,1,8,0:0:0:0:
256,192,73990,1,0,0:0:0:0:
256,192,74079,1,0,0:0:0:0:
256,192,74255,1,8,0:0:0:0:
256,192,74343,1,8,0:0:0:0:
256,192,74432,1,0,0:0:0:0:
256,192,74608,1,0,0:0:0:0:
256,192,74696,1,0,0:0:0:0:
256,192,74785,1,0,0:0:0:0:
256,192,74961,1,12,0:0:0:0:
256,192,75314,5,0,0:0:0:0:
256,192,75549,1,8,0:0:0:0:
256,192,75667,1,0,0:0:0:0:
256,192,75785,1,8,0:0:0:0:
256,192,75902,1,8,0:0:0:0:
256,192,76020,1,0,0:0:0:0:
256,192,76255,1,8,0:0:0:0:
256,192,76373,1,0,0:0:0:0:
256,192,76608,1,0,0:0:0:0:
256,192,76726,1,0,0:0:0:0:
256,192,76961,1,8,0:0:0:0:
256,192,77079,1,0,0:0:0:0:
256,192,77314,1,8,0:0:0:0:
256,192,77432,1,0,0:0:0:0:
256,192,77785,1,0,0:0:0:0:
256,192,77902,1,8,0:0:0:0:
256,192,78020,1,8,0:0:0:0:
256,192,78138,1,0,0:0:0:0:
256,192,78490,1,0,0:0:0:0:
256,192,78608,1,8,0:0:0:0:
256,192,78843,1,0,0:0:0:0:
256,192,78961,1,8,0:0:0:0:
256,192,79079,1,8,0:0:0:0:
256,192,79196,1,0,0:0:0:0:
256,192,79432,1,0,0:0:0:0:
256,192,79549,1,0,0:0:0:0:
256,192,79785,1,8,0:0:0:0:
256,192,79902,1,0,0:0:0:0:
256,192,80138,1,8,0:0:0:0:
256,192,80255,1,8,0:0:0:0:
256,192,80608,1,12,0:0:0:0:
256,192,80961,1,4,0:0:0:0:
256,192,81314,1,0,0:0:0:0:
256,192,81549,1,8,0:0:0:0:
256,192,81667,1,0,0:0:0:0:
256,192,81785,1,0,0:0:0:0:
256,192,81902,1,8,0:0:0:0:
256,192,82020,1,0,0:0:0:0:
256,192,82255,1,8,0:0:0:0:
256,192,82373,1,0,0:0:0:0:
256,192,82608,1,8,0:0:0:0:
256,192,82726,1,0,0:0:0:0:
256,192,82843,1,8,0:1:0:0:
256,192,82961,1,8,0:0:0:0:
256,192,83079,1,0,0:0:0:0:
256,192,83314,1,8,0:0:0:0:
256,192,83432,1,0,0:0:0:0:
256,192,83549,1,0,0:0:0:0:
256,192,83667,1,8,0:0:0:0:
256,192,83785,1,0,0:0:0:0:
256,192,83902,1,0,0:0:0:0:
257,186,84020,1,8,0:0:0:0:
256,192,84138,1,0,0:0:0:0:
243,209,84373,1,8,0:0:0:0:
256,192,84490,1,0,0:0:0:0:
243,209,84726,1,8,0:0:0:0:
256,192,84843,1,0,0:0:0:0:
256,192,84961,1,0,0:0:0:0:
256,192,85079,1,8,0:0:0:0:
256,192,85196,1,0,0:0:0:0:
256,192,85549,1,0,0:0:0:0:
256,192,85902,1,8,0:0:0:0:
256,192,86608,5,4,0:0:0:0:
244,193,86961,1,0,0:0:0:0:
263,180,87196,1,8,0:0:0:0:
256,192,87314,1,0,0:0:0:0:
272,178,87432,1,0,0:0:0:0:
272,178,87549,1,0,0:0:0:0:
256,192,87667,1,8,0:0:0:0:
272,178,87902,1,0,0:0:0:0:
256,192,88020,1,8,0:0:0:0:
272,178,88255,1,8,0:0:0:0:
272,178,88373,1,8,0:0:0:0:
272,178,88608,1,0,0:0:0:0:
256,192,88726,1,8,0:0:0:0:
256,192,89079,1,0,0:0:0:0:
256,192,89314,1,0,0:0:0:0:
256,192,89432,1,8,0:0:0:0:
273,178,89667,1,0,0:0:0:0:
273,178,89785,1,8,0:0:0:0:
273,178,89902,1,8,0:0:0:0:
273,178,90020,1,0,0:0:0:0:
256,192,90138,1,8,0:0:0:0:
273,178,90373,1,0,0:0:0:0:
273,178,90490,1,8,0:0:0:0:
273,178,90608,1,8,0:0:0:0:
256,192,90843,5,4,0:0:0:0:
256,192,91196,5,4,0:0:0:0:
256,192,91549,5,4,0:0:0:0:
256,192,91902,5,12,0:0:0:0:
256,192,92255,5,0,0:0:0:0:
255,200,92490,1,0,0:0:0:0:
255,200,92608,1,8,0:0:0:0:
255,200,92843,1,8,0:0:0:0:
256,192,93196,1,0,0:0:0:0:
259,186,93314,1,8,0:0:0:0:
256,192,93549,1,8,0:0:0:0:
261,174,93902,1,0,0:0:0:0:
259,186,94020,1,8,0:0:0:0:
256,192,94138,1,8,0:0:0:0:
259,186,94255,1,0,0:0:0:0:
256,192,94373,1,8,0:0:0:0:
265,181,94608,1,0,0:0:0:0:
265,181,94726,1,8,0:0:0:0:
256,192,95079,1,8,0:0:0:0:
250,193,95196,1,0,0:0:0:0:
256,192,95314,1,0,0:0:0:0:
256,192,95432,1,8,0:0:0:0:
256,192,95667,1,0,0:0:0:0:
256,192,95785,1,8,0:0:0:0:
256,192,95902,1,8,0:0:0:0:
256,192,96020,1,0,0:0:0:0:
256,192,96138,1,8,0:0:0:0:
256,192,96255,1,8,0:0:0:0:
256,192,96373,1,0,0:0:0:0:
256,192,96490,1,8,0:0:0:0:
256,192,96843,1,8,0:0:0:0:
256,192,97196,1,0,0:0:0:0:
256,192,97549,1,12,0:0:0:0:
256,192,97902,5,4,0:0:0:0:
256,192,103549,5,8,0:0:0:0:
258,197,103814,1,0,0:0:0:0:
256,192,103902,1,8,0:0:0:0:
256,192,104079,1,0,0:0:0:0:
256,192,104255,1,8,0:0:0:0:
258,197,104520,1,0,0:0:0:0:
256,192,104608,1,8,0:0:0:0:
256,192,104785,1,0,0:0:0:0:
256,192,104961,1,8,0:0:0:0:
258,197,105226,1,0,0:0:0:0:
256,192,105314,1,8,0:0:0:0:
256,192,105490,1,0,0:0:0:0:
256,192,105667,1,8,0:0:0:0:
258,197,105932,1,0,0:0:0:0:
256,192,106020,1,8,0:0:0:0:
256,192,106196,1,0,0:0:0:0:
256,192,106285,1,0,0:0:0:0:
256,192,106373,5,8,0:0:0:0:
256,192,106549,5,8,0:0:0:0:
256,192,106726,5,8,0:0:0:0:
256,192,106902,5,8,0:0:0:0:
256,192,107079,5,8,0:0:0:0:
256,192,107167,1,8,0:0:0:0:
256,192,107255,1,8,0:0:0:0:
256,192,107343,1,8,0:0:0:0:
256,192,107432,1,0,0:0:0:0:
256,192,107520,1,0,0:0:0:0:
256,192,107608,1,0,0:0:0:0:
256,192,107696,1,0,0:0:0:0:
256,192,107785,1,8,0:0:0:0:
256,192,108490,5,0,0:0:0:0:
256,192,108579,1,0,0:0:0:0:
256,192,108667,1,0,0:0:0:0:
256,192,108843,5,12,0:0:0:0:
256,192,109196,5,4,0:0:0:0:
256,192,109373,1,8,0:0:0:0:
256,192,109461,1,8,0:0:0:0:
256,192,109549,1,0,0:0:0:0:
256,192,109726,1,8,0:0:0:0:
256,192,109814,1,8,0:0:0:0:
256,192,110079,1,8,0:0:0:0:
256,192,110255,1,0,0:0:0:0:
256,192,110432,1,8,0:0:0:0:
256,192,110520,1,8,0:0:0:0:
256,192,110785,1,0,0:0:0:0:
256,192,110873,1,0,0:0:0:0:
256,192,110961,1,0,0:0:0:0:
256,224,111138,1,8,0:0:0:0:
256,192,111226,1,8,0:0:0:0:
256,192,111490,1,8,0:0:0:0:
256,192,111667,1,0,0:0:0:0:
256,192,111755,1,0,0:0:0:0:
256,192,111843,1,8,0:0:0:0:
256,192,112020,1,0,0:0:0:0:
256,192,112196,1,8,0:0:0:0:
256,192,112285,1,8,0:0:0:0:
256,192,112461,1,0,0:0:0:0:
256,192,112638,1,8,0:0:0:0:
256,192,112726,1,0,0:0:0:0:
256,192,112902,1,8,0:0:0:0:
256,192,113079,1,0,0:0:0:0:
256,192,113167,1,0,0:0:0:0:
256,192,113255,1,0,0:0:0:0:
256,192,113432,1,8,0:0:0:0:
256,192,113608,1,0,0:0:0:0:
256,192,113785,1,8,0:0:0:0:
256,192,113873,1,0,0:0:0:0:
256,192,113961,1,0,0:0:0:0:
256,192,114049,1,8,0:0:0:0:
256,192,114490,1,0,0:0:0:0:
256,192,114667,1,8,0:0:0:0:
256,192,114755,1,8,0:0:0:0:
256,192,115020,1,8,0:0:0:0:
248,177,115108,1,8,0:0:0:0:
256,192,115196,1,0,0:0:0:0:
256,192,115373,1,8,0:0:0:0:
256,192,115461,1,8,0:0:0:0:
256,192,115726,1,8,0:0:0:0:
256,192,115902,1,0,0:0:0:0:
256,192,116079,1,8,0:0:0:0:
256,192,116167,1,8,0:0:0:0:
256,192,116432,1,0,0:0:0:0:
250,194,116520,1,0,0:0:0:0:
256,192,116608,1,0,0:0:0:0:
256,192,116785,1,8,0:0:0:0:
256,192,116873,1,8,0:0:0:0:
256,160,117138,1,8,0:0:0:0:
256,160,117314,1,0,0:0:0:0:
256,160,117402,1,0,0:0:0:0:
256,160,117490,1,8,0:0:0:0:
256,192,117667,1,0,0:0:0:0:
256,160,117843,1,8,0:0:0:0:
256,160,117932,1,8,0:0:0:0:
256,160,118108,1,0,0:0:0:0:
256,160,118285,1,8,0:0:0:0:
256,160,118373,1,0,0:0:0:0:
256,160,118549,1,8,0:0:0:0:
256,160,118726,1,0,0:0:0:0:
256,160,118814,1,0,0:0:0:0:
256,160,118902,1,0,0:0:0:0:
256,160,119079,1,8,0:0:0:0:
256,160,119167,1,0,0:0:0:0:
256,160,119343,1,8,0:0:0:0:
256,160,119608,1,0,0:0:0:0:
256,128,119873,1,0,0:0:0:0:
256,192,120138,1,12,0:0:0:0:
256,192,120490,1,0,0:0:0:0:
256,192,120843,1,12,0:0:0:0:
256,192,121196,1,0,0:0:0:0:
256,192,121373,1,8,0:0:0:0:
256,192,121461,1,8,0:0:0:0:
256,192,121726,1,0,0:0:0:0:
256,192,121814,1,0,0:0:0:0:
256,192,121902,1,8,0:0:0:0:
256,192,122079,1,0,0:0:0:0:
256,192,122255,1,8,0:0:0:0:
256,192,122432,1,0,0:0:0:0:
256,192,122608,1,8,0:0:0:0:
252,184,122696,1,8,0:0:0:0:
256,192,122785,1,0,0:0:0:0:
256,192,122961,1,8,0:0:0:0:
256,192,123138,1,8,0:0:0:0:
256,192,123490,1,0,0:0:0:0:
256,192,123579,1,0,0:0:0:0:
256,224,123667,1,8,0:0:0:0:
256,224,123843,1,0,0:0:0:0:
256,224,124020,1,8,0:0:0:0:
256,224,124196,1,8,0:0:0:0:
256,224,124285,1,8,0:0:0:0:
256,192,124549,1,0,0:0:0:0:
256,192,124726,1,8,0:0:0:0:
256,192,124902,1,0,0:0:0:0:
256,160,125079,1,8,0:0:0:0:
256,160,125167,1,0,0:0:0:0:
256,160,125255,1,0,0:0:0:0:
256,160,125343,1,8,0:0:0:0:
256,192,125785,1,0,0:0:0:0:
256,192,125961,1,8,0:0:0:0:
256,192,126049,1,8,0:0:0:0:
256,192,126314,1,8,0:0:0:0:
258,186,126402,1,8,0:0:0:0:
256,192,126490,1,0,0:0:0:0:
256,192,126667,1,8,0:0:0:0:
256,192,126755,1,8,0:0:0:0:
256,192,127020,1,8,0:0:0:0:
256,192,127196,1,0,0:0:0:0:
256,192,127373,1,8,0:0:0:0:
256,192,127461,1,8,0:0:0:0:
256,192,127726,1,0,0:0:0:0:
258,186,127814,1,0,0:0:0:0:
256,192,127902,1,0,0:0:0:0:
256,192,128079,1,8,0:0:0:0:
256,192,128167,1,8,0:0:0:0:
256,192,128432,1,8,0:0:0:0:
256,192,128608,1,0,0:0:0:0:
256,192,128785,1,8,0:0:0:0:
256,192,128961,1,0,0:0:0:0:
256,192,129138,1,8,0:0:0:0:
256,192,129226,1,0,0:0:0:0:
256,192,129402,1,8,0:0:0:0:
256,192,129579,1,8,0:0:0:0:
256,192,129667,1,0,0:0:0:0:
256,192,129843,1,0,0:0:0:0:
256,192,130020,1,8,0:0:0:0:
256,192,130196,1,0,0:0:0:0:
256,192,130373,1,8,0:0:0:0:
258,186,130461,1,0,0:0:0:0:
256,192,130638,1,8,0:0:0:0:
256,192,130902,1,0,0:0:0:0:
256,192,131167,1,0,0:0:0:0:
256,192,131432,1,12,0:0:0:0:
256,192,131785,5,4,0:0:0:0:
256,192,132138,1,8,0:0:0:0:
256,192,132667,1,0,0:0:0:0:
256,192,133196,1,0,0:0:0:0:
256,192,133726,1,0,0:0:0:0:
256,192,133902,1,8,0:0:0:0:
256,192,134255,1,8,0:0:0:0:
256,192,134608,5,4,0:0:0:0:
256,192,134961,1,8,0:0:0:0:
256,192,135490,1,0,0:0:0:0:
256,192,135843,1,0,0:0:0:0:
256,192,136020,1,8,0:0:0:0:
256,192,136373,1,8,0:0:0:0:
256,192,136549,1,8,0:0:0:0:
256,192,136902,1,0,0:0:0:0:
256,192,137079,1,8,0:0:0:0:
256,192,137432,5,4,0:0:0:0:
256,192,137785,1,0,0:0:0:0:
256,192,138138,1,8,0:0:0:0:
256,192,138490,1,8,0:0:0:0:
256,192,138843,5,4,0:0:0:0:
256,192,139196,1,0,0:0:0:0:
256,192,139549,1,8,0:0:0:0:
256,192,139726,1,0,0:0:0:0:
256,192,139902,1,8,0:0:0:0:
256,192,140255,5,12,0:0:0:0:
256,192,140432,1,8,0:0:0:0:
256,192,140608,5,8,0:0:0:0:
224,192,140696,1,0,0:0:0:0:
256,192,140785,1,0,0:0:0:0:
256,192,140961,5,8,0:0:0:0:
256,192,141138,1,0,0:0:0:0:
256,192,141314,5,8,0:0:0:0:
224,192,141402,1,8,0:0:0:0:
256,192,141490,1,0,0:0:0:0:
256,192,141667,5,8,0:0:0:0:
224,192,141755,1,8,0:0:0:0:
256,192,141843,1,8,0:0:0:0:
256,192,142020,5,8,0:0:0:0:
256,192,142108,1,8,0:0:0:0:
256,192,142196,1,8,0:0:0:0:
256,192,142285,1,0,0:0:0:0:
256,192,142726,5,12,0:0:0:0:
256,192,143079,5,4,0:0:0:0:
256,192,143255,1,8,0:0:0:0:
256,192,143343,1,8,0:0:0:0:
256,192,143432,1,0,0:0:0:0:
256,192,143608,1,8,0:0:0:0:
256,192,143696,1,8,0:0:0:0:
256,192,143961,1,8,0:0:0:0:
256,192,144138,1,0,0:0:0:0:
256,192,144314,1,8,0:0:0:0:
256,192,144402,1,8,0:0:0:0:
256,192,144667,1,0,0:0:0:0:
256,192,144755,1,0,0:0:0:0:
256,192,144843,1,0,0:0:0:0:
256,224,145020,1,8,0:0:0:0:
256,192,145108,1,8,0:0:0:0:
256,192,145373,1,8,0:0:0:0:
256,192,145549,1,0,0:0:0:0:
256,192,145638,1,0,0:0:0:0:
256,192,145726,1,8,0:0:0:0:
256,192,145902,1,0,0:0:0:0:
256,192,145990,1,0,0:0:0:0:
256,192,146079,1,8,0:0:0:0:
256,192,146167,1,8,0:0:0:0:
256,192,146343,1,0,0:0:0:0:
256,192,146520,1,8,0:0:0:0:
256,192,146608,1,0,0:0:0:0:
256,192,146785,1,8,0:0:0:0:
256,192,146961,1,0,0:0:0:0:
256,192,147049,1,0,0:0:0:0:
256,192,147138,1,0,0:0:0:0:
256,192,147314,1,8,0:0:0:0:
256,192,147490,1,0,0:0:0:0:
256,192,147667,1,8,0:0:0:0:
256,192,147755,1,0,0:0:0:0:
256,192,147843,1,0,0:0:0:0:
256,192,147932,1,8,0:0:0:0:
256,192,148373,1,0,0:0:0:0:
256,192,148549,1,8,0:0:0:0:
256,192,148638,1,8,0:0:0:0:
256,192,148902,1,8,0:0:0:0:
248,177,148990,1,8,0:0:0:0:
256,192,149079,1,0,0:0:0:0:
256,192,149255,1,8,0:0:0:0:
256,192,149343,1,8,0:0:0:0:
256,192,149608,1,8,0:0:0:0:
256,192,149785,1,0,0:0:0:0:
256,192,149961,1,8,0:0:0:0:
256,192,150049,1,8,0:0:0:0:
256,192,150314,1,0,0:0:0:0:
250,194,150402,1,0,0:0:0:0:
256,192,150490,1,0,0:0:0:0:
256,192,150667,1,8,0:0:0:0:
256,192,150755,1,8,0:0:0:0:
256,160,151020,1,8,0:0:0:0:
256,160,151196,1,0,0:0:0:0:
256,192,151285,1,0,0:0:0:0:
256,160,151373,1,8,0:0:0:0:
256,192,151549,1,0,0:0:0:0:
256,160,151638,1,0,0:0:0:0:
256,160,151726,1,8,0:0:0:0:
256,160,151814,1,8,0:0:0:0:
256,160,151990,1,0,0:0:0:0:
256,160,152167,1,8,0:0:0:0:
256,160,152255,1,0,0:0:0:0:
250,194,152343,1,0,0:0:0:0:
256,160,152432,1,8,0:0:0:0:
256,160,152608,1,0,0:0:0:0:
256,160,152696,1,0,0:0:0:0:
256,160,152785,1,0,0:0:0:0:
256,192,152961,1,8,0:0:0:0:
258,186,153049,1,0,0:0:0:0:
256,192,153226,1,8,0:0:0:0:
256,192,153490,1,0,0:0:0:0:
256,224,153579,1,0,0:0:0:0:
256,192,153755,1,0,0:0:0:0:
256,192,154020,1,12,0:0:0:0:
256,192,154373,1,0,0:0:0:0:
256,192,154726,1,12,0:0:0:0:
256,192,155079,1,0,0:0:0:0:
256,192,155255,1,8,0:0:0:0:
256,192,155343,1,8,0:0:0:0:
256,192,155608,1,0,0:0:0:0:
256,192,155696,1,0,0:0:0:0:
256,192,155785,1,8,0:0:0:0:
256,192,155961,1,0,0:0:0:0:
256,192,156138,1,8,0:0:0:0:
256,192,156314,1,0,0:0:0:0:
256,192,156490,1,8,0:0:0:0:
252,184,156579,1,8,0:0:0:0:
256,192,156667,1,0,0:0:0:0:
256,192,156843,1,8,0:0:0:0:
256,192,156932,1,8,0:0:0:0:
256,192,157020,1,8,0:0:0:0:
256,192,157373,1,0,0:0:0:0:
256,192,157461,1,0,0:0:0:0:
256,224,157549,1,8,0:0:0:0:
256,224,157726,1,0,0:0:0:0:
256,224,157902,1,8,0:0:0:0:
256,224,158079,1,8,0:0:0:0:
256,224,158167,1,8,0:0:0:0:
256,224,158343,1,0,0:0:0:0:
256,192,158432,1,0,0:0:0:0:
256,224,158520,1,0,0:0:0:0:
256,192,158608,1,8,0:0:0:0:
256,192,158785,1,0,0:0:0:0:
256,160,158961,1,8,0:0:0:0:
256,160,159049,1,0,0:0:0:0:
256,160,159138,1,0,0:0:0:0:
256,160,159226,1,8,0:0:0:0:
256,192,159667,1,0,0:0:0:0:
256,192,159843,1,8,0:0:0:0:
256,192,159932,1,8,0:0:0:0:
256,192,160196,1,8,0:0:0:0:
258,186,160285,1,8,0:0:0:0:
256,192,160373,1,0,0:0:0:0:
256,192,160549,1,8,0:0:0:0:
256,192,160638,1,8,0:0:0:0:
256,192,160902,1,8,0:0:0:0:
256,160,161079,1,0,0:0:0:0:
256,192,161255,1,8,0:0:0:0:
256,192,161343,1,8,0:0:0:0:
256,192,161608,1,0,0:0:0:0:
258,186,161696,1,0,0:0:0:0:
256,192,161785,1,0,0:0:0:0:
256,192,161961,1,8,0:0:0:0:
256,192,162049,1,8,0:0:0:0:
256,192,162314,1,8,0:0:0:0:
256,192,162490,1,0,0:0:0:0:
256,192,162667,1,8,0:0:0:0:
256,192,162843,1,0,0:0:0:0:
256,192,162932,1,0,0:0:0:0:
256,192,163020,1,8,0:0:0:0:
256,192,163108,1,0,0:0:0:0:
256,192,163285,1,8,0:0:0:0:
256,192,163373,1,8,0:0:0:0:
256,192,163549,1,0,0:0:0:0:
256,192,163726,1,0,0:0:0:0:
256,192,163902,1,8,0:0:0:0:
256,192,163990,1,0,0:0:0:0:
256,192,164079,1,0,0:0:0:0:
256,192,164255,1,8,0:0:0:0:
258,186,164343,1,0,0:0:0:0:
256,192,164520,1,8,0:0:0:0:
256,192,164785,1,0,0:0:0:0:
256,224,164873,1,0,0:0:0:0:
256,192,165049,1,0,0:0:0:0:
256,192,165314,1,12,0:0:0:0:
256,192,165667,5,4,0:0:0:0:
256,192,165843,1,8,0:0:0:0:
256,192,166020,1,0,0:0:0:0:
256,192,166373,1,8,0:0:0:0:
256,192,166549,1,0,0:0:0:0:
256,192,166726,1,8,0:0:0:0:
256,192,167079,1,0,0:0:0:0:
256,192,167255,1,8,0:0:0:0:
256,192,167432,1,0,0:0:0:0:
256,192,167785,1,8,0:0:0:0:
256,192,167961,1,8,0:0:0:0:
256,192,168049,1,8,0:0:0:0:
256,192,168138,1,0,0:0:0:0:
256,192,168314,1,8,0:0:0:0:
256,192,168490,1,0,0:0:0:0:
256,192,168667,1,8,0:0:0:0:
256,192,168843,1,0,0:0:0:0:
256,192,169196,1,8,0:0:0:0:
256,192,169285,1,8,0:0:0:0:
256,192,169373,1,8,0:0:0:0:
256,192,169549,1,0,0:0:0:0:
256,192,169726,1,0,0:0:0:0:
256,192,169902,1,8,0:0:0:0:
288,192,170079,1,0,0:0:0:0:
256,192,170167,1,8,0:0:0:0:
256,192,170432,1,8,0:0:0:0:
256,192,170608,1,0,0:0:0:0:
256,192,170696,1,8,0:0:0:0:
256,192,170961,1,12,0:0:0:0:
256,192,171314,1,4,0:0:0:0:
256,192,171490,1,0,0:0:0:0:
256,192,171667,1,8,0:0:0:0:
256,192,172020,1,8,0:0:0:0:
256,192,172196,1,0,0:0:0:0:
256,192,172285,1,0,0:0:0:0:
256,192,172373,1,8,0:0:0:0:
256,192,172726,1,0,0:0:0:0:
256,192,172902,1,0,0:0:0:0:
256,192,173079,1,8,0:0:0:0:
256,192,173432,1,0,0:0:0:0:
256,192,173608,1,8,0:0:0:0:
256,192,173696,1,8,0:0:0:0:
256,192,173785,1,8,0:0:0:0:
256,192,173961,1,0,0:0:0:0:
256,192,174049,1,0,0:0:0:0:
256,192,174138,1,8,0:0:0:0:
256,192,174314,1,0,0:0:0:0:
256,192,174490,1,8,0:0:0:0:
256,192,174843,1,8,0:0:0:0:
256,192,174932,1,8,0:0:0:0:
256,192,175020,1,0,0:0:0:0:
256,192,175196,1,8,0:0:0:0:
256,192,175373,1,0,0:0:0:0:
256,192,175461,1,0,0:0:0:0:
256,192,175549,1,8,0:0:0:0:
256,192,175726,1,0,0:0:0:0:
256,192,175814,1,8,0:0:0:0:
256,192,175990,1,8,0:0:0:0:
256,192,176079,1,8,0:0:0:0:
256,192,176255,1,0,0:0:0:0:
256,192,176343,1,8,0:0:0:0:
256,192,176608,1,12,0:0:0:0:
256,192,176961,5,4,0:0:0:0:
256,192,177138,1,8,0:0:0:0:
256,192,177226,1,8,0:0:0:0:
256,192,177314,1,0,0:0:0:0:
256,192,177667,1,8,0:0:0:0:
256,192,177843,1,0,0:0:0:0:
256,192,177932,1,0,0:0:0:0:
256,192,178020,1,8,0:0:0:0:
256,192,178196,1,8,0:0:0:0:
256,192,178373,1,0,0:0:0:0:
256,192,178549,1,8,0:0:0:0:
256,192,178726,1,0,0:0:0:0:
256,192,179079,1,8,0:0:0:0:
256,192,179255,1,8,0:0:0:0:
256,192,179343,1,8,0:0:0:0:
256,192,179432,1,0,0:0:0:0:
256,192,179608,1,0,0:0:0:0:
256,192,179785,1,0,0:0:0:0:
256,192,179961,1,8,0:0:0:0:
256,192,180049,1,8,0:0:0:0:
256,192,180138,1,0,0:0:0:0:
256,192,180490,1,8,0:0:0:0:
256,192,180579,1,8,0:0:0:0:
256,192,180667,1,8,0:0:0:0:
256,192,180843,1,0,0:0:0:0:
256,192,181020,1,0,0:0:0:0:
256,192,181196,1,8,0:0:0:0:
288,192,181373,1,0,0:0:0:0:
256,192,181461,1,8,0:0:0:0:
256,192,181726,1,8,0:0:0:0:
256,192,181902,1,0,0:0:0:0:
256,192,181990,1,8,0:0:0:0:
256,192,182255,1,12,0:0:0:0:
256,192,182608,1,4,0:0:0:0:
256,192,182785,1,0,0:0:0:0:
256,192,182873,1,0,0:0:0:0:
256,192,182961,1,8,0:0:0:0:
256,192,183138,1,0,0:0:0:0:
256,192,183314,1,8,0:0:0:0:
256,224,183402,1,8,0:0:0:0:
256,192,183490,1,0,0:0:0:0:
256,192,183667,1,8,0:0:0:0:
256,192,184020,1,0,0:0:0:0:
256,192,184196,1,0,0:0:0:0:
256,224,184285,1,0,0:0:0:0:
256,192,184373,1,8,0:0:0:0:
256,192,184549,1,0,0:0:0:0:
256,192,184726,1,0,0:0:0:0:
256,192,184902,1,8,0:0:0:0:
256,192,184990,1,8,0:0:0:0:
256,192,185079,1,8,0:0:0:0:
256,192,185255,1,0,0:0:0:0:
256,192,185432,1,8,0:0:0:0:
256,192,185608,1,0,0:0:0:0:
256,192,185785,1,8,0:0:0:0:
256,192,185961,1,8,0:0:0:0:
256,192,186138,1,8,0:0:0:0:
256,192,186226,1,8,0:0:0:0:
256,192,186314,1,0,0:0:0:0:
256,192,186490,1,8,0:0:0:0:
256,192,186667,1,8,0:0:0:0:
256,192,186843,1,8,0:0:0:0:
245,189,186932,1,0,0:0:0:0:
256,192,187020,1,0,0:0:0:0:
256,192,187108,1,8,0:0:0:0:
256,192,187285,1,0,0:0:0:0:
256,192,187373,1,8,0:0:0:0:
256,192,187549,1,0,0:0:0:0:
256,192,187638,1,8,0:0:0:0:
245,189,187726,1,0,0:0:0:0:
256,192,187814,1,0,0:0:0:0:
256,192,187902,1,8,0:0:0:0:
256,192,188079,1,8,0:0:0:0:
256,192,188255,1,0,0:0:0:0:
