osu file format v14

[General]
AudioFilename: audio.mp3
AudioLeadIn: 0
PreviewTime: 38515
Countdown: 0
SampleSet: Soft
StackLeniency: 0.7
Mode: 0
LetterboxInBreaks: 0
WidescreenStoryboard: 0

[Editor]
Bookmarks: 4476
DistanceSpacing: 1
BeatDivisor: 12
GridSize: 32
TimelineZoom: 1.5

[Metadata]
Title:Fly Me To The Moon
TitleUnicode:Fly Me To The Moon
Artist:Gawr Gura
ArtistUnicode:Gawr Gura
Creator:-Aqua
Version:Aishiteru
Source:
Tags:ホロライブ hololive VTuber Virtual YouTuber holoEN holomyth myth Frank Sinatra Acoustic Cover English Jazz Karaoke サメ がうる ぐら same shark shaak gawrt chumbuds shrimp a newton- It Might As Well Be Swing e-jazz
BeatmapID:2723894
BeatmapSetID:1314274

[Difficulty]
HPDrainRate:5
CircleSize:4
OverallDifficulty:6
ApproachRate:7
SliderMultiplier:1.6
SliderTickRate:1

[Events]
//Background and Video events
0,0,"EjERfquWAAEJK9k.jpg",0,0
//Break Periods
//Storyboard Layer 0 (Background)
//Storyboard Layer 1 (Fail)
//Storyboard Layer 2 (Pass)
//Storyboard Layer 3 (Foreground)
//Storyboard Layer 4 (Overlay)
//Storyboard Sound Samples

[TimingPoints]
1744,1000,4,2,1,30,1,0
1911,944.88188976378,4,2,1,30,1,0
2855,967.741935483871,4,2,1,30,1,0
3835,1025.64102564103,4,2,1,30,1,0
4347,1016.94915254237,4,2,1,30,1,0
4855,-125,4,2,1,30,0,0
5363,1073.34525939177,4,2,1,30,1,0
5899,1000,4,2,1,30,1,0
7880,1000,4,2,1,30,1,0
8899,1000,4,2,1,30,1,0
9859,937.5,4,2,1,30,1,0
10796,1000,4,2,1,30,1,0
11883,937.5,4,2,1,30,1,0
12862,1000,4,2,1,30,1,0
13882,1000,4,2,1,30,1,0
15882,1200,4,2,1,30,1,0
16382,1090.90909090909,4,2,1,30,1,0
16654,1000,4,2,1,30,1,0
17852,1000,4,2,1,30,1,0
18665,1000,4,2,1,30,1,0
19613,1000,4,2,1,30,1,0
20863,1090.90909090909,4,2,1,30,1,0
21899,1000,4,2,1,30,1,0
22399,967.741935483871,4,2,1,30,1,0
23363,1000,4,2,1,30,1,0
25863,1000,4,2,1,30,1,0
29863,-100,4,2,1,20,0,0
30399,857.142857142857,4,2,1,20,1,0
30881,1000,4,2,1,20,1,0
31881,1132.07547169811,4,2,1,20,1,0
33899,1250,4,2,1,20,1,0
35799,1000,4,2,1,30,1,0
36167,909.090909090909,4,2,1,30,1,0
38614,921.658986175115,4,2,1,50,1,0
38614,-66.6666666666667,4,2,1,50,0,1
49042,809.716599190283,4,2,1,50,1,1
49042,-66.6666666666667,4,2,1,50,0,1
49692,921.658986175115,4,2,1,50,1,1
49692,-66.6666666666667,4,2,1,50,0,1
60761,921.658986175115,4,2,1,50,1,1
60761,-66.6666666666667,4,2,1,50,0,1
64141,-66.6666666666667,4,2,1,5,0,1
64294,-66.6666666666667,4,2,1,50,0,1
68135,926.640926640927,4,2,1,35,1,0
68135,-80,4,2,1,35,0,0
75542,923.076923076923,4,2,1,35,1,0
75542,-80,4,2,1,35,0,0
80153,923.076923076923,4,2,1,35,1,0
80153,-80,4,2,1,35,0,0
82925,921.658986175115,4,2,1,50,1,0
82925,-66.6666666666667,4,2,1,50,0,1
93370,689.655172413793,4,2,1,50,1,1
93370,-66.6666666666667,4,2,1,50,0,1
94020,1032.70223752151,4,2,1,50,1,1
94020,-66.6666666666667,4,2,1,50,0,1
94941,921.658986175115,4,2,1,50,1,1
94941,-66.6666666666667,4,2,1,50,0,1
95849,921.658986175115,4,2,1,50,1,1
96156,882.352941176471,4,2,1,50,1,1
96156,-66.6666666666667,4,2,1,50,0,1
97232,923.076923076923,4,2,1,50,1,1
97232,-66.6666666666667,4,2,1,50,0,1
97689,921.658986175115,4,2,1,50,1,1
97689,-66.6666666666667,4,2,1,50,0,1
101217,921.658986175115,4,2,1,50,1,1
101217,-66.6666666666667,4,2,1,50,0,1
101699,921.658986175115,4,2,1,50,1,1
101699,-66.6666666666667,4,2,1,50,0,1
105079,921.658986175115,4,2,1,50,1,1
105079,-66.6666666666667,4,2,1,50,0,1
115063,-66.6666666666667,4,2,1,5,0,1
115162,921.658986175115,4,2,1,50,1,1
115162,-66.6666666666667,4,2,1,50,0,1
115469,-66.6666666666667,4,2,1,5,0,1
115598,921.658986175115,4,2,1,50,1,1
115598,-66.6666666666667,4,2,1,50,0,1
116366,-66.6666666666667,4,2,1,5,0,1
116519,-66.6666666666667,4,2,1,50,0,1
117078,921.658986175115,4,2,1,40,1,0
117078,-66.6666666666667,4,2,1,40,0,0
117231,-66.6666666666667,4,2,1,5,0,0
117999,944.88188976378,4,2,1,30,1,0
117999,-66.6666666666667,4,2,1,40,0,0
119305,921.658986175115,4,2,1,30,1,0
119305,-66.6666666666667,4,2,1,30,0,0

[Colours]
Combo1 : 211,255,168
Combo2 : 168,168,255

[HitObjects]
61,77,1743,5,0,0:0:0:0:
65,91,1827,1,0,0:0:0:0:
68,103,1911,2,0,B|168:91|119:160|250:151,1,160,0|0,3:0|0:0,0:0:0:0:
214,151,3338,1,0,0:0:0:0:
359,303,3835,6,0,P|304:304|280:337,1,80,0|0,3:0|0:0,0:0:0:0:
160,363,4855,6,0,P|202:368|224:398,1,64,0|0,3:0|0:0,0:0:0:0:
14,247,5899,6,0,P|66:234|143:224,1,120,2|0,3:2|0:0,0:0:0:0:
185,98,6899,2,0,P|259:124|289:127,1,80,2|0,0:0|0:0,0:0:0:0:
300,284,7880,5,0,3:0:0:0:
300,284,8899,2,0,P|291:333|288:354,1,53.3333333333333,2|2,0:0|0:0,0:0:0:0:
430,229,9648,5,2,0:0:0:0:
439,216,9859,2,0,B|365:216|396:256|309:257,1,120,2|2,3:2|0:0,0:0:0:0:
203,358,10796,2,0,P|148:338|95:324,1,80,2|2,0:0|0:0,0:0:0:0:
51,147,11883,6,0,P|16:199|36:228,1,80,2|0,3:2|3:0,0:0:0:0:
172,135,12862,2,0,P|170:96|140:72,1,80,0|0,3:2|3:0,0:0:0:0:
100,258,13882,6,0,P|154:247|215:239,1,80,0|2,3:0|0:0,0:0:0:0:
251,138,14631,1,2,0:0:0:0:
80,34,15047,5,2,0:0:0:0:
89,28,15298,2,0,P|79:92|72:122,1,93.3333333333333,2|2,0:0|3:2,0:0:0:0:
173,199,16082,6,0,P|169:179|167:159,1,40,2|0,0:0|0:2,0:0:0:0:
258,57,16654,2,0,B|329:72|290:92|378:116,1,120,2|2,0:0|0:2,0:0:0:0:
472,262,17852,6,0,P|428:270|394:283,1,80,0|0,3:0|0:0,0:0:0:0:
323,360,18665,1,2,0:0:0:0:
323,360,18831,2,0,P|293:354|262:344,1,53.3333333333333,2|2,0:0|0:0,0:0:0:0:
230,281,19330,1,2,0:0:0:0:
128,341,19613,5,2,0:0:0:0:
114,352,19863,2,0,P|101:280|94:258,1,80,2|0,3:2|3:0,0:0:0:0:
0,147,20863,2,0,P|60:122|126:105,1,120,0|2,3:0|0:0,0:0:0:0:
172,186,21899,6,0,P|203:194|235:208,1,40,2|0,3:2|0:0,0:0:0:0:
334,126,22399,2,0,P|332:86|306:57,1,80,2|0,0:0|3:0,0:0:0:0:
306,57,23363,1,0,0:0:0:0:
221,183,23863,6,0,P|222:222|248:251,1,80,0|0,3:0|0:0,0:0:0:0:
351,286,24863,2,0,P|407:263|454:253,1,80,2|2,0:0|0:0,0:0:0:0:
473,111,25863,5,0,3:0:0:0:
469,124,26196,2,0,B|400:130|440:157|357:163,1,106.666666666667,2|0,0:0|0:0,0:0:0:0:
371,161,27363,1,0,0:0:0:0:
204,48,27863,6,0,P|245:38|302:24,1,80,0|0,3:0|0:0,0:0:0:0:
204,152,28863,2,0,P|163:142|106:128,1,80,0|0,3:0|0:0,0:0:0:0:
81,67,29863,5,0,3:0:0:0:
9,189,30196,1,2,0:0:0:0:
0,198,30399,2,0,P|5:224|9:248,1,40,2|2,0:0|0:0,0:0:0:0:
82,285,30881,6,0,P|123:279|163:321,1,80,2|0,3:2|0:0,0:0:0:0:
215,184,31881,2,0,P|256:189|296:147,1,80,0|0,3:2|0:0,0:0:0:0:
331,248,33899,6,0,L|353:255,2,13.3333333333333,2|0|0,3:2|0:0|0:0,0:0:0:0:
229,356,35799,5,0,3:0:0:0:
229,356,36167,2,0,P|277:342|328:335,1,80,0|0,3:0|0:0,0:0:0:0:
343,252,36773,1,0,3:0:0:0:
215,157,37076,5,0,3:0:0:0:
221,174,37227,1,0,3:0:0:0:
323,78,37682,6,0,P|347:88|373:94,1,53.3333333333333,0|0,3:0|3:0,0:0:0:0:
413,165,38136,1,0,3:0:0:0:
315,240,38614,6,0,B|266:248|287:264|231:271,1,80.0000030517579,2|0,3:2|3:0,0:0:0:0:
185,220,39074,1,2,0:0:0:0:
46,314,39382,5,0,0:0:0:0:
29,330,39535,2,0,P|14:289|-4:240,1,80.0000030517579,2|0,3:2|0:0,0:0:0:0:
51,184,39996,1,2,3:2:0:0:
6,64,40457,5,0,3:0:0:0:
6,64,40764,2,0,P|70:76|145:99,1,120.000004577637,0|0,3:0|0:0,0:0:0:0:
163,163,41378,5,2,3:2:0:0:
259,44,41686,2,0,P|299:85|278:153,1,120.000004577637,2|2,0:0|0:0,0:0:0:0:
238,206,42300,5,0,3:0:0:0:
345,276,42607,2,0,P|420:255|476:242,1,120.000004577637,0|2,3:0|0:0,0:0:0:0:
428,129,43375,2,0,P|362:111|335:101,1,80.0000030517579,2|2,0:0|0:0,0:0:0:0:
287,337,44143,5,0,3:0:0:0:
287,337,44451,2,0,B|197:337|221:376|137:385,1,160.000006103516,0|0,3:0|3:0,0:0:0:0:
34,272,45372,2,0,B|124:272|100:311|184:320,1,160.000006103516,0|0,3:0|3:0,0:0:0:0:
287,109,46448,5,2,0:0:0:0:
287,109,46755,2,0,P|278:163|266:231,1,120.000004577637,2|2,3:2|0:0,0:0:0:0:
198,247,47369,1,2,0:0:0:0:
69,144,47676,2,0,P|58:87|51:62,1,80.0000030517579,2|0,0:0|0:0,0:0:0:0:
112,10,48137,6,0,B|184:17|147:45|242:61,1,120.000004577637,2|0,0:0|3:0,0:0:0:0:
268,121,48752,1,0,3:0:0:0:
445,168,49042,6,0,P|391:180|334:208,1,120.000004577637,2|2,0:0|0:0,0:0:0:0:
127,315,49692,6,0,P|215:280|278:357,1,200.000007629395,2|2,3:2|0:0,0:0:0:0:
210,384,50612,1,2,3:2:0:0:
79,221,51073,5,2,0:0:0:0:
241,123,51534,1,0,0:0:0:0:
241,123,51842,6,0,P|183:110|74:85,1,160.000006103516,0|0,3:0|3:0,0:0:0:0:
0,46,52764,2,0,P|45:36|133:15,1,120.000004577637,0|2,3:0|0:0,0:0:0:0:
170,76,53378,5,2,3:2:0:0:
94,180,53684,1,2,3:2:0:0:
80,202,53838,2,0,P|132:215|191:232,1,80.0000030517579,2|0,0:0|3:0,0:0:0:0:
221,283,54300,6,0,P|260:240|248:175,1,120.000004577637,0|0,3:0|3:0,0:0:0:0:
390,85,55220,1,0,0:0:0:0:
390,85,55529,2,0,P|382:142|421:185,1,120.000004577637,0|0,3:0|3:0,0:0:0:0:
457,281,56142,6,0,P|412:268|370:258,1,80.0000030517579,2|0,3:2|0:0,0:0:0:0:
324,200,56604,2,0,P|265:214|208:231,1,120.000004577637,2|0,3:2|0:0,0:0:0:0:
64,334,57372,6,0,B|136:338|108:369|187:371,1,120.000004577637,2|0,3:2|0:0,0:0:0:0:
241,323,57985,1,0,3:0:0:0:
125,219,58446,5,0,0:0:0:0:
250,140,58907,2,0,P|242:184|231:235,1,80.0000030517579,0|0,0:0|3:0,0:0:0:0:
290,276,59368,1,0,3:0:0:0:
420,364,59829,6,0,P|412:320|401:269,1,80.0000030517579,0|0,0:0|3:0,0:0:0:0:
460,228,60290,1,0,3:0:0:0:
334,120,60761,5,0,0:0:0:0:
417,54,61068,1,2,3:2:0:0:
407,34,61221,2,0,P|359:26|291:9,1,80.0000030517579,2|2,0:0|0:0,0:0:0:0:
266,75,61683,6,0,B|197:94|234:125|149:144,1,120.000004577637,2|0,3:2|3:0,0:0:0:0:
45,222,62604,1,0,0:0:0:0:
45,222,62912,2,0,B|114:241|77:272|162:291,1,120.000004577637,0|0,3:2|3:0,0:0:0:0:
188,354,63525,1,0,3:0:0:0:
277,228,63833,6,0,P|338:238|368:243,1,80.0000030517579
407,298,64293,1,0,0:0:0:0:
402,319,64447,1,0,0:0:0:0:
512,230,64755,6,0,P|526:174|486:134,1,120.000004577637,0|0,3:0|0:0,0:0:0:0:
389,75,65369,2,0,P|405:143|410:171,1,80.0000030517579,0|0,3:0|0:0,0:0:0:0:
350,205,65830,2,0,P|334:273|329:301,1,80.0000030517579,0|0,3:0|0:0,0:0:0:0:
381,357,66291,6,0,P|437:337|479:328,1,80.0000030517579,0|0,0:0|3:0,0:0:0:0:
456,332,66751,1,0,3:0:0:0:
209,286,67212,6,0,P|153:266|111:257,1,80.0000030517579,0|0,3:0|3:0,0:0:0:0:
134,261,67673,1,0,3:0:0:0:
262,213,68135,6,0,B|324:223|298:249|372:257,1,100,0|0,3:0|0:0,0:0:0:0:
423,182,68907,2,0,L|445:177,2,16.6666666666667,0|0|0,3:0|0:0|0:0,0:0:0:0:
327,12,69523,1,0,3:0:0:0:
436,77,69987,1,0,0:0:0:0:
421,95,70296,6,0,P|370:58|319:74,1,100,0|0,3:0|0:0,0:0:0:0:
277,121,70914,2,0,P|293:184|300:210,1,66.6666666666667,0|0,3:0|0:0,0:0:0:0:
386,236,71377,1,0,3:0:0:0:
374,251,71840,5,0,0:0:0:0:
232,360,72149,2,0,B|275:333|275:333|325:342,1,100,0|0,3:0|0:0,0:0:0:0:
366,269,72767,5,0,0:0:0:0:
244,141,73076,2,0,B|287:168|287:168|337:159,1,100,0|0,3:0|0:0,0:0:0:0:
395,109,73694,2,0,P|380:72|374:54,1,33.3333333333333,0|0,3:0|0:0,0:0:0:0:
297,11,74003,6,0,B|240:18|263:49|196:53,1,100,0|0,3:0|0:0,0:0:0:0:
156,113,74620,1,0,3:0:0:0:
32,49,74929,2,0,P|47:113|57:157,1,100,0|0,3:0|0:0,0:0:0:0:
122,196,75542,5,0,0:0:0:0:
27,285,75849,1,2,3:2:0:0:
83,343,76003,2,0,P|126:326|156:323,1,66.6666666666667,2|0,3:2|0:0,0:0:0:0:
214,237,76465,2,0,P|257:254|287:257,1,66.6666666666667,2|0,3:2|0:0,0:0:0:0:
327,320,76926,1,2,3:2:0:0:
411,225,77388,5,2,3:2:0:0:
411,225,77695,2,0,P|387:150|382:124,1,100,2|2,3:2|3:2,0:0:0:0:
339,65,78311,2,0,P|327:113|310:160,1,100,0|0,3:2|3:2,0:0:0:0:
195,247,79234,5,0,3:0:0:0:
203,274,79542,2,0,B|259:288|235:315|312:329,1,100,2|0,3:2|0:0,0:0:0:0:
336,384,80153,6,0,P|384:369|455:357,1,100,0|0,3:0|0:0,0:0:0:0:
489,216,81076,6,0,P|455:206|420:190,1,66.6666666666667,0|0,0:0|3:0,0:0:0:0:
366,239,81537,1,0,0:0:0:0:
274,338,81999,6,0,P|242:354|206:368,1,66.6666666666667,0|0,0:0|3:0,0:0:0:0:
141,330,82460,1,0,0:0:0:0:
6,239,82925,6,0,P|38:210|77:211,1,80.0000030517579,2|0,3:2|3:0,0:0:0:0:
145,243,83385,1,2,0:0:0:0:
244,147,83693,5,0,0:0:0:0:
259,121,83846,2,0,P|215:121|184:89,1,80.0000030517579,2|0,3:2|0:0,0:0:0:0:
164,23,84307,1,2,3:2:0:0:
7,143,84768,5,0,3:0:0:0:
7,143,85075,2,0,B|82:146|45:177|121:186,1,120.000004577637,0|0,3:0|0:0,0:0:0:0:
176,137,85689,5,2,3:2:0:0:
267,220,85997,2,0,P|307:179|286:111,1,120.000004577637,2|2,0:0|0:0,0:0:0:0:
247,49,86611,5,0,3:0:0:0:
360,164,86918,2,0,P|435:143|491:130,1,120.000004577637,0|2,3:0|0:0,0:0:0:0:
416,283,87686,2,0,P|374:268|323:255,1,80.0000030517579,2|2,0:0|0:0,0:0:0:0:
218,336,88454,5,0,3:0:0:0:
218,336,88762,2,0,P|154:319|158:235,1,160.000006103516,0|0,3:0|3:0,0:0:0:0:
115,131,89683,2,0,P|122:204|52:229,1,160.000006103516,0|0,3:0|3:0,0:0:0:0:
280,221,90759,5,2,0:0:0:0:
280,221,91066,2,0,P|334:212|402:200,1,120.000004577637,2|2,3:2|0:0,0:0:0:0:
466,259,91680,1,2,0:0:0:0:
512,94,91987,2,0,P|455:83|430:76,1,80.0000030517579,2|0,0:0|0:0,0:0:0:0:
374,12,92448,6,0,B|302:19|339:47|244:63,1,120.000004577637,2|0,0:0|3:0,0:0:0:0:
239,132,93063,1,0,3:0:0:0:
445,168,93370,6,0,P|391:180|334:208,1,120.000004577637,2|2,0:0|0:0,0:0:0:0:
233,334,94020,6,0,P|166:311|173:215,1,160.000006103516,2|2,3:2|0:0,0:0:0:0:
239,239,94941,1,2,3:2:0:0:
83,147,95401,5,2,0:0:0:0:
170,62,95849,1,0,0:0:0:0:
170,62,96156,6,0,P|112:49|3:24,1,160.000006103516,0|0,3:0|3:0,0:0:0:0:
81,153,97038,1,0,3:0:0:0:
81,153,97232,2,0,P|101:202|112:238,1,80.0000030517579,0|2,3:0|0:0,0:0:0:0:
75,303,97689,5,2,3:2:0:0:
245,377,97996,2,0,P|258:325|275:266,1,80.0000030517579,2|0,0:0|0:0,0:0:0:0:
342,278,98457,1,0,3:0:0:0:
342,278,98611,6,0,P|278:256|209:221,1,120.000004577637,0|0,3:0|3:0,0:0:0:0:
77,126,99532,1,0,0:0:0:0:
77,126,99839,2,0,P|141:104|210:69,1,120.000004577637,0|0,3:0|3:0,0:0:0:0:
257,125,100453,1,2,3:2:0:0:
147,237,100761,2,0,P|186:245|224:259,1,80.0000030517579,2|0,0:2|0:0,0:0:0:0:
281,332,101217,2,0,P|318:318|357:310,1,80.0000030517579,2|0,0:2|0:0,0:0:0:0:
427,236,101699,6,0,P|429:180|368:145,1,120.000004577637,2|0,3:2|0:0,0:0:0:0:
324,203,102313,1,0,3:0:0:0:
236,107,102774,1,0,3:0:0:0:
393,6,103234,1,0,0:0:0:0:
402,28,103542,6,0,P|352:16|286:1,1,120.000004577637,2|0,3:2|3:0,0:0:0:0:
219,83,104156,2,0,P|160:96|102:110,1,120.000004577637,0|0,3:2|3:0,0:0:0:0:
0,0,105078,5,0,0:0:0:0:
85,82,105386,1,2,3:2:0:0:
85,82,105539,2,0,P|77:130|60:198,1,80.0000030517579,2|2,0:0|0:0,0:0:0:0:
0,219,106000,6,0,B|69:238|32:269|117:288,1,120.000004577637,2|0,3:2|3:0,0:0:0:0:
180,384,106922,1,0,0:0:0:0:
180,384,107229,2,0,B|249:365|212:334|297:315,1,120.000004577637,0|0,3:2|3:0,0:0:0:0:
323,252,107843,1,0,3:0:0:0:
201,164,108303,1,0,0:0:0:0:
358,76,108764,5,0,0:0:0:0:
268,40,109072,2,0,P|287:92|312:164,1,120.000004577637,0|2,3:0|0:0,0:0:0:0:
384,171,109686,1,0,3:0:0:0:
492,243,109993,5,2,0:0:0:0:
489,259,110147,1,2,0:0:0:0:
341,345,110455,6,0,B|266:350|298:387|199:382,1,120.000004577637,2|0,0:0|3:0,0:0:0:0:
165,336,111068,1,0,3:0:0:0:
257,247,111529,1,0,3:0:0:0:
185,177,111837,6,0,P|133:156|92:173,1,80.0000030517579,2|0,3:2|0:0,0:0:0:0:
19,130,112297,2,0,P|58:133|92:113,1,80.0000030517579,2|0,0:2|0:0,0:0:0:0:
138,40,112759,2,0,P|192:26|210:21,1,40.000001525879,2|0,3:2|0:0,0:0:0:0:
304,98,113219,5,2,3:2:0:0:
314,126,113373,2,0,B|389:138|346:168|438:185,1,120.000004577637,0|0,3:0|3:0,0:0:0:0:
452,325,114294,1,0,0:0:0:0:
452,325,114602,2,0,P|379:304|313:287,1,120.000004577637,0|0,3:0|0:0,0:0:0:0:
222,257,115162,6,0,P|266:249|286:205,1,80.0000030517579,2|0,0:0|0:0,0:0:0:0:
366,181,115598,6,0,P|287:192|228:93,1,200.000007629395,2|0,0:0|0:0,0:0:0:0:
298,66,116518,5,2,0:0:0:0:
209,268,117078,6,0,L|140:281,1,40.000001525879,0|0,3:0|0:0,0:0:0:0:
304,362,117999,2,0,L|455:390,1,120.000004577637,0|0,3:0|0:0,0:0:0:0:
484,335,118786,1,0,0:0:0:0:
356,188,119305,6,0,P|382:182|386:181,2,20.0000007629395,0|0|0,3:0|0:0|0:0,0:0:0:0:
