osu file format v14

[General]
AudioFilename: Gavin G - Reach Out.mp3
AudioLeadIn: 0
PreviewTime: 155494
Countdown: 0
SampleSet: Soft
StackLeniency: 0.8
Mode: 0
LetterboxInBreaks: 0
WidescreenStoryboard: 0

[Editor]
DistanceSpacing: 1.4
BeatDivisor: 4
GridSize: 4
TimelineZoom: 1

[Metadata]
Title:Reach Out
TitleUnicode:Reach Out
Artist:Gavin G
ArtistUnicode:Gavin G
Creator:SacredShinobi
Version:Another
Source:
Tags:
BeatmapID:862627
BeatmapSetID:396528

[Difficulty]
HPDrainRate:7
CircleSize:4
OverallDifficulty:7.5
ApproachRate:9.2
SliderMultiplier:2
SliderTickRate:1

[Events]
//Background and Video events
0,0,"bg.png",0,0
//Break Periods
2,37811,47982
2,49635,53629
2,55282,59277
2,60930,64924
2,122516,127394
//Storyboard Layer 0 (Background)
//Storyboard Layer 1 (Fail)
//Storyboard Layer 2 (Pass)
//Storyboard Layer 3 (Foreground)
//Storyboard Sound Samples

[TimingPoints]
3728,352.941176470588,4,2,0,75,1,0
26317,-166.666666666667,4,2,0,65,0,0
48463,-166.666666666667,4,2,0,60,0,0
54110,-166.666666666667,4,2,0,70,0,0
59757,-166.666666666667,4,2,0,80,0,0
65493,-166.666666666667,4,2,0,15,0,0
67963,-166.666666666667,4,2,0,60,0,0
68493,-166.666666666667,4,2,0,80,0,0
70081,-166.666666666667,4,2,0,80,0,0
71494,-100,4,3,0,100,0,1
116670,-166.666666666667,4,2,0,5,0,0
127875,-166.666666666667,4,2,0,65,0,0
129287,-166.666666666667,4,2,0,35,0,0
133875,-166.666666666667,4,2,0,65,0,0
134934,-166.666666666667,4,2,0,35,0,0
138904,-166.666666666667,4,2,0,65,0,0
158669,-166.666666666667,4,2,0,5,0,0
161140,-166.666666666667,4,2,0,45,0,0
161228,-166.666666666667,4,2,0,50,0,0
161316,-166.666666666667,4,2,0,55,0,0
161404,-166.666666666667,4,1,0,60,0,0
161493,-166.666666666667,4,1,0,65,0,0
161581,-166.666666666667,4,1,0,70,0,0
161669,-166.666666666667,4,3,0,75,0,0
161757,-166.666666666667,4,3,0,80,0,0
161847,-100,4,3,0,85,0,0
161934,-100,4,3,0,100,0,1
181346,-100,4,3,0,90,0,1
182581,-100,4,3,0,85,0,1
183640,-100,4,3,0,80,0,1
184435,-100,4,2,0,70,0,0
185404,-100,4,2,0,65,0,0
186463,-100,4,2,0,60,0,0
187522,-100,4,2,0,55,0,0
188581,-100,4,2,0,50,0,0
190082,-100,4,2,0,15,0,0

[HitObjects]
132,292,3729,5,0,0:0:0:0:
100,200,3905,1,0,0:0:0:0:
184,144,4082,1,0,0:0:0:0:
208,40,4258,5,0,0:0:0:0:
233,53,4345,1,0,0:0:0:0:
256,72,4433,1,0,0:0:0:0:
276,92,4521,1,0,0:0:0:0:
292,116,4609,1,0,0:0:0:0:
368,196,4786,1,0,0:0:0:0:
280,264,4964,5,4,0:0:0:0:
168,288,5141,5,0,0:0:0:0:
144,176,5317,1,0,0:0:0:0:
224,88,5494,1,0,0:0:0:0:
312,152,5670,2,0,P|355:131|372:112,2,50
304,256,6023,1,0,0:0:0:0:
220,184,6199,1,0,0:0:0:0:
392,184,6376,5,4,0:0:0:0:
304,40,6552,5,0,0:0:0:0:
168,100,6729,1,0,0:0:0:0:
120,236,6905,1,0,0:0:0:0:
236,304,7080,5,0,0:0:0:0:
259,274,7168,1,0,0:0:0:0:
271,239,7256,1,0,0:0:0:0:
270,202,7344,1,0,0:0:0:0:
256,167,7432,1,0,0:0:0:0:
172,156,7611,1,0,0:0:0:0:
240,64,7788,5,4,0:0:0:0:
324,160,7964,2,0,P|392:152|452:176,2,100
180,196,8494,1,0,0:0:0:0:
180,196,8582,1,0,0:0:0:0:
180,196,8670,1,0,0:0:0:0:
320,196,8847,1,0,0:0:0:0:
240,116,9023,5,0,0:0:0:0:
240,272,9199,1,4,0:0:0:0:
336,112,9376,5,0,0:0:0:0:
388,224,9552,1,0,0:0:0:0:
268,220,9729,1,0,0:0:0:0:
240,96,9905,6,0,L|200:152,1,50
116,112,10081,2,0,L|76:168,1,50
164,204,10257,2,0,L|124:260,1,50
224,288,10435,5,4,0:0:0:0:
304,204,10611,5,4,0:0:0:0:
348,96,10788,5,0,0:0:0:0:
348,96,10964,1,0,0:0:0:0:
348,96,11141,1,0,0:0:0:0:
204,168,11317,2,0,P|175:224|175:247,2,50
84,152,11670,5,0,0:0:0:0:
112,56,11847,1,0,0:0:0:0:
208,72,12023,5,4,0:0:0:0:
308,136,12199,5,0,0:0:0:0:
416,192,12376,1,0,0:0:0:0:
408,312,12552,1,0,0:0:0:0:
308,336,12728,5,0,0:0:0:0:
274,332,12816,1,0,0:0:0:0:
243,320,12904,1,0,0:0:0:0:
216,301,12992,1,0,0:0:0:0:
195,275,13080,1,0,0:0:0:0:
181,245,13169,1,0,0:0:0:0:
244,176,13435,5,4,0:0:0:0:
312,132,13611,6,0,P|352:100|368:104,4,50
208,240,14141,2,0,P|176:280|180:296,4,50
316,224,14669,5,0,0:0:0:0:
345,201,14757,1,0,0:0:0:0:
366,170,14845,1,0,0:0:0:0:
375,134,14933,1,0,0:0:0:0:
371,97,15021,1,0,0:0:0:0:
256,76,15199,5,0,0:0:0:0:
144,144,15376,1,0,0:0:0:0:
148,264,15552,5,0,0:0:0:0:
176,280,15641,1,0,0:0:0:0:
204,292,15729,1,0,0:0:0:0:
236,300,15817,1,0,0:0:0:0:
268,304,15905,1,0,0:0:0:0:
344,240,16082,1,0,0:0:0:0:
324,140,16258,5,4,0:0:0:0:
224,104,16435,1,0,0:0:0:0:
224,104,16611,1,0,0:0:0:0:
224,104,16788,1,0,0:0:0:0:
112,72,16963,5,0,0:0:0:0:
99,107,17051,1,0,0:0:0:0:
94,144,17139,1,0,0:0:0:0:
96,181,17227,1,0,0:0:0:0:
105,218,17315,1,0,0:0:0:0:
204,240,17493,2,4,P|268:244|308:220,1,100
312,128,17847,2,0,P|376:116|408:124,2,100
112,184,18376,6,0,L|112:120,1,50
272,200,18552,2,0,L|272:252,1,50
112,256,18729,2,0,L|52:256,1,50
184,136,18905,6,4,L|284:136,1,100
376,104,19258,1,0,0:0:0:0:
428,192,19435,1,0,0:0:0:0:
332,212,19611,1,0,0:0:0:0:
256,176,19787,5,0,0:0:0:0:
233,151,19875,1,0,0:0:0:0:
207,130,19963,1,0,0:0:0:0:
178,114,20051,1,0,0:0:0:0:
147,102,20139,1,0,0:0:0:0:
64,148,20316,1,0,0:0:0:0:
88,244,20494,5,4,0:0:0:0:
192,280,20670,2,0,P|280:280|320:256,2,100
224,176,21199,2,0,P|176:136|176:104,2,50
304,144,21552,5,0,0:0:0:0:
388,80,21729,1,0,0:0:0:0:
280,48,21904,1,4,0:0:0:0:
184,48,22080,2,0,P|117:84|117:132,1,100
136,176,22435,5,0,0:0:0:0:
152,204,22523,1,0,0:0:0:0:
172,228,22611,1,0,0:0:0:0:
192,252,22699,1,0,0:0:0:0:
216,272,22788,1,0,0:0:0:0:
300,216,22964,5,0,0:0:0:0:
300,216,23052,1,0,0:0:0:0:
300,216,23141,1,0,0:0:0:0:
272,112,23317,1,4,0:0:0:0:
168,132,23494,5,0,0:0:0:0:
172,248,23670,1,0,0:0:0:0:
172,248,23758,1,0,0:0:0:0:
172,248,23847,1,0,0:0:0:0:
264,204,24023,5,0,0:0:0:0:
272,288,24200,5,0,0:0:0:0:
272,288,24288,1,0,0:0:0:0:
272,288,24376,1,0,0:0:0:0:
352,220,24553,5,0,0:0:0:0:
352,220,24641,1,0,0:0:0:0:
352,220,24729,1,0,0:0:0:0:
256,152,24905,6,0,L|256:56,4,50
256,232,25435,6,0,L|256:328,4,50
152,228,25964,2,0,P|120:200|116:168,2,50
208,156,26317,5,0,0:0:0:0:
208,156,26494,2,0,P|252:136|288:132,1,59.9999981689454
312,220,26847,1,0,0:0:0:0:
240,264,27023,6,0,P|204:272|168:256,1,59.9999981689454
160,152,27376,5,0,0:0:0:0:
228,76,27552,1,0,0:0:0:0:
296,152,27729,1,0,0:0:0:0:
320,260,27905,1,0,0:0:0:0:
220,300,28082,6,0,P|184:280|160:248,1,59.9999981689454
144,184,28433,5,0,0:0:0:0:
88,90,28610,1,0,0:0:0:0:
72,168,28786,5,0,0:0:0:0:
162,107,28963,1,0,0:0:0:0:
252,148,29141,6,0,P|256:100|268:80,1,59.9999981689454
296,232,29494,2,0,P|340:251|352:272,1,59.9999981689454
208,228,29847,2,0,P|175:263|156:268,1,59.9999981689454
256,302,30199,5,0,0:0:0:0:
146,192,30376,1,0,0:0:0:0:
256,84,30552,1,0,0:0:0:0:
364,192,30729,1,0,0:0:0:0:
252,188,30905,5,0,0:0:0:0:
252,188,31082,1,0,0:0:0:0:
152,116,31258,2,0,P|176:80|208:60,2,59.9999981689454
120,232,31788,2,0,P|140:288|148:296,1,59.9999981689454
236,296,32141,5,0,0:0:0:0:
332,248,32318,1,0,0:0:0:0:
240,188,32494,1,0,0:0:0:0:
172,104,32670,2,0,P|116:60|112:48,2,59.9999981689454
284,96,33199,5,0,0:0:0:0:
340,204,33376,1,0,0:0:0:0:
392,96,33552,1,0,0:0:0:0:
448,204,33729,1,0,0:0:0:0:
404,288,33905,6,0,P|356:304|324:296,3,59.9999981689454
248,260,34611,1,0,0:0:0:0:
148,180,34786,5,0,0:0:0:0:
148,78,34963,1,0,0:0:0:0:
97,129,35139,1,0,0:0:0:0:
198,129,35316,1,0,0:0:0:0:
256,188,35494,2,0,P|304:196|340:192,1,59.9999981689454
328,92,35847,6,0,P|288:80|244:80,3,59.9999981689454
217,124,36552,1,0,0:0:0:0:
217,259,36729,1,0,0:0:0:0:
333,192,36905,1,0,0:0:0:0:
217,124,37082,1,0,0:0:0:0:
333,192,37258,1,0,0:0:0:0:
217,259,37435,1,0,0:0:0:0:
256,192,37611,5,0,0:0:0:0:
239,133,48552,5,0,0:0:0:0:
338,217,48905,1,0,0:0:0:0:
216,264,49258,1,0,0:0:0:0:
216,264,49435,1,0,0:0:0:0:
282,114,54199,5,0,0:0:0:0:
328,284,54552,1,0,0:0:0:0:
155,241,54905,1,0,0:0:0:0:
155,241,55082,1,0,0:0:0:0:
333,111,59847,5,0,0:0:0:0:
291,345,60200,1,0,0:0:0:0:
105,195,60553,1,0,0:0:0:0:
105,195,60730,1,0,0:0:0:0:
256,192,65494,12,0,67787,0:0:0:0:
202,236,67963,5,0,0:0:0:0:
243,123,68140,1,0,0:0:0:0:
321,215,68316,1,0,0:0:0:0:
229,290,68493,5,0,0:0:0:0:
157,165,68669,1,0,0:0:0:0:
282,93,68846,1,0,0:0:0:0:
354,218,69022,1,0,0:0:0:0:
295,313,69199,5,0,0:0:0:0:
152,116,69375,1,0,0:0:0:0:
383,192,69552,1,0,0:0:0:0:
152,267,69728,1,0,0:0:0:0:
295,70,69904,1,0,0:0:0:0:
368,112,70080,5,0,0:0:0:0:
366,274,70257,1,0,0:0:0:0:
211,322,70433,1,0,0:0:0:0:
118,189,70610,1,0,0:0:0:0:
215,60,70786,1,0,0:0:0:0:
200,152,70963,5,0,0:0:0:0:
220,191,71051,1,0,0:0:0:0:
253,221,71139,1,0,0:0:0:0:
295,237,71227,1,0,0:0:0:0:
340,236,71315,1,0,0:0:0:0:
360,144,71494,5,0,0:0:0:0:
276,64,71670,1,0,0:0:0:0:
160,84,71847,1,0,0:0:0:0:
120,180,72022,5,0,0:0:0:0:
131,211,72110,1,0,0:0:0:0:
147,240,72198,1,0,0:0:0:0:
169,265,72286,1,0,0:0:0:0:
195,286,72374,1,0,0:0:0:0:
224,302,72463,1,0,0:0:0:0:
256,312,72551,1,0,0:0:0:0:
272,224,72728,5,0,0:0:0:0:
205,156,72904,1,0,0:0:0:0:
232,60,73081,1,0,0:0:0:0:
304,124,73257,1,0,0:0:0:0:
404,92,73434,5,0,0:0:0:0:
414,140,73522,1,0,0:0:0:0:
394,185,73610,1,0,0:0:0:0:
320,224,73787,5,0,0:0:0:0:
249,294,73963,1,0,0:0:0:0:
178,223,74140,1,0,0:0:0:0:
144,128,74316,2,0,P|104:84|48:68,2,100
228,96,74846,5,0,0:0:0:0:
253,98,74934,1,0,0:0:0:0:
279,102,75022,1,0,0:0:0:0:
304,108,75110,1,0,0:0:0:0:
328,112,75198,1,0,0:0:0:0:
272,192,75375,5,0,0:0:0:0:
416,152,75552,5,0,0:3:0:0:
409,176,75640,1,0,0:3:0:0:
401,201,75728,1,0,0:3:0:0:
390,224,75816,1,0,0:3:0:0:
382,247,75904,1,0,0:3:0:0:
272,192,76081,5,0,0:0:0:0:
304,272,76257,5,0,0:0:0:0:
279,274,76345,1,0,0:0:0:0:
255,276,76434,1,0,0:0:0:0:
231,277,76522,1,0,0:0:0:0:
208,280,76610,1,0,0:0:0:0:
104,240,76787,6,0,P|104:160|140:112,1,100
204,136,77140,5,0,0:0:0:0:
240,40,77316,1,0,0:0:0:0:
332,88,77493,1,0,0:0:0:0:
424,120,77669,5,0,0:0:0:0:
430,152,77757,1,0,0:0:0:0:
430,185,77845,1,0,0:0:0:0:
425,218,77933,1,0,0:0:0:0:
413,250,78021,1,0,0:0:0:0:
396,278,78110,1,0,0:0:0:0:
375,303,78198,1,0,0:0:0:0:
272,296,78375,5,0,0:0:0:0:
197,293,78551,1,0,0:0:0:0:
132,257,78727,1,0,0:0:0:0:
96,188,78904,1,0,0:0:0:0:
184,176,79081,5,0,0:0:0:0:
184,176,79169,1,0,0:0:0:0:
184,176,79257,1,0,0:0:0:0:
164,92,79434,2,0,P|268:48|296:52,1,100
332,88,79787,1,0,0:0:0:0:
408,168,79963,5,0,0:0:0:0:
408,268,80140,1,0,0:0:0:0:
321,217,80316,1,0,0:0:0:0:
240,144,80493,5,0,0:0:0:0:
205,159,80581,1,0,0:0:0:0:
173,178,80669,1,0,0:0:0:0:
142,200,80757,1,0,0:0:0:0:
115,224,80845,1,0,0:0:0:0:
172,300,81022,6,0,P|276:308|304:304,1,100
352,304,81375,1,0,0:0:0:0:
352,229,81551,1,0,0:0:0:0:
416,266,81727,1,0,0:0:0:0:
420,184,81904,5,0,0:0:0:0:
392,164,81992,1,0,0:0:0:0:
361,153,82081,1,0,0:0:0:0:
272,200,82257,5,0,0:0:0:0:
240,76,82433,1,0,0:0:0:0:
148,156,82610,1,0,0:0:0:0:
116,264,82787,5,0,0:0:0:0:
189,329,82963,1,0,0:0:0:0:
286,343,83140,1,0,0:0:0:0:
360,284,83316,5,0,0:0:0:0:
373,253,83405,1,0,0:0:0:0:
377,222,83493,1,0,0:0:0:0:
371,189,83581,1,0,0:0:0:0:
355,158,83669,1,0,0:0:0:0:
300,84,83846,1,0,0:0:0:0:
208,92,84022,6,0,P|139:63|80:57,2,100
144,168,84552,1,0,0:0:0:0:
112,252,84728,5,0,0:0:0:0:
140,269,84816,1,0,0:0:0:0:
169,285,84904,1,0,0:0:0:0:
200,298,84992,1,0,0:0:0:0:
231,309,85080,1,0,0:0:0:0:
336,308,85257,6,0,P|380:232|384:184,1,100
378,120,85610,1,0,0:0:0:0:
296,73,85787,1,0,0:0:0:0:
296,168,85963,1,0,0:0:0:0:
204,112,86140,5,0,0:0:0:0:
158,131,86228,1,0,0:0:0:0:
132,173,86316,1,0,0:0:0:0:
132,264,86493,2,0,P|192:312|248:320,1,100
288,264,86846,1,0,0:0:0:0:
364,192,87022,5,0,0:0:0:0:
299,115,87199,1,0,0:0:0:0:
364,192,87375,1,0,0:0:0:0:
299,115,87552,5,0,0:0:0:0:
269,101,87640,1,0,0:0:0:0:
237,94,87728,1,0,0:0:0:0:
203,94,87816,1,0,0:0:0:0:
171,101,87904,1,0,0:0:0:0:
92,164,88081,1,0,0:0:0:0:
120,276,88257,5,0,0:0:0:0:
224,312,88434,2,0,P|300:272|320:232,2,100
232,224,88963,2,0,P|176:252|160:280,2,50
336,176,89316,5,0,0:0:0:0:
444,113,89493,1,0,0:0:0:0:
336,51,89669,1,0,0:0:0:0:
212,68,89846,2,0,P|128:112|108:148,1,100
120,216,90199,1,0,0:0:0:0:
202,292,90375,5,0,0:0:0:0:
237,307,90463,1,0,0:0:0:0:
274,315,90551,1,0,0:0:0:0:
312,314,90639,1,0,0:0:0:0:
348,305,90727,1,0,0:0:0:0:
408,220,90904,1,0,0:0:0:0:
296,160,91081,1,0,0:0:0:0:
236,76,91257,5,0,0:0:0:0:
155,112,91434,1,0,0:0:0:0:
109,188,91610,1,0,0:0:0:0:
168,276,91787,5,0,0:0:0:0:
190,285,91875,1,0,0:0:0:0:
214,294,91963,1,0,0:0:0:0:
237,302,92051,1,0,0:0:0:0:
261,310,92139,1,0,0:0:0:0:
244,208,92316,5,0,0:0:0:0:
340,240,92493,5,0,0:0:0:0:
336,216,92581,1,0,0:0:0:0:
332,191,92669,1,0,0:0:0:0:
328,167,92757,1,0,0:0:0:0:
322,142,92845,1,0,0:0:0:0:
244,208,93022,1,0,0:0:0:0:
236,100,93199,5,0,0:0:0:0:
212,114,93287,1,0,0:0:0:0:
187,130,93375,1,0,0:0:0:0:
163,146,93463,1,0,0:0:0:0:
141,163,93551,1,0,0:0:0:0:
124,260,93728,2,0,P|200:320|224:316,1,100
344,308,94081,6,0,P|400:184|376:136,1,200
328,52,94610,1,0,0:0:0:0:
284,136,94787,1,0,0:0:0:0:
262,179,94875,1,0,0:0:0:0:
217,199,94963,1,0,0:0:0:0:
192,100,95140,5,0,0:0:0:0:
112,140,95316,1,0,0:0:0:0:
99,175,95404,1,0,0:0:0:0:
95,212,95492,1,0,0:0:0:0:
99,249,95580,1,0,0:0:0:0:
112,284,95668,1,0,0:0:0:0:
208,240,95846,5,0,0:0:0:0:
272,312,96022,5,0,0:0:0:0:
300,294,96110,1,0,0:0:0:0:
324,271,96198,1,0,0:0:0:0:
343,244,96286,1,0,0:0:0:0:
356,213,96374,1,0,0:0:0:0:
363,181,96463,1,0,0:0:0:0:
363,147,96551,1,0,0:0:0:0:
312,72,96728,6,0,P|220:60|180:76,3,100
128,136,97434,1,0,0:0:0:0:
128,136,97522,1,0,0:0:0:0:
128,136,97610,1,0,0:0:0:0:
192,208,97787,1,0,0:0:0:0:
285,172,97963,1,0,0:0:0:0:
269,270,98140,1,0,0:0:0:0:
285,172,98316,5,0,0:0:0:0:
192,208,98493,1,0,0:0:0:0:
269,270,98669,1,0,0:0:0:0:
392,248,98846,5,0,0:0:0:0:
405,199,98934,1,0,0:0:0:0:
406,150,99022,1,0,0:0:0:0:
395,101,99110,1,0,0:0:0:0:
372,57,99198,1,0,0:0:0:0:
288,76,99375,2,0,P|220:84|188:104,1,100
132,168,99728,5,0,0:3:0:0:
170,261,99905,1,0,0:3:0:0:
132,168,100081,1,0,0:3:0:0:
170,261,100257,1,0,0:0:0:0:
170,261,100346,1,0,0:0:0:0:
170,261,100434,1,0,0:0:0:0:
256,288,100610,6,0,P|364:304|392:296,2,100
216,200,101140,1,0,0:0:0:0:
216,110,101316,1,0,0:0:0:0:
300,60,101493,1,0,0:0:0:0:
400,72,101669,5,0,0:0:0:0:
426,97,101757,1,0,0:0:0:0:
443,129,101845,1,0,0:0:0:0:
448,166,101933,1,0,0:0:0:0:
439,203,102021,1,0,0:0:0:0:
356,248,102198,1,0,0:0:0:0:
416,320,102375,6,0,P|343:332|300:327,1,100
232,288,102728,1,0,0:0:0:0:
232,288,102904,1,0,0:0:0:0:
164,236,103081,5,0,0:0:0:0:
128,201,103169,1,0,0:0:0:0:
116,153,103257,1,0,0:0:0:0:
204,136,103434,2,0,P|160:64|108:48,2,100
304,120,103963,5,0,0:0:0:0:
396,81,104140,1,0,0:0:0:0:
423,173,104316,1,0,0:0:0:0:
424,284,104493,5,0,0:0:0:0:
374,289,104581,1,0,0:0:0:0:
324,291,104669,1,0,0:0:0:0:
274,287,104757,1,0,0:0:0:0:
225,280,104845,1,0,0:0:0:0:
120,256,105022,6,0,P|100:168|116:124,1,100
184,92,105375,2,0,P|252:64|312:64,1,100
384,112,105727,1,0,0:0:0:0:
296,176,105904,1,0,0:0:0:0:
312,268,106080,6,0,P|380:284|408:284,2,50
216,288,106434,2,0,P|140:240|120:192,1,100
176,148,106787,1,0,0:0:0:0:
176,148,106875,1,0,0:0:0:0:
176,148,106963,1,0,0:0:0:0:
280,152,107140,5,0,0:0:0:0:
280,52,107316,1,0,0:0:0:0:
366,102,107493,5,0,0:0:0:0:
366,102,107581,1,0,0:0:0:0:
366,102,107670,1,0,0:0:0:0:
412,188,107846,5,0,0:0:0:0:
402,219,107934,1,0,0:0:0:0:
387,249,108022,1,0,0:0:0:0:
367,275,108110,1,0,0:0:0:0:
342,298,108198,1,0,0:0:0:0:
313,315,108287,1,0,0:0:0:0:
282,327,108375,1,0,0:0:0:0:
188,312,108552,5,0,0:0:0:0:
166,287,108640,1,0,0:0:0:0:
147,259,108728,1,0,0:0:0:0:
135,229,108816,1,0,0:0:0:0:
127,196,108904,1,0,0:0:0:0:
127,162,108993,1,0,0:0:0:0:
132,129,109081,1,0,0:0:0:0:
186,73,109257,5,0,0:0:0:0:
218,66,109345,1,0,0:0:0:0:
252,64,109433,1,0,0:0:0:0:
284,68,109521,1,0,0:0:0:0:
317,78,109609,1,0,0:0:0:0:
346,95,109698,1,0,0:0:0:0:
372,116,109786,1,0,0:0:0:0:
260,192,109963,5,0,0:0:0:0:
260,192,110052,1,0,0:0:0:0:
260,192,110140,1,0,0:0:0:0:
260,192,110228,1,0,0:0:0:0:
260,192,110316,1,0,0:0:0:0:
260,192,110404,1,0,0:0:0:0:
260,192,110493,1,0,0:0:0:0:
207,282,110669,5,0,0:0:0:0:
312,282,110846,1,0,0:0:0:0:
416,240,111022,5,0,0:0:0:0:
425,167,111199,1,0,0:0:0:0:
387,104,111375,1,0,0:0:0:0:
292,104,111552,5,0,0:0:0:0:
256,116,111640,1,0,0:0:0:0:
219,134,111728,1,0,0:0:0:0:
120,160,111904,2,0,P|120:272|136:292,1,100
216,292,112257,1,0,0:0:0:0:
320,208,112434,5,0,0:3:0:0:
358,301,112611,1,0,0:3:0:0:
320,208,112787,1,0,0:3:0:0:
358,301,112963,5,0,0:0:0:0:
309,314,113051,1,0,0:0:0:0:
260,318,113139,1,0,0:0:0:0:
210,314,113227,1,0,0:0:0:0:
162,300,113315,1,0,0:0:0:0:
120,208,113493,5,0,0:0:0:0:
120,208,113669,1,0,0:0:0:0:
136,100,113846,2,0,P|216:68|264:72,2,100
168,184,114375,5,0,0:0:0:0:
216,288,114552,1,0,0:0:0:0:
282,194,114728,1,0,0:0:0:0:
153,93,114904,5,0,0:0:0:0:
182,203,115081,1,0,0:0:0:0:
263,122,115257,6,0,P|277:75|274:64,4,50
320,192,115787,2,0,P|369:188|379:182,4,50
261,255,116316,2,0,P|281:300|290:306,2,50,0|0|0,0:3|0:3|0:3,0:3:0:0:
256,192,116670,12,0,122316,0:0:0:0:
325,250,127964,5,0,0:0:0:0:
163,184,128141,1,0,0:0:0:0:
332,142,128317,1,0,0:0:0:0:
221,276,128494,1,0,0:0:0:0:
233,102,128670,1,0,0:0:0:0:
325,250,129376,5,0,0:0:0:0:
163,184,130082,1,0,0:0:0:0:
332,142,130788,1,0,0:0:0:0:
221,276,131494,1,0,0:0:0:0:
233,102,132199,1,0,0:0:0:0:
256,192,132905,5,0,0:0:0:0:
256,192,133611,1,0,0:0:0:0:
173,220,133964,5,0,0:0:0:0:
270,105,134141,1,0,0:0:0:0:
322,247,134317,1,0,0:0:0:0:
173,220,135023,5,0,0:0:0:0:
270,105,135729,1,0,0:0:0:0:
322,247,136435,1,0,0:0:0:0:
173,220,137141,1,0,0:0:0:0:
270,105,137847,1,0,0:0:0:0:
322,247,138552,1,0,0:0:0:0:
188,168,138905,5,0,0:0:0:0:
188,168,139082,2,0,P|240:144|264:144,4,59.9999981689454
244,232,139964,1,0,0:0:0:0:
320,208,140141,1,0,0:0:0:0:
332,128,140317,2,0,P|352:88|384:72,3,59.9999981689454
428,140,141023,2,0,P|424:196|400:212,1,59.9999981689454
336,244,141376,5,0,0:0:0:0:
216,228,141552,1,0,0:0:0:0:
288,136,141729,1,0,0:0:0:0:
336,244,141905,1,0,0:0:0:0:
220,232,142082,2,0,P|168:216|160:216,3,59.9999981689454
182,296,142788,5,0,0:0:0:0:
151,118,142964,1,0,0:0:0:0:
329,87,143141,1,0,0:0:0:0:
360,265,143317,1,0,0:0:0:0:
182,296,143494,5,0,0:0:0:0:
329,87,143670,1,0,0:0:0:0:
151,118,143847,1,0,0:0:0:0:
360,265,144023,1,0,0:0:0:0:
256,188,144199,5,0,0:0:0:0:
256,100,144376,2,0,L|256:32,2,59.9999981689454
256,188,144905,1,0,0:0:0:0:
260,124,145082,6,0,P|264:66|279:42,2,59.9999981689454
312,224,145611,2,0,P|364:246|379:272,2,59.9999981689454
207,220,146141,2,0,P|167:262|144:268,2,59.9999981689454
332,280,146670,5,0,0:0:0:0:
181,280,146846,1,0,0:0:0:0:
256,150,147023,1,0,0:0:0:0:
255,278,147199,5,0,0:0:0:0:
181,148,147376,1,0,0:0:0:0:
331,148,147552,1,0,0:0:0:0:
255,278,147729,5,0,0:0:0:0:
184,92,147905,6,0,P|144:56|116:52,1,59.9999981689454
168,168,148258,6,0,P|120:142|107:117,1,59.9999981689454
328,92,148611,6,0,P|368:56|396:52,1,59.9999981689454
344,168,148964,6,0,P|391:142|404:117,1,59.9999981689454
256,192,149317,6,0,L|256:260,2,59.9999981689454
180,196,149847,1,0,0:0:0:0:
220,256,150023,1,0,0:0:0:0:
288,280,150199,1,0,0:0:0:0:
292,196,150552,5,0,0:0:0:0:
340,128,150905,5,0,0:0:0:0:
364,100,151082,1,0,0:0:0:0:
248,120,151435,6,0,B|228:84|192:80|188:80,1,59.9999981689454
156,176,151964,5,0,0:0:0:0:
156,176,152140,1,0,0:0:0:0:
200,248,152494,6,0,B|191:282|211:313|213:316,1,59.9999981689454
328,216,153023,5,0,0:0:0:0:
320,136,153376,1,0,0:0:0:0:
212,92,153905,1,0,0:0:0:0:
116,160,154435,1,0,0:0:0:0:
156,264,155140,2,0,P|216:320|252:324,1,119.999996337891
250,324,155669,1,0,0:0:0:0:
220,152,156199,5,0,0:0:0:0:
172,256,156552,5,0,0:0:0:0:
172,256,156729,1,0,0:0:0:0:
264,264,157082,6,0,B|284:300|320:304|324:304,1,59.9999981689454
356,208,157611,5,0,0:0:0:0:
392,196,157788,1,0,0:0:0:0:
300,136,158141,6,0,B|314:98|294:67|292:64,1,59.9999981689454
256,192,158670,12,0,160788,0:0:0:0:
220,168,161141,5,0,0:0:0:0:
220,168,161230,1,0,0:0:0:0:
220,168,161318,1,0,0:0:0:0:
220,168,161406,1,0,0:0:0:0:
220,168,161494,1,0,0:0:0:0:
220,168,161583,1,0,0:0:0:0:
220,168,161671,1,0,0:0:0:0:
220,168,161758,1,0,0:0:0:0:
220,168,161847,1,0,0:0:0:0:
324,216,162022,5,0,0:0:0:0:
324,120,162199,1,0,0:0:0:0:
236,76,162376,1,4,0:0:0:0:
128,112,162552,5,0,0:0:0:0:
118,147,162640,1,0,0:0:0:0:
122,184,162728,1,0,0:0:0:0:
141,217,162816,1,0,0:0:0:0:
170,240,162904,1,0,0:0:0:0:
292,256,163082,5,0,0:0:0:0:
356,168,163258,2,0,P|412:108|436:104,2,100
444,224,163788,2,0,P|412:272|380:276,2,50
432,120,164141,1,0,0:0:0:0:
340,72,164317,1,0,0:0:0:0:
340,72,164494,1,0,0:0:0:0:
264,136,164670,5,0,0:0:0:0:
144,66,164847,1,0,0:0:0:0:
145,202,165023,1,0,0:0:0:0:
188,140,165200,5,0,0:0:0:0:
204,172,165288,1,0,0:0:0:0:
220,204,165377,1,0,0:0:0:0:
240,232,165465,1,0,0:0:0:0:
260,260,165553,1,0,0:0:0:0:
328,296,165729,6,0,P|372:280|408:232,1,100
332,128,166082,5,0,0:0:0:0:
332,128,166258,1,0,0:0:0:0:
332,128,166435,1,0,0:0:0:0:
224,64,166610,5,0,0:0:0:0:
201,88,166698,1,0,0:0:0:0:
182,115,166786,1,0,0:0:0:0:
165,144,166874,1,0,0:0:0:0:
150,174,166962,1,0,0:0:0:0:
140,272,167139,1,0,0:0:0:0:
240,248,167317,5,0,0:0:0:0:
344,244,167494,2,0,P|400:208|408:168,1,100
356,100,167847,1,0,0:0:0:0:
260,112,168024,5,0,0:0:0:0:
260,148,168111,1,0,0:0:0:0:
260,184,168199,1,0,0:0:0:0:
260,220,168289,1,0,0:0:0:0:
260,256,168377,1,0,0:0:0:0:
176,272,168552,5,0,0:0:0:0:
100,168,168729,1,0,0:0:0:0:
180,76,168905,2,0,P|236:44|276:52,1,100
328,132,169258,5,0,0:0:0:0:
396,208,169435,2,0,P|368:256|348:272,2,50
292,232,169788,1,0,0:0:0:0:
200,252,169964,2,0,P|112:220|80:184,1,100
128,112,170317,5,0,0:0:0:0:
252,104,170494,1,0,0:0:0:0:
264,216,170670,1,0,0:0:0:0:
344,280,170847,5,0,0:0:0:0:
368,252,170935,1,0,0:0:0:0:
384,220,171023,1,0,0:0:0:0:
396,188,171111,1,0,0:0:0:0:
400,152,171199,1,0,0:0:0:0:
344,72,171376,5,0,0:0:0:0:
248,64,171552,1,0,0:0:0:0:
180,132,171729,1,0,0:0:0:0:
180,132,171905,1,0,0:0:0:0:
180,132,172082,1,0,0:0:0:0:
272,200,172258,5,0,0:0:0:0:
272,200,172347,1,0,0:0:0:0:
272,200,172435,1,0,0:0:0:0:
272,200,172523,1,0,0:0:0:0:
272,200,172611,1,0,0:0:0:0:
236,284,172788,1,0,0:0:0:0:
156,240,172964,1,0,0:0:0:0:
136,152,173141,6,0,P|144:100|180:72,2,100
228,188,173670,1,0,0:0:0:0:
228,188,173758,1,0,0:0:0:0:
228,188,173847,1,0,0:0:0:0:
336,132,174023,5,0,0:0:0:0:
392,220,174199,1,0,0:0:0:0:
312,284,174376,1,0,0:0:0:0:
204,288,174552,2,0,P|132:288|88:276,2,100
288,280,175082,5,0,0:0:0:0:
312,256,175170,1,0,0:0:0:0:
328,228,175258,1,0,0:0:0:0:
340,196,175347,1,0,0:0:0:0:
344,164,175435,1,0,0:0:0:0:
304,80,175611,5,0,0:0:0:0:
204,100,175788,1,0,0:0:0:0:
136,180,175964,5,0,0:0:0:0:
156,288,176141,1,0,0:0:0:0:
264,300,176317,1,0,0:0:0:0:
368,276,176492,5,0,0:0:0:0:
378,244,176580,1,0,0:0:0:0:
376,211,176668,1,0,0:0:0:0:
362,181,176756,1,0,0:0:0:0:
337,160,176844,1,0,0:0:0:0:
306,149,176933,1,0,0:0:0:0:
273,151,177021,1,0,0:0:0:0:
212,88,177199,6,0,P|152:88|124:100,6,50
300,88,177905,2,0,P|360:88|388:100,6,50
288,172,178610,5,0,0:0:0:0:
253,265,178788,1,0,0:0:0:0:
159,231,178964,1,0,0:0:0:0:
194,137,179141,1,0,0:0:0:0:
336,68,179317,5,0,0:0:0:0:
371,90,179405,1,0,0:0:0:0:
398,121,179493,1,0,0:0:0:0:
416,158,179581,1,0,0:0:0:0:
421,199,179669,1,0,0:0:0:0:
360,280,179846,1,0,0:0:0:0:
227,242,180023,5,0,0:0:0:0:
227,142,180199,1,0,0:0:0:0:
313,192,180376,1,0,0:0:0:0:
227,242,180552,1,0,0:0:0:0:
176,316,180729,5,0,0:0:0:0:
140,293,180817,1,0,0:0:0:0:
113,262,180905,1,0,0:0:0:0:
95,225,180993,1,0,0:0:0:0:
90,184,181081,1,0,0:0:0:0:
112,96,181258,1,0,0:0:0:0:
303,274,181435,5,0,0:0:0:0:
208,109,181611,1,0,0:0:0:0:
161,192,181788,1,0,0:0:0:0:
350,192,181964,1,0,0:0:0:0:
303,109,182141,1,0,0:0:0:0:
208,274,182317,1,0,0:0:0:0:
256,192,182494,1,0,0:0:0:0:
269,232,182670,5,0,0:0:0:0:
221,217,182847,1,0,0:0:0:0:
221,167,183023,1,0,0:0:0:0:
269,151,183199,1,0,0:0:0:0:
298,192,183376,1,0,0:0:0:0:
269,232,183552,1,0,0:0:0:0:
220,253,183729,5,0,0:0:0:0:
194,156,183905,1,0,0:0:0:0:
291,130,184082,1,0,0:0:0:0:
317,227,184258,1,0,0:0:0:0:
289,295,184435,5,0,0:0:0:0:
168,128,184611,1,0,0:0:0:0:
364,192,184788,1,0,0:0:0:0:
168,255,184964,1,0,0:0:0:0:
289,88,185141,1,0,0:0:0:0:
289,295,185317,1,0,0:0:0:0:
227,242,185494,5,0,0:0:0:0:
227,142,185670,1,0,0:0:0:0:
313,192,185847,1,0,0:0:0:0:
227,242,186023,1,0,0:0:0:0:
227,142,186199,1,0,0:0:0:0:
313,192,186376,1,0,0:0:0:0:
227,142,186552,5,0,0:0:0:0:
227,242,186729,1,0,0:0:0:0:
313,192,186905,1,0,0:0:0:0:
227,142,187082,1,0,0:0:0:0:
227,242,187258,1,0,0:0:0:0:
313,192,187435,1,0,0:0:0:0:
328,111,187611,5,0,0:0:0:0:
149,215,187788,1,0,0:0:0:0:
354,236,187964,1,0,0:0:0:0:
202,98,188141,1,0,0:0:0:0:
244,300,188317,1,0,0:0:0:0:
328,111,188494,1,0,0:0:0:0:
291,237,188670,5,0,0:0:0:0:
243,248,188846,1,0,0:0:0:0:
204,217,189022,1,0,0:0:0:0:
204,167,189199,1,0,0:0:0:0:
243,135,189375,1,0,0:0:0:0:
291,146,189552,1,0,0:0:0:0:
313,192,189728,1,0,0:0:0:0:
291,237,189905,1,0,0:0:0:0:
256,192,190080,1,0,0:0:0:0:
256,192,190257,12,0,193257,0:0:0:0:
