osu file format v14

[General]
AudioFilename: Gavin G - Reach Out.mp3
AudioLeadIn: 0
PreviewTime: 67267
Countdown: 0
SampleSet: Normal
StackLeniency: 0.7
Mode: 1
LetterboxInBreaks: 0
WidescreenStoryboard: 0

[Editor]
Bookmarks: 11267,22540,27995,33813,43995,90540,101813,113085,135631,154176
DistanceSpacing: 0.9
BeatDivisor: 4
GridSize: 4
TimelineZoom: 2.2

[Metadata]
Title:Reach Out
TitleUnicode:Reach Out
Artist:Gavin G
ArtistUnicode:Gavin G
Creator:Cookiedipp
Version:Kantan
Source:
Tags:Electronic, DnB, Hitsu
BeatmapID:1214903
BeatmapSetID:554478

[Difficulty]
HPDrainRate:5
CircleSize:2
OverallDifficulty:2
ApproachRate:4
SliderMultiplier:1.4
SliderTickRate:1

[Events]
//Background and Video events
0,0,"hatsune-miku-listening-to-music-vocaloid-39823.jpg",0,0
//Break Periods
2,90733,100508
2,102028,111802
//Storyboard Layer 0 (Background)
//Storyboard Layer 1 (Fail)
//Storyboard Layer 2 (Pass)
//Storyboard Layer 3 (Foreground)
//Storyboard Layer 4 (Overlay)
//Storyboard Sound Samples

[TimingPoints]
181,352.941176470588,4,1,0,60,1,0
45362,-100,4,1,0,100,0,1
90538,-100,4,1,0,60,0,0
135715,-100,4,1,0,100,0,1
158303,-100,4,1,0,80,0,0

[HitObjects]
256,192,5828,5,0,0:0:0:0:
256,192,7239,1,0,0:0:0:0:
256,192,8651,1,0,0:0:0:0:
256,192,10063,1,0,0:0:0:0:
256,192,10769,1,8,0:0:0:0:
256,192,11475,5,4,0:0:0:0:
256,192,14298,1,0,0:0:0:0:
256,192,15710,1,0,0:0:0:0:
256,192,16416,1,8,0:0:0:0:
256,192,17122,1,0,0:0:0:0:
256,192,18533,1,0,0:0:0:0:
256,192,19239,1,8,0:0:0:0:
256,192,19945,1,0,0:0:0:0:
256,192,22769,5,4,0:0:0:0:
256,192,25592,1,0,0:0:0:0:
256,192,26298,1,8,0:0:0:0:
256,192,27004,1,0,0:0:0:0:
256,192,27357,1,0,0:0:0:0:
256,192,27710,1,8,0:0:0:0:
256,192,28416,1,0,0:0:0:0:
256,192,29828,1,0,0:0:0:0:
256,192,30533,1,8,0:0:0:0:
256,192,31239,1,0,0:0:0:0:
256,192,31592,1,0,0:0:0:0:
256,192,32298,5,0,0:0:0:0:
256,192,32651,1,8,0:0:0:0:
256,192,34063,5,12,0:0:0:0:
256,192,35122,1,0,0:0:0:0:
256,192,35828,1,0,0:0:0:0:
256,192,36180,1,8,0:0:0:0:
256,192,37239,1,0,0:0:0:0:
256,192,37592,1,8,0:0:0:0:
256,192,38298,1,0,0:0:0:0:
256,192,38651,1,8,0:0:0:0:
256,192,39710,1,0,0:0:0:0:
256,192,40769,1,8,0:0:0:0:
256,192,41475,1,8,0:0:0:0:
256,192,41828,1,0,0:0:0:0:
256,192,42533,1,0,0:0:0:0:
256,192,42886,1,8,0:0:0:0:
256,192,43945,5,0,0:0:0:0:
256,192,44651,1,0,0:0:0:0:
256,192,45357,1,12,0:0:0:0:
256,192,46063,1,0,0:0:0:0:
256,192,46416,1,0,0:0:0:0:
256,192,46769,1,0,0:0:0:0:
256,192,47828,1,0,0:0:0:0:
256,192,48180,1,8,0:0:0:0:
256,192,48886,1,8,0:0:0:0:
256,192,49592,1,0,0:0:0:0:
256,192,50298,1,0,0:0:0:0:
256,192,51004,1,8,0:0:0:0:
256,192,51357,1,0,0:0:0:0:
256,192,51710,1,0,0:0:0:0:
256,192,52063,1,0,0:0:0:0:
256,192,52416,1,8,0:0:0:0:
256,192,53122,1,0,0:0:0:0:
256,192,53828,1,8,0:0:0:0:
256,192,54533,1,0,0:0:0:0:
256,192,55239,1,0,0:0:0:0:
256,192,55592,1,8,0:0:0:0:
256,192,56298,1,8,0:0:0:0:
256,192,56651,1,0,0:0:0:0:
256,192,57357,1,0,0:0:0:0:
256,192,57710,1,0,0:0:0:0:
256,192,58063,1,8,0:0:0:0:
256,192,58769,1,0,0:0:0:0:
256,192,59475,1,8,0:0:0:0:
256,192,60180,1,0,0:0:0:0:
256,192,60886,1,8,0:0:0:0:
256,192,61239,1,8,0:0:0:0:
256,192,61945,1,0,0:0:0:0:
256,192,62298,1,0,0:0:0:0:
256,192,63004,1,0,0:0:0:0:
256,192,63710,1,8,0:0:0:0:
256,192,64063,1,8,0:0:0:0:
256,192,64769,1,8,0:0:0:0:
256,192,65122,1,0,0:0:0:0:
256,192,65475,1,8,0:0:0:0:
256,192,66180,1,0,0:0:0:0:
256,192,66886,1,0,0:0:0:0:
256,192,67592,1,0,0:0:0:0:
256,192,67945,1,4,0:0:0:0:
256,192,68651,1,8,0:0:0:0:
256,192,69357,1,0,0:0:0:0:
256,192,70063,1,8,0:0:0:0:
256,192,70416,1,8,0:0:0:0:
256,192,70769,1,0,0:0:0:0:
256,192,71475,1,8,0:0:0:0:
256,192,72180,1,0,0:0:0:0:
256,192,72533,1,8,0:0:0:0:
256,192,73592,1,0,0:0:0:0:
256,192,74298,1,8,0:0:0:0:
256,192,75004,1,0,0:0:0:0:
256,192,75710,1,8,0:0:0:0:
256,192,76063,1,8,0:0:0:0:
256,192,76416,1,0,0:0:0:0:
256,192,77122,1,8,0:0:0:0:
256,192,77828,1,0,0:0:0:0:
256,192,78180,1,0,0:0:0:0:
260,184,78886,5,8,0:0:0:0:
260,184,79239,1,4,0:0:0:0:
260,184,80298,1,8,0:0:0:0:
260,184,80651,1,0,0:0:0:0:
260,184,81357,1,8,0:0:0:0:
260,184,81710,1,8,0:0:0:0:
260,184,82063,1,0,0:0:0:0:
260,184,82769,1,0,0:0:0:0:
260,184,83475,1,8,0:0:0:0:
260,184,84180,1,0,0:0:0:0:
260,184,84533,1,0,0:0:0:0:
260,184,84886,1,8,0:0:0:0:
260,184,85592,1,0,0:0:0:0:
260,184,86298,1,0,0:0:0:0:
260,184,87004,1,8,0:0:0:0:
260,184,87357,1,8,0:0:0:0:
260,184,87710,1,0,0:0:0:0:
260,184,88063,1,8,0:0:0:0:
260,184,88769,1,8,0:0:0:0:
260,184,89122,1,0,0:0:0:0:
260,184,89828,1,0,0:0:0:0:
260,184,90533,1,4,0:0:0:0:
260,184,101828,5,4,0:0:0:0:
260,184,113122,5,0,0:0:0:0:
260,184,113828,1,8,0:0:0:0:
260,184,114180,1,0,0:0:0:0:
260,184,114886,1,0,0:0:0:0:
260,184,115239,1,8,0:0:0:0:
260,184,115945,1,0,0:0:0:0:
260,184,116651,1,8,0:0:0:0:
260,184,117004,1,0,0:0:0:0:
260,184,117710,1,0,0:0:0:0:
260,184,118063,1,8,0:0:0:0:
260,184,118769,1,0,0:0:0:0:
260,184,119475,1,8,0:0:0:0:
260,184,119828,1,0,0:0:0:0:
260,184,120533,1,0,0:0:0:0:
260,184,120886,1,8,0:0:0:0:
260,184,121592,1,0,0:0:0:0:
260,184,122298,1,8,0:0:0:0:
260,184,122651,1,0,0:0:0:0:
260,184,123357,1,0,0:0:0:0:
260,184,123710,1,8,0:0:0:0:
260,184,124416,1,4,0:0:0:0:
260,184,125122,1,8,0:0:0:0:
260,184,125475,1,0,0:0:0:0:
260,184,126180,1,0,0:0:0:0:
260,184,126533,1,8,0:0:0:0:
260,184,127239,1,0,0:0:0:0:
260,184,127945,1,8,0:0:0:0:
260,184,128298,1,0,0:0:0:0:
260,184,129004,1,0,0:0:0:0:
260,184,129357,1,8,0:0:0:0:
260,184,130063,1,0,0:0:0:0:
260,184,130769,1,8,0:0:0:0:
260,184,131122,1,0,0:0:0:0:
260,184,131828,1,0,0:0:0:0:
260,184,132180,1,8,0:0:0:0:
260,184,132886,1,8,0:0:0:0:
260,184,133592,1,8,0:0:0:0:
260,184,133945,1,0,0:0:0:0:
260,184,135004,1,8,0:0:0:0:
260,184,135710,1,12,0:0:0:0:
260,184,136416,1,0,0:0:0:0:
260,184,137122,1,0,0:0:0:0:
260,184,137475,1,8,0:0:0:0:
260,184,138180,1,0,0:0:0:0:
260,184,138533,1,0,0:0:0:0:
260,184,138886,1,8,0:0:0:0:
260,184,139592,1,0,0:0:0:0:
260,184,140298,1,8,0:0:0:0:
260,184,141004,1,0,0:0:0:0:
260,184,141357,1,0,0:0:0:0:
260,184,141710,1,8,0:0:0:0:
260,184,142416,1,8,0:0:0:0:
260,184,143122,1,0,0:0:0:0:
260,184,143828,1,8,0:0:0:0:
260,184,144180,1,0,0:0:0:0:
260,184,144886,1,0,0:0:0:0:
260,184,145592,1,0,0:0:0:0:
260,184,145945,1,8,0:0:0:0:
260,184,146298,1,0,0:0:0:0:
260,184,147004,1,8,0:0:0:0:
260,184,147710,1,0,0:0:0:0:
260,184,148416,1,8,0:0:0:0:
260,184,149122,1,0,0:0:0:0:
260,184,149828,1,8,0:0:0:0:
260,184,150180,1,0,0:0:0:0:
260,184,150533,1,0,0:0:0:0:
260,184,151239,1,8,0:0:0:0:
260,184,151945,1,0,0:0:0:0:
260,184,152298,1,8,0:0:0:0:
260,184,152651,1,8,0:0:0:0:
260,184,153357,1,8,0:0:0:0:
260,184,154063,1,0,0:0:0:0:
260,184,154769,1,8,0:0:0:0:
260,184,155475,1,0,0:0:0:0:
260,184,156533,1,8,0:0:0:0:
260,184,156886,1,0,0:0:0:0:
260,184,157239,1,0,0:0:0:0:
260,184,157945,1,0,0:0:0:0:
260,184,158298,1,4,0:0:0:0:
