osu file format v14

[General]
AudioFilename: audio.mp3
AudioLeadIn: 0
PreviewTime: 0
Countdown: 0
SampleSet: Normal
StackLeniency: 0.7
Mode: 1
LetterboxInBreaks: 0
WidescreenStoryboard: 0

[Editor]
DistanceSpacing: 1
BeatDivisor: 2
GridSize: 32
TimelineZoom: 1

[Metadata]
Title:Transition I
TitleUnicode:Transition I
Artist:Garoad
ArtistUnicode:Garoad
Creator:Axer
Version:Amarga
Source:VA-11 Hall-A
Tags:valhalla cyberpunk bartender action black screen records sukeban games bsr017 michael kelly second round future synth video game soundtrack instrumental ost
BeatmapID:2404336
BeatmapSetID:1151884

[Difficulty]
HPDrainRate:8
CircleSize:2
OverallDifficulty:3
ApproachRate:10
SliderMultiplier:1.4
SliderTickRate:1

[Events]
//Background and Video events
0,0,"GlitchCity.png",0,-50
//Break Periods
//Storyboard Layer 0 (Background)
//Storyboard Layer 1 (Fail)
//Storyboard Layer 2 (Pass)
//Storyboard Layer 3 (Foreground)
//Storyboard Layer 4 (Overlay)
//Storyboard Sound Samples

[TimingPoints]
150,500,4,1,0,30,1,0
150,-133.333333333333,4,1,0,30,0,0
8150,-100,4,1,0,30,0,0
8400,-101.096901379973,4,1,0,30,0,0
8650,-102.218133496882,4,1,0,30,0,0
8900,-103.364514962014,4,1,0,30,0,0
9150,-104.536901526239,4,1,0,30,0,0
9400,-105.736188210415,4,1,0,30,0,0
9650,-106.963197172749,4,1,0,30,0,0
9900,-108.219135091029,4,1,0,30,0,0
10150,-109.504917318312,4,1,0,30,0,0
10400,-110.821620411569,4,1,0,30,0,0
10650,-112.170373336654,4,1,0,30,0,0
10900,-113.552360696803,4,1,0,30,0,0
11150,-114.968826202775,4,1,0,30,0,0
11400,-116.421076405988,4,1,0,30,0,0
11650,-117.910484718212,4,1,0,30,0,0
11900,-119.438495743809,4,1,0,30,0,0
12150,-121.006629953255,4,1,0,30,0,0
12400,-122.616338381857,4,1,0,30,0,0
12650,-124.269605394295,4,1,0,30,0,0
12900,-125.968064576269,4,1,0,30,0,0
13400,-129.508179736632,4,1,0,30,0,0
13650,-131.353917367878,4,1,0,30,0,0
13900,-133.253026176224,4,1,0,30,0,0
24150,-100,4,1,0,30,0,0
24400,-101.098945537998,4,1,0,30,0,0
24650,-102.222208592594,4,1,0,30,0,0
24900,-103.37081903801,4,1,0,30,0,0
25150,-104.545426033066,4,1,0,30,0,0
25400,-105.747145884533,4,1,0,30,0,0
25650,-106.976699405103,4,1,0,30,0,0
25900,-108.235299211073,4,1,0,30,0,0
26150,-109.523866893454,4,1,0,30,0,0
26400,-110.843362810278,4,1,0,30,0,0
26650,-112.195165734699,4,1,0,30,0,0
26900,-113.580218869082,4,1,0,30,0,0
27150,-115.000028750007,4,1,0,30,0,0
27400,-116.455649030623,4,1,0,30,0,0
27650,-117.948730046024,4,1,0,30,0,0
27900,-119.480451205976,4,1,0,30,0,0
28150,-121.052625207757,4,1,0,30,0,0
28400,-122.666725546695,4,1,0,30,0,0
28650,-124.324297443395,4,1,0,30,0,0
28900,-126.027438693952,4,1,0,30,0,0
29400,-129.577486689153,4,1,0,30,0,0
29650,-131.428496326574,4,1,0,30,0,0
29900,-133.333333333333,4,1,0,30,0,0
30150,-133.333333333333,4,1,0,10,0,0

[HitObjects]
256,192,150,5,8,0:0:0:0:
256,192,650,1,0,0:0:0:0:
256,192,900,1,8,0:0:0:0:
256,192,1400,1,8,0:0:0:0:
256,192,1900,1,0,0:0:0:0:
256,192,3150,1,8,0:0:0:0:
256,192,3400,1,0,0:0:0:0:
256,192,3650,1,8,0:0:0:0:
256,192,3900,1,0,0:0:0:0:
256,192,4150,1,8,0:0:0:0:
256,192,4650,1,0,0:0:0:0:
256,192,4900,1,8,0:0:0:0:
256,192,5400,1,8,0:0:0:0:
256,192,5900,1,0,0:0:0:0:
256,192,7650,1,0,0:0:0:0:
256,192,8150,1,8,0:0:0:0:
256,192,8400,1,0,0:0:0:0:
256,192,8650,1,0,0:0:0:0:
256,192,8900,1,8,0:0:0:0:
256,192,9150,1,0,0:0:0:0:
256,192,9400,1,8,0:0:0:0:
256,192,9650,1,0,0:0:0:0:
256,192,9900,1,0,0:0:0:0:
256,192,10150,1,8,0:0:0:0:
256,192,10400,1,0,0:0:0:0:
256,192,10650,1,0,0:0:0:0:
256,192,10900,1,0,0:0:0:0:
256,192,11150,1,8,0:0:0:0:
256,192,11400,1,0,0:0:0:0:
256,192,11650,1,8,0:0:0:0:
256,192,11900,1,8,0:0:0:0:
256,192,12150,1,0,0:0:0:0:
256,192,12400,1,0,0:0:0:0:
256,192,12650,1,0,0:0:0:0:
256,192,12900,1,8,0:0:0:0:
256,192,13400,1,0,0:0:0:0:
256,192,13650,1,8,0:0:0:0:
256,192,13900,1,0,0:0:0:0:
256,192,16150,1,8,0:0:0:0:
256,192,16650,1,0,0:0:0:0:
256,192,16900,1,8,0:0:0:0:
256,192,17400,1,8,0:0:0:0:
256,192,17900,1,0,0:0:0:0:
256,192,19150,1,8,0:0:0:0:
256,192,19400,1,0,0:0:0:0:
256,192,19650,1,8,0:0:0:0:
256,192,19900,1,0,0:0:0:0:
256,192,20150,1,8,0:0:0:0:
256,192,20650,1,0,0:0:0:0:
256,192,20900,1,8,0:0:0:0:
256,192,21400,1,8,0:0:0:0:
256,192,21900,1,0,0:0:0:0:
256,192,23650,1,0,0:0:0:0:
256,192,24150,1,8,0:0:0:0:
256,192,24400,1,0,0:0:0:0:
256,192,24650,1,8,0:0:0:0:
256,192,24900,1,8,0:0:0:0:
256,192,25150,1,0,0:0:0:0:
256,192,25400,1,8,0:0:0:0:
256,192,25650,1,0,0:0:0:0:
256,192,25900,1,0,0:0:0:0:
256,192,26150,1,8,0:0:0:0:
256,192,26400,1,8,0:0:0:0:
256,192,26650,1,0,0:0:0:0:
256,192,26900,1,0,0:0:0:0:
256,192,27150,1,8,0:0:0:0:
256,192,27400,1,0,0:0:0:0:
256,192,27650,1,8,0:0:0:0:
256,192,27900,1,8,0:0:0:0:
256,192,28150,1,0,0:0:0:0:
256,192,28400,1,8,0:0:0:0:
256,192,28650,1,0,0:0:0:0:
256,192,28900,1,8,0:0:0:0:
256,192,29400,1,0,0:0:0:0:
256,192,29650,1,8,0:0:0:0:
256,192,29900,1,0,0:0:0:0:
256,192,30150,12,0,32150,0:0:0:0:
