osu file format v14

[General]
AudioFilename: audio.mp3
AudioLeadIn: 0
PreviewTime: 33106
Countdown: 0
SampleSet: Soft
StackLeniency: 0.7
Mode: 0
LetterboxInBreaks: 0
WidescreenStoryboard: 1

[Editor]
Bookmarks: 18507,25835,33163,47819,62476,77132,91789,95453,99117,102781,106445,110110,113774,117438,121102,128430,135758,146751,150415
DistanceSpacing: 1.6
BeatDivisor: 2
GridSize: 32
TimelineZoom: 1.5

[Metadata]
Title:Safe Haven
TitleUnicode:Safe Haven
Artist:Garoad
ArtistUnicode:Garoad
Creator:Chaoslitz
Version:I feel like an adult
Source:VA-11 HALL-A: Cyberpunk Bartender Action
Tags:valhalla black screen records sukeban games bsr017 michael kelly second round future synth electronic video game soundtrack instrumental ost
BeatmapID:3453859
BeatmapSetID:1690117

[Difficulty]
HPDrainRate:5
CircleSize:4.5
OverallDifficulty:6.9
ApproachRate:8
SliderMultiplier:1.2
SliderTickRate:1

[Events]
//Background and Video events
0,0,"bgi.jpg",0,0
//Break Periods
//Storyboard Layer 0 (Background)
//Storyboard Layer 1 (Fail)
//Storyboard Layer 2 (Pass)
//Storyboard Layer 3 (Foreground)
//Storyboard Layer 4 (Overlay)
//Storyboard Sound Samples

[TimingPoints]
18507,458.015267175573,4,2,1,40,1,0
21598,-100,4,2,1,10,0,0
21713,-100,4,2,1,40,0,0
21942,-100,4,2,1,10,0,0
22171,-100,4,2,1,40,0,0
25262,-100,4,2,1,10,0,0
25377,-100,4,2,1,40,0,0
25720,-100,4,2,1,10,0,0
25835,-90.9090909090909,4,2,1,60,0,0
26751,-90.9090909090909,4,2,1,10,0,0
27209,-90.9090909090909,4,2,1,60,0,0
28926,-90.9090909090909,4,2,1,10,0,0
29041,-90.9090909090909,4,2,1,60,0,0
29270,-90.9090909090909,4,2,1,10,0,0
29499,-90.9090909090909,4,2,1,60,0,0
30415,-90.9090909090909,4,2,1,10,0,0
30873,-90.9090909090909,4,2,1,60,0,0
32590,-90.9090909090909,4,2,1,10,0,0
32705,-90.9090909090909,4,2,1,60,0,0
32934,-90.9090909090909,4,2,1,10,0,0
33163,-86.9565217391304,4,2,2,70,0,0
34995,-86.9565217391304,4,2,1,60,0,0
36369,-86.9565217391304,4,2,2,60,0,0
36827,-86.9565217391304,4,2,2,70,0,0
38659,-86.9565217391304,4,2,1,60,0,0
39575,-80,4,2,3,70,0,0
40033,-86.9565217391304,4,2,1,70,0,0
40491,-86.9565217391304,4,2,2,70,0,0
47819,-83.3333333333333,4,2,2,80,0,1
49652,-83.3333333333333,4,2,1,70,0,1
51026,-83.3333333333333,4,2,2,70,0,1
51484,-83.3333333333333,4,2,2,80,0,1
53316,-83.3333333333333,4,2,1,70,0,1
54232,-76.9230769230769,4,2,3,80,0,1
54690,-83.3333333333333,4,2,1,80,0,1
55148,-83.3333333333333,4,2,2,80,0,1
62476,-86.9565217391304,4,2,2,70,0,0
66026,-86.9565217391304,4,2,2,10,0,0
66140,-86.9565217391304,4,2,2,70,0,0
69346,-86.9565217391304,4,2,1,70,0,0
69575,-86.9565217391304,4,2,2,70,0,0
73354,-86.9565217391304,4,2,2,10,0,0
73468,-86.9565217391304,4,2,2,70,0,0
77132,-86.9565217391304,4,2,2,75,0,0
80682,-86.9565217391304,4,2,2,10,0,0
80797,-86.9565217391304,4,2,2,75,0,0
84003,-86.9565217391304,4,2,1,75,0,0
84232,-86.9565217391304,4,2,2,75,0,0
88010,-86.9565217391304,4,2,2,10,0,0
88125,-86.9565217391304,4,2,2,75,0,0
91789,-71.4285714285714,4,2,4,80,0,1
93621,-83.3333333333333,4,2,2,70,0,1
95339,-83.3333333333333,4,2,2,10,0,1
95453,-71.4285714285714,4,2,4,80,0,1
97056,-71.4285714285714,4,2,5,80,0,1
97285,-83.3333333333333,4,2,2,70,0,1
98659,-83.3333333333333,4,2,1,80,0,1
98888,-83.3333333333333,4,2,2,80,0,1
99117,-71.4285714285714,4,2,4,80,0,1
100949,-83.3333333333333,4,2,2,70,0,1
102667,-83.3333333333333,4,2,2,10,0,1
102781,-71.4285714285714,4,2,4,80,0,1
104384,-71.4285714285714,4,2,5,80,0,1
104613,-83.3333333333333,4,2,4,70,0,1
106445,-83.3333333333333,4,2,4,70,0,0
109652,-100,4,2,2,50,0,0
109995,-100,4,2,2,10,0,0
110110,-83.3333333333333,4,2,4,50,0,0
113316,-100,4,2,1,50,0,0
113659,-100,4,2,1,10,0,0
113774,-83.3333333333333,4,2,4,50,0,0
116980,-100,4,2,2,50,0,0
117323,-100,4,2,2,10,0,0
117438,-83.3333333333333,4,2,4,50,0,0
120186,-100,4,2,2,50,0,0
120987,-100,4,2,2,10,0,0
121102,-100,4,2,1,40,0,0
124194,-100,4,2,1,10,0,0
124308,-100,4,2,1,40,0,0
124537,-100,4,2,1,10,0,0
124766,-100,4,2,1,40,0,0
127858,-100,4,2,1,10,0,0
127972,-100,4,2,1,40,0,0
128316,-100,4,2,1,10,0,0
128430,-90.9090909090909,4,2,1,60,0,0
129346,-90.9090909090909,4,2,1,10,0,0
129804,-90.9090909090909,4,2,1,60,0,0
131522,-90.9090909090909,4,2,1,10,0,0
131636,-90.9090909090909,4,2,1,60,0,0
131865,-90.9090909090909,4,2,1,10,0,0
132094,-90.9090909090909,4,2,1,60,0,0
133010,-90.9090909090909,4,2,1,10,0,0
133468,-90.9090909090909,4,2,1,60,0,0
135186,-90.9090909090909,4,2,1,10,0,0
135300,-90.9090909090909,4,2,1,60,0,0
135529,-90.9090909090909,4,2,1,10,0,0
135758,-86.9565217391304,4,2,2,70,0,0
137590,-86.9565217391304,4,2,1,60,0,0
138965,-86.9565217391304,4,2,2,60,0,0
139423,-86.9565217391304,4,2,2,50,0,0
141255,-86.9565217391304,4,2,1,40,0,0
142171,-80,4,2,3,40,0,0
142629,-86.9565217391304,4,2,1,40,0,0
143087,-86.9565217391304,4,2,2,40,0,0
144919,-86.9565217391304,4,2,2,30,0,0

[Colours]
Combo1 : 50,124,255
Combo2 : 46,73,142
Combo3 : 244,0,87
SliderBorder : 70,53,140
SliderTrackOverride : 123,95,241

[HitObjects]
151,321,18507,5,2,0:0:0:0:
151,321,19194,1,2,0:0:0:0:
151,321,19881,1,2,0:0:0:0:
91,371,20110,2,0,B|62:318|62:318|142:192,1,120,2|2,0:0|0:0,0:0:0:0:
156,171,21026,2,0,B|95:178|95:178|58:229|58:229|14:198,1,150,2|0,0:0|0:0,0:0:0:0:
30,208,21713,2,0,P|39:141|71:143,1,60,2|0,0:0|0:0,0:0:0:0:
79,101,22171,5,2,0:0:0:0:
79,101,22858,1,2,0:0:0:0:
79,101,23545,1,2,0:0:0:0:
127,163,23774,2,0,P|168:71|121:82,1,120,2|2,0:0|0:0,0:0:0:0:
245,1,24690,2,0,B|174:4|174:4|170:4|139:5|121:41|142:74|162:73,1,150,2|0,0:0|0:0,0:0:0:0:
150,69,25377,2,0,P|203:114|189:129,1,90,2|0,0:0|0:0,0:0:0:0:
154,169,25835,6,0,L|158:287,1,99.0000030212403,2|0,3:2|0:0,0:0:0:0:
154,279,26293,1,8,0:0:0:0:
79,188,26522,2,0,L|83:314,1,66.0000020141602,2|0,3:2|0:0,0:0:0:0:
5,224,27209,1,10,3:2:0:0:
79,188,27438,6,0,P|68:99|106:145,1,132.00000402832,2|2,3:2|3:2,0:0:0:0:
161,21,28125,1,8,0:0:0:0:
32,35,28354,2,0,B|74:19|96:65|96:65|91:69|91:69|116:119|162:95,1,165.000005035401,2|0,3:2|0:0,0:0:0:0:
161,106,29041,2,0,P|167:176|213:176,1,66.0000020141602,10|0,3:2|0:0,0:0:0:0:
211,330,29499,6,0,L|215:212,1,99.0000030212403,2|0,3:2|0:0,0:0:0:0:
211,220,29957,1,8,0:0:0:0:
287,316,30186,2,0,L|291:190,1,66.0000020141602,2|0,3:2|0:0,0:0:0:0:
364,286,30873,1,10,3:2:0:0:
289,250,31102,6,0,P|297:160|279:171,1,132.00000402832,2|2,3:2|3:2,0:0:0:0:
341,42,31789,1,8,0:0:0:0:
407,83,32018,2,0,B|365:67|343:113|343:113|348:117|348:117|323:167|277:143,1,165.000005035401,2|0,3:2|0:0,0:0:0:0:
276,140,32705,2,0,P|289:71|320:72,1,66.0000020141602,10|0,3:2|0:0,0:0:0:0:
431,200,33163,6,0,L|426:335,1,69.0000013160706,14|0,0:1|0:0,0:0:0:0:
505,237,33621,1,10,0:0:0:0:
355,180,33850,2,0,L|350:315,1,103.500001974106,10|0,0:1|0:0,0:0:0:0:
356,294,34308,1,2,0:1:0:0:
445,345,34537,2,0,P|370:340|377:308,1,69.0000013160706,10|8,0:0|0:1,0:0:0:0:
297,229,34995,5,2,0:0:0:0:
260,298,35224,2,0,L|131:306,1,69.0000013160706,10|8,0:1|0:0,0:0:0:0:
292,369,35682,1,10,0:1:0:0:
191,302,35911,2,0,B|165:257|165:257|207:193,1,103.500001974106,10|0,0:1|0:0,0:0:0:0:
203,221,36369,1,14,0:3:0:0:
69,242,36598,1,2,0:0:0:0:
157,372,36827,5,14,0:1:0:0:
191,302,37056,1,2,0:0:0:0:
113,307,37285,1,10,0:0:0:0:
235,367,37514,2,0,P|237:368|274:292,1,103.500001974106,10|0,0:1|0:0,0:0:0:0:
287,304,37972,1,2,0:0:0:0:
337,177,38201,2,0,L|342:308,1,69.0000013160706,10|8,0:0|0:1,0:0:0:0:
491,206,38659,5,2,0:0:0:0:
415,174,38888,2,0,L|420:305,1,69.0000013160706,10|8,0:1|0:0,0:0:0:0:
263,214,39346,1,10,0:1:0:0:
341,79,39575,6,0,B|294:57|267:104|267:104|279:120|271:155,1,112.5,14|0,0:1|0:0,0:0:0:0:
270,138,40033,2,0,L|209:142,1,34.5000006580353,12|0,0:3|0:0,0:0:0:0:
337,177,40262,1,10,0:1:0:0:
217,277,40491,6,0,P|299:257|295:234,1,69.0000013160706,14|0,0:1|0:0,0:0:0:0:
263,214,40949,1,10,0:0:0:0:
293,367,41178,2,0,L|423:359,1,103.500001974106,10|0,0:1|0:0,0:0:0:0:
405,369,41636,1,2,0:0:0:0:
470,269,41865,2,0,P|392:256|399:224,2,69.0000013160706,10|8|0,0:0|0:1|0:0,0:0:0:0:
346,203,42552,5,10,0:1:0:0:
427,137,42781,2,0,L|422:268,1,69.0000013160706,10|8,0:0|0:1,0:0:0:0:
290,257,43239,1,10,0:1:0:0:
294,261,43468,1,2,0:0:0:0:
424,206,43697,1,14,0:3:0:0:
349,134,43926,2,0,L|344:265,1,69.0000013160706,2|12,0:0|0:1,0:0:0:0:
379,383,44384,5,2,0:0:0:0:
499,338,44613,2,0,B|418:323|458:414|355:376,1,138.000002632141,10|2,0:0|0:0,0:0:0:0:
383,273,45300,2,0,P|408:345|392:352,1,69.0000013160706,2|8,0:0|0:0,0:0:0:0:
379,383,45758,1,10,0:1:0:0:
250,322,45987,6,0,L|255:191,1,69.0000013160706,2|8,0:0|0:1,0:0:0:0:
191,373,46445,1,8,0:0:0:0:
327,325,46674,1,10,0:1:0:0:
212,187,46903,2,0,B|255:216|255:216|324:174,1,103.500001974106,14|0,0:1|0:0,0:0:0:0:
305,179,47361,2,0,L|307:119,1,34.5000006580353,8|0,0:0|0:0,0:0:0:0:
253,253,47590,1,8,0:1:0:0:
382,128,47819,6,0,L|378:248,1,71.9999978027344,14|0,0:1|0:0,0:0:0:0:
446,241,48277,1,10,0:0:0:0:
370,358,48507,2,0,P|310:299|325:286,1,107.999996704102,10|0,0:1|0:0,0:0:0:0:
312,300,48965,1,2,0:0:0:0:
187,173,49194,2,0,L|316:166,1,71.9999978027344,10|8,0:0|0:1,0:0:0:0:
312,300,49652,5,2,0:0:0:0:
256,246,49881,2,0,L|127:253,1,71.9999978027344,10|8,0:1|0:0,0:0:0:0:
73,333,50339,1,10,0:1:0:0:
119,208,50568,2,0,B|80:184|80:184|96:267,1,107.999996704102,10|0,0:1|0:0,0:0:0:0:
88,257,51026,1,14,0:3:0:0:
181,327,51255,1,2,0:0:0:0:
15,282,51484,5,14,0:1:0:0:
130,384,51713,1,2,0:0:0:0:
233,270,51942,1,10,0:0:0:0:
73,333,52171,2,0,L|204:326,1,107.999996704102,10|0,0:1|0:0,0:0:0:0:
190,336,52629,1,2,0:0:0:0:
299,374,52858,2,0,P|332:310|294:303,1,71.9999978027344,10|8,0:0|0:1,0:0:0:0:
265,196,53316,5,2,0:0:0:0:
233,270,53545,2,0,L|362:263,1,71.9999978027344,10|8,0:1|0:0,0:0:0:0:
411,362,54003,1,10,0:1:0:0:
342,199,54232,6,0,B|356:199|366:207|366:207|416:185|406:125|359:113,1,116.999994644165,14|0,0:1|0:0,0:0:0:0:
382,121,54690,2,0,L|312:124,1,35.9999989013672,12|0,0:3|0:0,0:0:0:0:
419,203,54919,1,10,0:1:0:0:
277,88,55148,6,0,B|258:119|258:119|296:189,1,71.9999978027344,14|0,0:1|0:0,0:0:0:0:
346,122,55606,1,10,0:0:0:0:
204,178,55835,2,0,L|209:320,1,107.999996704102,10|0,0:1|0:0,0:0:0:0:
216,294,56293,1,2,0:0:0:0:
330,377,56522,2,0,P|266:338|239:382,2,71.9999978027344,10|8|0,0:0|0:1|0:0,0:0:0:0:
284,258,57209,5,10,0:1:0:0:
144,298,57438,2,0,L|273:291,1,71.9999978027344,10|8,0:0|0:1,0:0:0:0:
330,377,57896,1,10,0:1:0:0:
334,381,58125,1,2,0:0:0:0:
415,276,58354,1,14,0:3:0:0:
288,194,58583,2,0,P|313:270|338:263,1,71.9999978027344,2|12,0:0|0:1,0:0:0:0:
457,356,59041,5,2,0:0:0:0:
344,305,59270,2,0,B|383:303|383:303|417:358|417:358|582:350,1,143.999995605469,10|2,0:0|0:0,0:0:0:0:
424,224,59957,2,0,P|449:300|474:293,1,71.9999978027344,2|8,0:0|0:0,0:0:0:0:
492,260,60415,1,10,0:1:0:0:
356,188,60644,6,0,L|360:68,1,71.9999978027344,2|8,0:0|0:1,0:0:0:0:
424,224,61102,1,8,0:0:0:0:
282,149,61331,1,10,0:1:0:0:
437,103,61560,2,0,L|432:245,1,107.999996704102,6|0,0:1|0:0,0:0:0:0:
424,224,62018,1,8,0:0:0:0:
499,366,62247,1,8,0:1:0:0:
393,301,62476,6,0,L|522:294,1,69.0000013160706,12|0,0:1|0:0,0:0:0:0:
363,373,62934,1,8,0:0:0:0:
291,343,63163,2,0,P|264:244|318:288,1,138.000002632141,8|0,0:1|0:0,0:0:0:0:
335,168,63850,1,8,0:0:0:0:
411,188,64079,2,0,B|330:173|370:264|267:226,1,138.000002632141,8|8,0:1|0:1,0:0:0:0:
187,120,64766,1,8,0:0:0:0:
229,187,64995,1,8,0:1:0:0:
225,191,65224,2,0,L|96:198,1,69.0000013160706,8|0,0:1|0:0,0:0:0:0:
122,75,65682,2,0,P|178:137|175:140,1,103.500001974106,12|0,0:3|0:0,0:0:0:0:
156,195,66140,6,0,B|112:258|206:265|134:349,1,138.000002632141,12|8,0:1|0:0,0:0:0:0:
88,371,66827,2,0,P|41:288|97:308,1,138.000002632141,8|0,0:1|0:0,0:0:0:0:
71,192,67514,1,8,0:0:0:0:
3,232,67743,2,0,B|50:229|50:229|89:277|89:277|171:214,1,138.000002632141,8|8,0:1|0:1,0:0:0:0:
252,218,68430,1,8,0:0:0:0:
201,158,68659,1,8,0:1:0:0:
197,154,68888,2,0,P|188:232|225:242,1,69.0000013160706,8|0,0:1|0:0,0:0:0:0:
230,361,69346,1,12,0:3:0:0:
171,310,69575,1,8,0:1:0:0:
321,214,69804,6,0,L|192:221,1,69.0000013160706,12|0,0:1|0:0,0:0:0:0:
171,310,70262,1,8,0:0:0:0:
230,361,70491,2,0,P|277:278|212:303,1,138.000002632141,8|0,0:1|0:0,0:0:0:0:
283,143,71178,1,8,0:0:0:0:
321,214,71407,2,0,B|402:199|362:290|465:252,1,138.000002632141,8|8,0:1|0:1,0:0:0:0:
506,143,72094,1,8,0:0:0:0:
436,108,72323,1,8,0:1:0:0:
432,112,72552,2,0,L|437:243,1,69.0000013160706,8|0,0:1|0:0,0:0:0:0:
511,292,73010,2,0,P|455:354|458:357,1,103.500001974106,12|0,0:3|0:0,0:0:0:0:
508,384,73468,6,0,B|444:380|444:380|438:371|438:371|324:364,1,138.000002632141,12|8,0:1|0:0,0:0:0:0:
301,342,74155,2,0,P|244:278|275:275,1,138.000002632141,8|0,0:1|0:0,0:0:0:0:
337,185,74842,1,8,0:0:0:0:
397,235,75071,2,0,B|341:275|341:275|237:215,1,138.000002632141,8|8,0:1|0:1,0:0:0:0:
155,147,75758,1,8,0:0:0:0:
225,295,75987,1,8,0:1:0:0:
94,229,76216,2,0,L|227:222,1,103.500001974106,12|0,0:1|0:0,0:0:0:0:
207,220,76674,2,0,P|242:192|249:198,1,34.5000006580353,8|0,0:0|0:0,0:0:0:0:
281,240,76903,1,8,0:1:0:0:
176,356,77132,6,0,P|251:356|251:317,1,69.0000013160706,12|0,0:1|0:0,0:0:0:0:
281,240,77590,1,8,0:0:0:0:
322,306,77819,2,0,L|590:293,1,138.000002632141,8|0,0:1|0:0,0:0:0:0:
423,164,78507,1,8,0:0:0:0:
475,222,78736,2,0,B|417:186|379:243|379:243|402:267|376:326,1,138.000002632141,8|8,0:1|0:1,0:0:0:0:
251,344,79423,1,8,0:0:0:0:
321,379,79652,1,8,0:1:0:0:
325,375,79881,2,0,L|320:244,1,69.0000013160706,8|0,0:1|0:0,0:0:0:0:
225,190,80339,2,0,P|169:252|172:255,1,103.500001974106,12|0,0:3|0:0,0:0:0:0:
230,269,80797,6,0,B|191:271|191:271|173:329|173:329|24:334,1,138.000002632141,12|8,0:1|0:0,0:0:0:0:
69,372,81484,2,0,P|26:283|78:297,1,138.000002632141,8|0,0:1|0:0,0:0:0:0:
108,177,82171,1,8,0:0:0:0:
160,235,82400,2,0,B|102:199|64:256|64:256|87:280|61:339,1,138.000002632141,8|8,0:1|0:1,0:0:0:0:
184,382,83087,1,8,0:0:0:0:
219,312,83316,1,8,0:1:0:0:
215,308,83545,2,0,L|86:315,1,69.0000013160706,8|0,0:1|0:0,0:0:0:0:
294,288,84003,1,12,0:3:0:0:
238,233,84232,1,8,0:1:0:0:
277,365,84461,6,0,P|339:328|315:302,1,69.0000013160706,12|0,0:1|0:0,0:0:0:0:
384,189,84919,1,8,0:0:0:0:
455,222,85148,2,0,B|397:186|359:243|359:243|382:267|356:326,1,138.000002632141,8|0,0:1|0:0,0:0:0:0:
504,304,85835,1,8,0:0:0:0:
450,360,86064,2,0,L|458:135,1,138.000002632141,8|8,0:1|0:1,0:0:0:0:
379,82,86751,1,8,0:0:0:0:
344,152,86980,1,8,0:1:0:0:
348,156,87209,2,0,L|477:149,1,69.0000013160706,8|0,0:1|0:0,0:0:0:0:
444,37,87667,2,0,P|388:99|391:102,1,103.500001974106,12|0,0:3|0:0,0:0:0:0:
344,152,88125,6,0,B|286:116|248:173|248:173|271:197|245:256,1,138.000002632141,12|8,0:1|0:0,0:0:0:0:
183,218,88812,2,0,B|263:200|226:292|328:250,1,138.000002632141,8|0,0:1|0:0,0:0:0:0:
479,293,89499,1,8,0:0:0:0:
443,362,89728,2,0,P|409:276|453:299,1,138.000002632141,8|8,0:1|0:1,0:0:0:0:
376,119,90415,1,8,0:0:0:0:
305,258,90644,1,8,0:1:0:0:
423,182,90873,2,0,B|381:212|381:212|307:171,1,103.500001974106,12|0,0:1|0:0,0:0:0:0:
329,179,91331,2,0,L|264:182,1,34.5000006580353,8|0,0:0|0:0,0:0:0:0:
376,119,91560,1,8,0:1:0:0:
263,260,91789,6,0,L|343:256,1,41.9999987182618,14|0,0:1|0:0,0:0:0:0:
188,372,92018,2,0,P|129:307|142:299,1,83.9999974365235,2|10,0:1|0:0,0:0:0:0:
114,341,92361,1,2,0:3:0:0:
122,326,92476,1,10,0:1:0:0:
184,181,92705,2,0,P|218:216|207:228,1,41.9999987182618,2|0,0:1|0:0,0:0:0:0:
305,258,92934,2,0,L|225:262,1,41.9999987182618,2|0,0:1|0:0,0:0:0:0:
193,294,93163,1,10,0:0:0:0:
291,371,93392,6,0,P|324:305|296:302,1,83.9999974365235,10|0,0:1|0:0,0:0:0:0:
305,258,93850,1,8,0:1:0:0:
422,150,94079,1,8,0:0:0:0:
350,112,94308,1,8,0:1:0:0:
346,117,94537,2,0,L|350:237,1,71.9999978027344,8|0,0:1|0:0,0:0:0:0:
512,367,94995,2,0,P|454:323|465:313,1,107.999996704102,12|0,0:3|0:0,0:0:0:0:
402,250,95453,6,0,B|387:263|387:263|428:260,1,41.9999987182618,14|0,0:1|0:0,0:0:0:0:
500,148,95682,1,2,0:1:0:0:
488,137,95796,1,2,0:3:0:0:
472,143,95911,1,10,0:0:0:0:
452,327,96140,2,0,P|475:287|455:272,1,41.9999987182618,10|0,0:1|0:0,0:0:0:0:
475,221,96369,1,2,0:1:0:0:
384,366,96598,2,0,P|315:308|340:282,1,83.9999974365235,2|8,0:1|0:0,0:0:0:0:
303,301,96942,1,2,0:3:0:0:
325,265,97056,6,0,L|451:259,1,83.9999974365235,10|0,0:3|0:0,0:0:0:0:
452,327,97514,1,8,0:1:0:0:
334,187,97743,1,8,0:0:0:0:
262,218,97972,1,8,0:1:0:0:
258,214,98201,2,0,P|277:144|316:153,1,71.9999978027344,8|0,0:1|0:0,0:0:0:0:
400,145,98659,1,12,0:3:0:0:
334,187,98888,1,8,0:1:0:0:
274,74,99117,6,0,P|229:97|231:106,1,41.9999987182618,14|0,0:1|0:0,0:0:0:0:
113,203,99346,2,0,L|193:199,1,41.9999987182618,2|0,0:1|0:0,0:0:0:0:
176,28,99575,1,10,0:0:0:0:
128,12,99690,1,2,0:3:0:0:
83,34,99804,1,10,0:1:0:0:
67,82,99919,1,2,0:3:0:0:
89,127,100033,2,0,L|215:121,1,83.9999974365235,2|2,0:1|0:1,0:0:0:0:
178,126,100377,1,2,0:3:0:0:
183,129,100491,1,10,0:0:0:0:
94,281,100720,6,0,L|220:275,1,83.9999974365235,10|0,0:1|0:0,0:0:0:0:
236,225,101178,1,8,0:1:0:0:
325,337,101407,1,8,0:0:0:0:
256,300,101636,1,8,0:1:0:0:
250,304,101865,2,0,P|276:375|311:358,1,71.9999978027344,8|0,0:1|0:0,0:0:0:0:
310,245,102323,2,0,P|368:201|357:191,1,107.999996704102,12|0,0:3|0:0,0:0:0:0:
446,150,102781,6,0,B|429:138|429:138|435:165,1,41.9999987182618,14|0,0:1|0:0,0:0:0:0:
453,306,103010,1,2,0:1:0:0:
464,295,103125,1,2,0:3:0:0:
462,280,103239,2,0,L|336:286,1,83.9999974365235,10|10,0:0|0:1,0:0:0:0:
311,351,103697,2,0,P|232:314|261:280,1,83.9999974365235,2|2,0:1|0:1,0:0:0:0:
232,338,104041,1,2,0:3:0:0:
229,327,104155,6,0,L|234:164,2,83.9999974365235,10|10|0,0:0|0:3|0:0,0:0:0:0:
159,363,104842,1,8,0:1:0:0:
310,245,105071,1,8,0:0:0:0:
184,176,105300,1,8,0:1:0:0:
268,73,105529,2,0,B|241:120|241:120|282:198,1,107.999996704102,12|0,0:1|0:0,0:0:0:0:
273,176,105987,2,0,P|323:183|325:190,1,35.9999989013672,8|0,0:0|0:0,0:0:0:0:
310,245,106216,1,8,0:1:0:0:
378,96,106445,6,0,L|308:99,1,35.9999989013672,6|0,0:1|0:0,0:0:0:0:
438,146,106674,2,0,P|452:228|431:233,1,71.9999978027344,2|2,0:1|0:1,0:0:0:0:
469,207,107018,1,2,0:3:0:0:
462,213,107132,1,2,0:1:0:0:
420,370,107361,2,0,L|422:303,1,35.9999989013672,2|0,0:1|0:0,0:0:0:0:
310,245,107590,2,0,P|387:262|395:221,1,71.9999978027344,2|2,0:1|0:1,0:0:0:0:
376,271,107934,1,2,0:3:0:0:
385,265,108048,2,0,L|387:198,1,35.9999989013672,2|0,0:1|0:0,0:0:0:0:
485,288,108277,1,2,0:1:0:0:
158,362,109652,6,0,P|212:314|202:301,1,90,4|0,0:3|0:0,0:0:0:0:
229,243,110110,6,0,L|159:246,1,35.9999989013672,6|0,0:1|0:0,0:0:0:0:
288,294,110339,2,0,L|358:291,1,35.9999989013672,2|0,0:1|0:0,0:0:0:0:
303,217,110568,1,2,0:1:0:0:
193,121,110797,2,0,P|249:155|211:191,1,71.9999978027344,2|2,0:1|0:1,0:0:0:0:
248,157,111140,1,2,0:3:0:0:
244,166,111255,1,2,0:1:0:0:
120,273,111484,2,0,P|120:236|145:236,1,35.9999989013672,2|0,0:1|0:0,0:0:0:0:
193,244,111713,1,2,0:1:0:0:
133,26,113316,6,0,P|79:74|89:87,1,90,4|0,0:3|0:0,0:0:0:0:
38,136,113774,6,0,L|-32:139,1,35.9999989013672,6|0,0:1|0:0,0:0:0:0:
82,201,114003,2,0,P|161:171|156:157,1,71.9999978027344,2|2,0:1|0:1,0:0:0:0:
153,206,114347,1,2,0:3:0:0:
159,198,114461,1,2,0:1:0:0:
296,102,114690,2,0,L|294:35,1,35.9999989013672,2|0,0:1|0:0,0:0:0:0:
218,52,114919,2,0,L|222:172,1,71.9999978027344,2|0,0:1|0:1,0:0:0:0:
218,134,115262,1,2,0:3:0:0:
216,144,115377,2,0,P|219:197|217:198,1,35.9999989013672,2|0,0:1|0:0,0:0:0:0:
126,372,116980,6,0,P|174:318|187:328,1,90,4|0,0:3|0:0,0:0:0:0:
245,301,117438,6,0,L|243:368,1,35.9999989013672,6|0,0:1|0:0,0:0:0:0:
193,241,117667,1,2,0:1:0:0:
319,359,117896,2,0,P|358:368|366:346,1,35.9999989013672,2|0,0:1|0:0,0:0:0:0:
365,297,118125,2,0,L|369:177,1,71.9999978027344,2|2,0:1|0:1,0:0:0:0:
447,309,118468,1,2,0:3:0:0:
442,300,118583,2,0,L|446:180,1,71.9999978027344,2|2,0:1|0:1,0:0:0:0:
448,219,118926,1,2,0:3:0:0:
455,212,119041,2,0,P|497:212|509:232,1,35.9999989013672,2|0,0:1|0:0,0:0:0:0:
409,125,120186,6,0,B|473:145|443:30|516:6|561:77|493:127|441:44,1,210,4|0,0:1|0:0,0:0:0:0:
380,52,121102,5,2,0:0:0:0:
380,52,121789,1,2,0:0:0:0:
380,52,122476,1,2,0:0:0:0:
334,114,122705,2,0,B|284:147|284:147|206:102,1,120,2|2,0:0|0:0,0:0:0:0:
148,39,123621,2,0,B|92:-2|46:58|46:58|67:79|55:114,1,150,2|0,0:0|0:0,0:0:0:0:
59,96,124308,2,0,P|74:167|84:167,1,60,2|0,0:0|0:0,0:0:0:0:
98,208,124766,5,2,0:0:0:0:
98,208,125453,1,2,0:0:0:0:
98,208,126140,1,2,0:0:0:0:
41,262,126369,2,0,L|279:250,1,120,2|2,0:0|0:0,0:0:0:0:
182,364,127285,2,0,B|218:381|242:340|242:340|239:336|239:336|268:287|321:321,1,150,2|0,0:0|0:0,0:0:0:0:
307,317,127972,2,0,P|359:259|358:257,1,90,2|0,0:0|0:0,0:0:0:0:
291,232,128430,6,0,L|295:114,1,99.0000030212403,2|0,3:2|0:0,0:0:0:0:
291,122,128888,1,8,0:0:0:0:
216,213,129117,2,0,L|220:87,1,66.0000020141602,2|0,3:2|0:0,0:0:0:0:
142,177,129804,1,10,3:2:0:0:
216,213,130033,6,0,P|205:302|243:256,1,132.00000402832,2|2,3:2|3:2,0:0:0:0:
25,379,130720,1,8,0:0:0:0:
155,366,130949,2,0,B|113:382|91:336|91:336|96:332|96:332|71:282|25:306,1,165.000005035401,2|0,3:2|0:0,0:0:0:0:
23,299,131636,2,0,P|45:224|74:232,1,66.0000020141602,10|0,3:2|0:0,0:0:0:0:
153,166,132094,6,0,L|26:173,1,99.0000030212403,2|0,3:2|0:0,0:0:0:0:
44,167,132552,1,8,0:0:0:0:
134,91,132781,2,0,L|6:98,1,66.0000020141602,2|0,3:2|0:0,0:0:0:0:
97,19,133468,1,10,3:2:0:0:
134,91,133697,6,0,P|142:181|124:170,1,132.00000402832,2|2,3:2|3:2,0:0:0:0:
237,287,134384,1,8,0:0:0:0:
282,223,134613,2,0,B|240:207|218:253|218:253|223:257|223:257|198:307|152:283,1,165.000005035401,2|0,3:2|0:0,0:0:0:0:
151,280,135300,2,0,P|164:211|195:212,1,66.0000020141602,10|0,3:2|0:0,0:0:0:0:
264,52,135758,6,0,L|269:187,1,69.0000013160706,14|0,0:1|0:0,0:0:0:0:
200,162,136216,1,10,0:0:0:0:
336,156,136445,2,0,P|285:229|297:239,1,103.500001974106,10|0,0:1|0:0,0:0:0:0:
282,223,136903,1,2,0:0:0:0:
248,361,137132,2,0,L|243:226,1,69.0000013160706,10|8,0:0|0:1,0:0:0:0:
400,321,137590,5,2,0:0:0:0:
326,358,137819,2,0,L|321:223,1,69.0000013160706,10|8,0:1|0:0,0:0:0:0:
460,271,138277,1,10,0:1:0:0:
380,148,138507,2,0,B|352:191|352:191|392:259,1,103.500001974106,10|0,0:1|0:0,0:0:0:0:
387,244,138965,1,10,0:0:0:0:
505,167,139194,1,2,0:0:0:0:
383,70,139423,5,14,0:1:0:0:
380,148,139652,1,2,0:0:0:0:
450,112,139881,1,10,0:0:0:0:
313,106,140110,2,0,L|183:114,1,103.500001974106,10|0,0:1|0:0,0:0:0:0:
201,121,140568,1,2,0:0:0:0:
77,56,140797,2,0,P|116:131|112:133,1,69.0000013160706,10|8,0:0|0:1,0:0:0:0:
100,233,141255,5,2,0:0:0:0:
131,157,141484,2,0,L|1:164,1,69.0000013160706,10|8,0:1|0:0,0:0:0:0:
198,199,141942,1,10,0:1:0:0:
28,263,142171,6,0,B|75:241|102:288|102:288|90:304|98:339,1,112.5,14|0,0:1|0:0,0:0:0:0:
91,322,142629,2,0,P|114:364|120:363,1,34.5000006580353,8|0,0:0|0:0,0:0:0:0:
168,337,142858,1,10,0:1:0:0:
16,371,143087,5,14,0:1:0:0:
256,192,143201,12,4,146751,0:1:0:0:
