osu file format v14

[General]
AudioFilename: audio.mp3
AudioLeadIn: 0
PreviewTime: 67119
Countdown: 0
SampleSet: Soft
StackLeniency: 0.7
Mode: 0
LetterboxInBreaks: 0
WidescreenStoryboard: 1

[Editor]
Bookmarks: 8712,15084,17208,34199,51190,68181,85172,102163,117031,119155,136146,153137,170128,187119,195615,204110,212606
DistanceSpacing: 1
BeatDivisor: 4
GridSize: 32
TimelineZoom: 1.6

[Metadata]
Title:Every Day is Night
TitleUnicode:Every Day is Night
Artist:Garoad
ArtistUnicode:Garoad
Creator:Chaoslitz
Version:Normal
Source:VA-11 HALL-A: Cyberpunk Bartender Action
Tags:valhalla black screen records sukeban games bsr017 michael kelly second round future synth electronic video game soundtrack instrumental ost DreaM117er
BeatmapID:2877698
BeatmapSetID:1353075

[Difficulty]
HPDrainRate:4
CircleSize:3.5
OverallDifficulty:4
ApproachRate:5.5
SliderMultiplier:1.6
SliderTickRate:1

[Events]
//Background and Video events
0,0,"bg.jpg",0,0
//Break Periods
2,170328,185994
//Storyboard Layer 0 (Background)
//Storyboard Layer 1 (Fail)
//Storyboard Layer 2 (Pass)
//Storyboard Layer 3 (Foreground)
//Storyboard Layer 4 (Overlay)
//Storyboard Sound Samples

[TimingPoints]
217,530.973451327434,4,2,1,60,1,0
217,-100,4,2,1,60,0,0
3270,-100,4,2,1,60,0,0
3668,-100,4,2,1,60,0,0
7517,-100,4,2,1,60,0,0
7916,-100,4,2,1,60,0,0
8712,-100,4,2,20,75,0,0
8845,-100,4,2,1,75,0,0
11765,-100,4,2,1,75,0,0
12163,-100,4,2,1,75,0,0
15084,-100,4,2,1,50,0,0
16942,-100,4,2,1,80,0,0
17208,-100,4,2,2,90,0,1
17340,-100,4,2,2,90,0,0
21455,-100,4,2,2,90,0,0
22385,-100,4,2,2,90,0,0
32075,-100,4,2,2,50,0,0
34199,-100,4,2,10,75,0,0
34332,-100,4,2,3,75,0,0
38447,-100,4,2,10,75,0,0
38581,-100,4,2,3,75,0,0
42694,-100,4,2,10,75,0,0
42827,-100,4,2,3,75,0,0
46942,-100,4,2,10,75,0,0
47075,-100,4,2,3,75,0,0
49863,-100,4,2,3,70,0,0
50393,-100,4,2,3,60,0,0
50924,-100,4,2,3,50,0,0
51190,-100,4,2,11,85,0,0
51323,-100,4,2,4,85,0,0
55438,-100,4,2,11,85,0,0
55570,-100,4,2,4,85,0,0
59686,-100,4,2,11,85,0,0
59818,-100,4,2,4,85,0,0
62871,-100,4,2,4,85,0,0
63402,-100,4,2,4,85,0,0
63933,-100,4,2,11,85,0,0
64066,-100,4,2,4,85,0,0
67916,-100,4,2,4,85,0,0
68181,-100,4,2,2,95,0,1
81455,-100,4,2,2,95,0,1
81721,-100,4,2,2,95,0,1
85040,-100,4,2,2,95,0,0
85172,-100,4,2,2,100,0,1
102163,-100,4,2,1,80,0,0
110659,-100,4,2,20,80,0,0
110792,-100,4,2,1,80,0,0
117031,-100,4,2,1,50,0,0
118889,-100,4,2,1,80,0,0
119155,-100,4,2,2,90,0,1
119287,-100,4,2,2,90,0,0
123402,-100,4,2,2,90,0,0
124332,-100,4,2,2,90,0,0
134022,-100,4,2,2,50,0,0
136146,-100,4,2,10,75,0,0
136278,-100,4,2,3,75,0,0
140393,-100,4,2,10,75,0,0
140526,-100,4,2,3,75,0,0
144641,-100,4,2,10,75,0,0
144774,-100,4,2,3,75,0,0
148889,-100,4,2,10,75,0,0
149022,-100,4,2,3,75,0,0
151809,-100,4,2,3,70,0,0
152340,-100,4,2,3,60,0,0
152871,-100,4,2,3,50,0,0
153137,-100,4,2,11,85,0,0
153270,-100,4,2,4,85,0,0
157385,-100,4,2,11,85,0,0
157517,-100,4,2,4,85,0,0
161632,-100,4,2,11,85,0,0
161765,-100,4,2,4,85,0,0
164818,-100,4,2,4,85,0,0
165349,-100,4,2,4,85,0,0
165880,-100,4,2,11,85,0,0
166013,-100,4,2,4,85,0,0
170128,-100,4,2,5,75,0,0
170659,-100,4,2,5,10,0,0
170924,-100,4,2,5,40,0,0
171721,-100,4,2,5,40,0,0
173048,-100,4,2,5,40,0,0
174243,-100,4,2,5,40,0,0
175969,-100,4,2,5,40,0,0
177562,-100,4,2,5,40,0,0
178624,-100,4,2,5,40,0,0
178889,-100,4,2,5,10,0,0
179155,-100,4,2,5,40,0,0
179951,-100,4,2,5,10,0,0
180217,-100,4,2,5,40,0,0
181544,-100,4,2,5,10,0,0
181809,-100,4,2,5,40,0,0
182075,-100,4,2,5,10,0,0
182340,-100,4,2,5,40,0,0
183270,-100,4,2,5,10,0,0
183402,-100,4,2,5,40,0,0
184464,-100,4,2,5,40,0,0
186057,-100,4,2,5,40,0,0
186986,-100,4,2,5,10,0,0
187119,-100,4,2,6,80,0,0
204110,-100,4,2,6,85,0,0

[Colours]
Combo1 : 50,124,255
Combo2 : 46,73,142
Combo3 : 244,0,87
SliderBorder : 70,53,140
SliderTrackOverride : 104,76,225

[HitObjects]
96,351,217,6,0,P|26:285|82:285,1,160,0|0,3:0|3:0,0:0:0:0:
123,239,1146,2,0,L|273:229,2,120,2|2|0,3:2|3:2|3:0,0:0:0:0:
22,175,2340,2,0,B|-18:105|-18:105|48:11,1,160,0|2,3:0|3:2,0:0:0:0:
145,11,3270,2,0,P|161:93|142:93,1,120,2|2,3:0|3:2,0:0:0:0:
128,159,3933,2,0,L|120:299,1,80,2|2,0:0|0:0,0:0:0:0:
156,313,4464,6,0,B|228:282|221:387|293:357,1,160,0|0,3:0|3:0,0:0:0:0:
376,268,5393,2,0,P|454:268|454:321,2,120,2|2|0,3:2|3:2|3:0,0:0:0:0:
258,246,6588,2,0,L|267:78,1,160,0|2,3:0|3:2,0:0:0:0:
184,0,7517,2,0,P|128:62|148:76,1,120,2|2,3:0|3:2,0:0:0:0:
180,126,8181,2,0,P|181:135|96:134,1,80,2|2,0:0|0:0,0:0:0:0:
63,141,8712,5,4,3:1:0:0:
6,196,8978,1,2,0:0:0:0:
40,267,9243,2,0,P|108:322|95:333,1,120,2|2,3:2|3:2,0:0:0:0:
221,365,10040,1,2,3:2:0:0:
264,297,10305,2,0,L|414:287,1,120,2|2,0:0|0:0,0:0:0:0:
457,192,11101,5,2,0:0:0:0:
401,135,11367,2,0,L|404:70,1,40,2|2,3:2|0:0,0:0:0:0:
353,33,11765,2,0,P|293:95|317:109,1,120,2|2,3:0|3:2,0:0:0:0:
325,159,12429,2,0,L|317:299,1,80,2|2,0:0|0:0,0:0:0:0:
384,289,12960,5,0,3:0:0:0:
355,364,13225,1,2,0:0:0:0:
280,335,13491,2,0,B|221:315|232:389|169:365,1,120,2|2,3:2|3:2,0:0:0:0:
65,314,14287,1,2,3:2:0:0:
12,254,14553,2,0,L|20:114,1,80,2|2,0:0|0:0,0:0:0:0:
57,105,15084,6,0,P|125:160|112:171,1,120,2|2,3:2|0:0,0:0:0:0:
155,223,15747,1,2,0:0:0:0:
230,192,16013,2,0,B|289:172|278:246|341:222,1,120,2|2,3:2|3:2,0:0:0:0:
392,163,16677,1,2,0:0:0:0:
328,112,16942,2,0,P|284:112|276:102,2,40,2|2|12,0:0|0:0|3:1,0:0:0:0:
352,34,17473,5,0,0:0:0:0:
416,85,17739,2,0,P|463:85|473:2,2,120,8|0|2,3:2|3:0|3:1,0:0:0:0:
352,34,18801,2,0,P|307:34|305:42,1,40,10|2,0:0|3:1,0:0:0:0:
256,74,19199,6,0,L|106:84,1,120,2|0,0:1|0:0,0:0:0:0:
65,121,19863,2,0,P|50:121|50:21,2,120,8|0|0,3:2|3:0|3:0,0:0:0:0:
136,82,20924,1,8,0:0:0:0:
195,137,21190,1,2,0:0:0:0:
160,210,21455,5,10,3:1:0:0:
155,213,21588,2,0,P|155:289|201:303,1,80,2|2,0:0|0:0,0:0:0:0:
197,354,22119,1,2,0:0:0:0:
270,319,22385,2,0,B|329:299|318:373|381:349,1,120,2|0,3:1|3:0,0:0:0:0:
446,308,23048,2,0,P|451:302|393:255,1,80,10|2,0:0|0:0,0:0:0:0:
388,248,23447,6,0,L|395:113,1,120,2|0,0:0|0:0,0:0:0:0:
352,59,24110,2,0,P|279:72|299:130,1,120,8|0,3:2|3:0,0:0:0:0:
253,137,24641,2,0,P|208:130|195:145,2,40,10|8|8,0:1|0:0|3:2,0:0:0:0:
291,208,25172,1,10,0:0:0:0:
235,267,25438,1,4,0:3:0:0:
161,231,25703,6,0,L|11:241,1,80,10|0,3:1|0:0,0:0:0:0:
20,183,26234,2,0,P|20:145|111:145,2,120,8|0|2,3:2|3:0|3:1,0:0:0:0:
81,236,27296,2,0,L|77:303,1,40,10|2,0:0|3:1,0:0:0:0:
24,335,27694,6,0,B|83:315|72:389|135:365,1,120,2|0,0:0|0:0,0:0:0:0:
193,315,28358,2,0,L|343:305,1,120,8|0,3:2|3:0,0:0:0:0:
343,334,28889,2,0,P|336:369|361:391,2,40,8|8|8,0:1|0:0|3:2,0:0:0:0:
379,262,29420,1,8,0:0:0:0:
450,298,29686,2,0,P|497:259|478:222,1,80,2|10,0:0|3:1,0:0:0:0:
472,215,30084,6,0,L|477:113,1,80,2|2,0:0|0:0,0:0:0:0:
441,62,30615,1,2,0:0:0:0:
368,97,30880,2,0,B|309:77|320:151|257:127,1,120,2|0,3:1|3:0,0:0:0:0:
205,70,31544,1,10,0:0:0:0:
133,106,31809,2,0,L|58:111,1,40,2|2,0:0|0:0,0:0:0:0:
60,132,32075,6,0,P|25:34|121:110,1,160,0|0,3:0|3:0,0:0:0:0:
205,70,33137,2,0,P|214:108|190:129,1,40,10|8,0:1|0:1,0:0:0:0:
173,176,33535,2,0,L|169:243,1,40,8|8,0:1|0:1,0:0:0:0:
105,265,33933,1,8,0:1:0:0:
126,343,34199,6,0,P|203:362|212:352,1,80,14|2,0:1|0:0,0:0:0:0:
256,318,34730,2,0,L|406:308,1,80,10|2,0:0|0:0,0:0:0:0:
362,344,35128,2,0,P|432:344|432:274,1,120,2|0,0:0|0:0,0:0:0:0:
387,250,35792,2,0,P|387:183|418:173,1,80,8|0,0:0|0:0,0:0:0:0:
456,134,36323,6,0,L|531:129,2,40,8|0|0,0:1|0:0|0:0,0:0:0:0:
425,59,36854,1,8,0:0:0:0:
359,105,37119,1,0,0:0:0:0:
282,79,37385,2,0,L|287:-23,2,80,10|0|8,0:1|0:0|0:0,0:0:0:0:
298,159,38181,2,0,P|251:182|239:174,1,40,10|0,0:1|0:0,0:0:0:0:
231,171,38447,6,0,L|81:181,1,80,14|2,0:1|0:0,0:0:0:0:
83,220,38978,2,0,P|61:291|105:311,1,80,10|2,0:0|0:0,0:0:0:0:
78,322,39376,2,0,B|137:302|126:376|189:352,1,120,2|0,0:0|0:0,0:0:0:0:
230,285,40040,2,0,P|259:267|310:329,1,80,8|0,0:0|0:0,0:0:0:0:
353,342,40570,6,0,L|349:409,2,40,8|0|0,0:1|0:0|0:0,0:0:0:0:
427,310,41101,1,8,0:0:0:0:
374,248,41367,1,0,0:0:0:0:
434,193,41632,2,0,P|438:188|360:148,1,120,10|0,0:1|0:0,0:0:0:0:
353,148,42163,2,0,P|290:160|280:89,1,80,8|8,0:0|0:1,0:0:0:0:
256,78,42694,5,14,0:1:0:0:
185,117,42960,2,0,L|181:184,2,40,0|0|8,0:0|0:0|0:0,0:0:0:0:
136,51,43491,2,0,P|127:42|127:126,1,160,2|0,0:0|0:0,0:0:0:0:
104,169,44287,2,0,L|99:271,1,80,8|0,0:0|0:0,0:0:0:0:
50,312,44818,5,10,0:1:0:0:
124,344,45084,2,0,P|120:378|140:394,2,40,0|0|8,0:0|0:0|0:0,0:0:0:0:
174,280,45615,1,0,0:0:0:0:
248,312,45880,1,10,0:1:0:0:
280,238,46146,2,0,L|355:233,1,40,0|0,0:0|0:0,0:0:0:0:
351,210,46411,2,0,P|394:258|341:311,1,80,8|8,0:0|0:1,0:0:0:0:
410,348,46942,6,0,P|483:348|399:268,1,160,14|8,0:1|0:0,0:0:0:0:
461,202,47739,1,0,0:0:0:0:
476,122,48004,2,0,P|510:122|518:96,2,40,8|0|0,0:1|0:0|0:0,0:0:0:0:
404,83,48535,2,0,L|409:-19,2,80,8|0|8,0:0|0:0|0:1,0:0:0:0:
344,139,49332,5,2,0:0:0:0:
378,213,49597,2,0,P|296:213|298:195,1,80,10|2,0:0|0:0,0:0:0:0:
256,192,50128,2,0,L|106:202,1,80,10|2,0:1|0:0,0:0:0:0:
114,144,50659,1,10,0:0:0:0:
44,186,50924,1,10,0:1:0:0:
63,265,51190,6,0,P|55:338|116:338,1,80,14|2,0:1|0:0,0:0:0:0:
118,380,51721,1,10,0:0:0:0:
174,322,51986,1,2,0:0:0:0:
170,317,52119,2,0,L|177:182,1,120,2|0,0:0|0:0,0:0:0:0:
242,152,52783,2,0,P|298:206|274:231,1,80,8|0,0:0|0:0,0:0:0:0:
256,256,53314,5,8,0:1:0:0:
333,279,53579,2,0,P|349:313|328:338,1,40,0|0,0:0|0:0,0:0:0:0:
334,351,53845,2,0,P|422:351|427:313,1,80,8|0,0:0|0:0,0:0:0:0:
433,293,54376,2,0,L|583:283,2,80,10|0|8,0:1|0:0|0:0,0:0:0:0:
392,223,55172,2,0,P|398:183|414:179,1,40,10|0,0:1|0:0,0:0:0:0:
427,163,55438,6,0,L|432:61,1,80,14|2,0:1|0:0,0:0:0:0:
377,23,55969,1,10,0:0:0:0:
303,55,56234,1,2,0:0:0:0:
298,58,56367,2,0,B|239:38|250:112|187:88,1,120,2|0,0:0|0:0,0:0:0:0:
148,21,57031,2,0,L|-2:31,1,80,8|0,0:0|0:0,0:0:0:0:
4,76,57562,5,8,0:1:0:0:
31,152,57827,2,0,P|22:169|41:205,1,40,0|0,0:0|0:0,0:0:0:0:
43,225,58093,2,0,P|107:225|108:162,1,80,8|0,0:0|0:0,0:0:0:0:
170,161,58624,2,0,L|161:312,1,120,10|0,0:1|0:0,0:0:0:0:
148,319,59155,2,0,P|231:340|236:308,1,80,8|8,0:0|0:1,0:0:0:0:
256,299,59686,5,14,0:1:0:0:
325,341,59951,2,0,L|321:407,2,40,0|0|8,0:0|0:0|0:0,0:0:0:0:
388,290,60482,2,0,P|391:293|412:203,1,160,2|0,0:0|0:0,0:0:0:0:
412,167,61278,1,8,0:0:0:0:
476,118,61544,2,0,P|481:111|450:69,1,40,0|0,0:0|0:0,0:0:0:0:
465,43,61809,6,0,L|315:53,1,80,10|0,0:1|0:0,0:0:0:0:
346,119,62340,1,8,0:0:0:0:
275,80,62606,2,0,L|200:85,1,40,0|0,0:0|0:0,0:0:0:0:
213,117,62871,2,0,P|136:117|131:97,1,80,10|0,0:1|0:0,0:0:0:0:
84,74,63402,2,0,L|88:8,2,40,8|0|8,0:0|0:0|0:1,0:0:0:0:
13,114,63933,5,14,0:1:0:0:
30,193,64199,2,0,P|42:241|34:247,1,40,0|0,0:0|0:0,0:0:0:0:
45,264,64464,2,0,P|128:319|120:346,1,80,10|0,0:0|0:0,0:0:0:0:
141,360,64995,1,10,0:1:0:0:
217,331,65261,2,0,L|292:326,1,40,0|0,0:0|0:0,0:0:0:0:
295,316,65526,2,0,P|383:350|403:318,1,80,10|0,0:0|0:0,0:0:0:0:
425,324,66057,5,10,0:1:0:0:
388,252,66323,2,0,L|313:257,2,40,0|0|10,0:0|0:0|0:0,0:0:0:0:
460,214,66854,2,0,P|475:197|455:163,1,40
456,145,67119,1,10,0:0:0:0:
474,65,67385,1,2,0:0:0:0:
404,23,67650,1,10,0:0:0:0:
343,76,67916,2,0,P|292:76|289:62,1,40,10|8,0:0|0:0,0:0:0:0:
274,70,68181,6,0,B|228:73|228:73|202:136|202:136|156:139,1,160,14|8,0:1|0:0,0:0:0:0:
86,98,68978,1,2,0:1:0:0:
21,146,69243,2,0,P|21:223|77:234,1,80,10|0,0:1|0:0,0:0:0:0:
42,251,69641,1,0,0:0:0:0:
47,255,69774,2,0,L|197:245,1,80,8|0,0:0|0:0,0:0:0:0:
181,310,70305,6,0,L|177:376,2,40,8|0|0,0:1|0:0|0:0,0:0:0:0:
248,265,70836,1,8,0:0:0:0:
302,325,71101,1,2,0:0:0:0:
369,280,71367,2,0,L|375:174,2,80,10|2|10,0:1|0:0|0:0,0:0:0:0:
423,340,72163,5,2,0:0:0:0:
427,345,72296,2,0,P|496:308|475:280,1,120,2|0,0:0|0:0,0:0:0:0:
451,224,72960,1,8,0:0:0:0:
374,200,73225,1,0,0:0:0:0:
398,123,73491,2,0,P|413:113|366:35,1,80,8|0,0:1|0:0,0:0:0:0:
403,18,73889,1,0,0:0:0:0:
397,14,74022,2,0,L|306:20,1,80,8|0,0:0|0:0,0:0:0:0:
256,72,74553,6,0,L|256:140,2,40,8|0|0,0:1|0:0|0:0,0:0:0:0:
195,19,75084,1,8,0:0:0:0:
118,44,75349,2,0,P|109:60|142:89,1,40,0|0,0:0|0:0,0:0:0:0:
139,113,75615,2,0,P|126:104|96:185,2,120,10|2|10,0:1|0:0|0:1,0:0:0:0:
198,169,76677,6,0,L|192:275,1,80,10|0,0:1|0:0,0:0:0:0:
219,287,77075,1,0,0:0:0:0:
219,287,77208,1,10,0:0:0:0:
176,355,77473,2,0,P|101:355|112:308,1,80,2|8,0:0|0:1,0:0:0:0:
35,336,78004,2,0,P|35:296|62:296,1,40,0|0,0:0|0:0,0:0:0:0:
63,277,78270,1,10,0:0:0:0:
68,197,78535,6,0,B|113:193|113:193|148:252|148:252|194:248,1,160,2|0,0:0|0:0,0:0:0:0:
256,196,79332,1,8,0:0:0:0:
317,248,79597,2,0,L|313:314,1,40,0|0,0:0|0:0,0:0:0:0:
300,326,79863,2,0,P|381:354|400:325,1,80,10|0,0:1|0:0,0:0:0:0:
393,337,80261,1,0,0:0:0:0:
397,333,80393,1,10,0:0:0:0:
474,357,80659,2,0,P|478:356|437:283,1,80,2|8,0:0|0:1,0:0:0:0:
452,231,81190,6,0,L|379:235,1,40,0|0,0:0|0:0,0:0:0:0:
385,203,81455,1,10,0:0:0:0:
317,248,81721,2,0,P|242:248|253:201,1,80,2|8,0:0|0:1,0:0:0:0:
207,192,82252,2,0,L|211:126,1,40,0|0,0:0|0:0,0:0:0:0:
192,115,82517,2,0,L|101:121,1,80,8|0,0:0|0:0,0:0:0:0:
46,167,83048,6,0,P|-9:167|-14:179,2,40,8|0|0,0:1|0:0|0:0,0:0:0:0:
106,222,83579,1,8,0:0:0:0:
40,268,83845,2,0,L|36:334,1,40,0|0,0:0|0:0,0:0:0:0:
58,343,84110,2,0,P|133:343|122:296,1,80,10|0,0:1|0:0,0:0:0:0:
152,326,84509,1,0,0:0:0:0:
155,322,84641,2,0,L|246:316,1,80,8|8,0:0|0:1,0:0:0:0:
303,361,85172,5,14,0:1:0:0:
309,365,85305,2,0,P|371:318|353:288,1,80,2|0,0:0|0:0,0:0:0:0:
360,295,85703,1,8,0:0:0:0:
310,231,85969,2,0,P|322:187|342:187,1,40,0|0,3:0|3:0,0:0:0:0:
339,165,86234,2,0,L|412:161,2,40,8|0|0,0:1|0:0|0:0,0:0:0:0:
318,87,86765,1,10,0:0:0:0:
379,34,87031,6,0,P|388:28|388:118,1,160,2|0,0:0|0:0,0:0:0:0:
379,163,87827,2,0,P|371:229|401:246,1,80,8|0,0:0|3:0,0:0:0:0:
400,265,88225,1,0,3:0:0:0:
404,269,88358,2,0,P|384:345|342:330,1,80,10|0,0:1|0:0,0:0:0:0:
324,366,88889,1,8,0:0:0:0:
256,323,89155,2,0,P|214:339|214:353,1,40,0|0,3:0|3:0,0:0:0:0:
203,364,89420,6,0,P|199:353|101:373,1,80,10|0,0:1|0:0,0:0:0:0:
107,346,89818,1,0,0:0:0:0:
103,350,89951,1,10,0:0:0:0:
29,315,90217,2,0,B|-11:245|-11:245|55:151,1,160,2|0,0:0|0:0,0:0:0:0:
112,155,91013,1,8,0:0:0:0:
137,232,91278,2,0,P|187:246|197:232,1,40,0|0,3:0|3:0,0:0:0:0:
205,236,91544,6,0,L|209:170,2,40,8|0|0,0:1|0:0|0:0,0:0:0:0:
256,299,92075,1,8,0:0:0:0:
331,270,92340,2,0,P|340:275|340:333,1,40,0|0,3:0|3:0,0:0:0:0:
348,341,92606,2,0,P|423:341|412:294,1,80,10|0,0:1|0:0,0:0:0:0:
441,322,93004,1,0,0:0:0:0:
443,316,93137,2,0,L|449:210,1,80,8|8,0:0|0:1,0:0:0:0:
405,168,93668,6,0,P|405:87|437:78,1,80,10|0,0:1|0:0,0:0:0:0:
423,69,94066,1,0,0:0:0:0:
428,65,94199,1,10,0:0:0:0:
377,3,94464,2,0,B|331:6|331:6|305:69|305:69|158:77,1,160,2|0,0:0|0:0,0:0:0:0:
201,128,95261,1,8,0:0:0:0:
152,64,95526,2,0,P|106:72|93:53,1,40,0|0,3:0|3:0,0:0:0:0:
85,51,95792,6,0,L|89:-15,2,40,8|0|0,0:1|0:0|0:0,0:0:0:0:
18,96,96323,1,8,0:0:0:0:
41,173,96588,2,0,P|78:188|90:176,1,40,0|0,3:0|3:0,0:0:0:0:
113,178,96854,2,0,P|156:229|107:284,1,80,10|0,0:1|0:0,0:0:0:0:
143,287,97252,1,0,0:0:0:0:
139,292,97385,1,8,0:0:0:0:
194,351,97650,2,0,P|236:358|243:332,1,40,0|0,3:0|3:0,0:0:0:0:
255,332,97916,6,0,L|346:326,1,80,10|0,0:1|0:0,0:0:0:0:
366,301,98314,1,0,0:0:0:0:
370,297,98447,1,10,0:0:0:0:
432,349,98712,2,0,P|437:352|410:288,1,160,2|0,0:0|0:0,0:0:0:0:
440,216,99509,1,8,0:0:0:0:
408,142,99774,2,0,L|412:76,1,40,0|0,3:0|3:0,0:0:0:0:
399,63,100040,6,0,P|401:56|458:46,2,40,8|0|0,0:1|0:0|0:0,0:0:0:0:
325,96,100570,1,8,0:0:0:0:
270,35,100836,2,0,P|211:42|207:38,1,40,0|0,0:0|0:0,0:0:0:0:
204,26,101101,2,0,L|113:32,1,80,8|0,3:1|0:0,0:0:0:0:
92,56,101500,1,0,0:0:0:0:
88,61,101632,2,0,P|120:150|145:144,1,80,8|8,0:0|0:1,0:0:0:0:
140,192,102163,5,12,3:1:0:0:
83,251,102429,1,2,0:0:0:0:
121,323,102694,2,0,P|171:319|173:308,1,40,10|2,3:2|0:0,0:0:0:0:
227,294,103093,2,0,P|319:295|331:320,1,120,2|2,3:2|3:2,0:0:0:0:
386,363,103756,1,10,0:0:0:0:
438,300,104022,2,0,L|511:296,2,40,2|2|8,0:0|0:0|3:1,0:0:0:0:
393,227,104553,5,2,0:0:0:0:
445,164,104818,2,0,L|449:98,1,40,10|2,3:2|0:0,0:0:0:0:
380,77,105217,2,0,P|340:139|367:159,1,80,2|0,3:0|0:0,0:0:0:0:
335,171,105615,2,0,L|244:177,2,80,2|10|2,3:2|0:0|0:0,0:0:0:0:
393,227,106411,5,8,3:1:0:0:
445,164,106677,1,2,0:0:0:0:
503,220,106942,2,0,P|492:264|468:264,1,40,8|2,3:2|0:0,0:0:0:0:
431,299,107340,2,0,P|374:358|346:320,1,120,2|2,3:2|3:2,0:0:0:0:
315,282,108004,1,10,0:0:0:0:
256,337,108270,2,0,L|256:405,2,40,2|2|8,0:0|0:0|3:1,0:0:0:0:
197,282,108801,5,2,0:0:0:0:
151,349,109066,2,0,P|119:357|112:345,1,40,10|2,3:2|0:0,0:0:0:0:
53,307,109464,2,0,L|59:201,1,80,2|0,3:0|0:0,0:0:0:0:
72,189,109863,2,0,P|56:171|68:108,2,80,2|8|8,3:2|0:0|0:1,0:0:0:0:
147,219,110659,5,12,3:1:0:0:
198,156,110924,1,2,0:0:0:0:
153,88,111190,2,0,L|157:22,1,40,10|2,3:2|0:0,0:0:0:0:
221,0,111588,2,0,P|281:62|257:76,1,120,2|2,3:2|3:2,0:0:0:0:
310,133,112252,1,10,0:0:0:0:
389,109,112517,5,2,0:0:0:0:
394,105,112650,2,0,P|463:123|463:174,1,80,2|0,0:0|0:0,0:0:0:0:
473,163,113048,1,2,0:0:0:0:
416,220,113314,2,0,P|418:263|443:270,1,40,10|2,3:2|0:0,0:0:0:0:
416,339,113712,2,0,P|414:345|334:345,1,80,2|0,3:0|0:0,0:0:0:0:
325,335,114110,2,0,L|331:229,2,80,2|10|2,3:2|0:0|0:0,0:0:0:0:
256,377,114907,5,8,3:1:0:0:
211,309,115172,1,2,0:0:0:0:
142,351,115438,2,0,P|98:351|94:338,1,40,10|2,3:2|0:0,0:0:0:0:
46,306,115836,2,0,L|54:154,1,120,2|2,3:2|3:2,0:0:0:0:
12,116,116500,1,10,0:0:0:0:
67,56,116765,1,2,0:0:0:0:
141,89,117031,6,0,B|200:69|189:143|252:119,1,120,2|2,3:2|0:0,0:0:0:0:
310,69,117694,1,2,0:0:0:0:
382,107,117960,2,0,P|442:169|418:183,1,120,2|2,3:2|3:2,0:0:0:0:
394,224,118624,1,2,0:0:0:0:
317,199,118889,2,0,L|321:133,2,40,2|2|12,0:0|0:0|3:1,0:0:0:0:
256,253,119420,5,0,0:0:0:0:
272,332,119686,2,0,B|331:312|320:386|383:362,2,120,8|0|2,3:2|3:0|3:1,0:0:0:0:
196,307,120747,2,0,L|121:312,1,40,10|2,0:0|3:1,0:0:0:0:
91,363,121146,6,0,P|45:363|61:288,1,120,2|0,0:1|0:0,0:0:0:0:
101,251,121809,2,0,L|109:99,2,120,8|0|0,3:2|3:0|3:0,0:0:0:0:
156,310,122871,1,8,0:0:0:0:
229,275,123137,1,2,0:0:0:0:
284,334,123402,5,10,3:1:0:0:
286,340,123535,2,0,P|363:340|361:286,1,80,2|2,0:0|0:0,0:0:0:0:
416,294,124066,1,2,0:0:0:0:
361,235,124332,2,0,B|334:182|334:182|378:106,1,120,2|0,3:1|3:0,0:0:0:0:
442,108,124995,2,0,P|481:165|419:188,1,80,10|2,0:0|0:0,0:0:0:0:
468,203,125393,6,0,B|409:183|420:257|357:233,1,120,2|0,0:0|0:0,0:0:0:0:
301,180,126057,2,0,B|250:212|250:212|171:172,1,120,8|0,3:2|3:0,0:0:0:0:
173,152,126588,2,0,L|177:86,2,40,10|8|8,0:1|0:0|3:2,0:0:0:0:
121,214,127119,1,10,0:0:0:0:
52,172,127385,1,4,0:3:0:0:
10,241,127650,6,0,P|10:315|46:324,1,80,10|0,3:1|0:0,0:0:0:0:
71,360,128181,2,0,B|130:380|119:306|182:330,2,120,8|0|2,3:2|3:0|3:1,0:0:0:0:
6,311,129243,2,0,L|10:245,1,40,10|2,0:0|3:1,0:0:0:0:
79,231,129641,2,0,P|107:231|107:142,1,120,2|0,0:0|0:0,0:0:0:0:
92,84,130305,6,0,B|151:64|140:138|203:114,1,120,8|0,3:2|3:0,0:0:0:0:
229,89,130836,2,0,P|232:85|200:40,2,40,8|8|8,0:1|0:0|3:2,0:0:0:0:
292,140,131367,1,8,0:0:0:0:
347,81,131632,2,0,P|369:76|369:147,1,80,2|10,0:0|3:1,0:0:0:0:
416,154,132031,6,0,P|396:221|438:235,1,80,2|2,0:0|0:0,0:0:0:0:
448,279,132562,1,2,0:0:0:0:
388,333,132827,2,0,B|329:313|340:387|277:363,1,120,2|0,3:1|3:0,0:0:0:0:
234,299,133491,1,10,0:0:0:0:
164,339,133756,2,0,L|91:343,1,40,2|2,0:0|0:0,0:0:0:0:
91,365,134022,6,0,P|84:368|84:261,1,160,0|0,3:0|3:0,0:0:0:0:
172,208,135084,2,0,P|177:205|177:149,1,40,10|8,0:1|0:1,0:0:0:0:
179,95,135482,2,0,L|183:29,1,40,8|8,0:1|0:1,0:0:0:0:
121,0,135880,1,8,0:1:0:0:
42,21,136146,6,0,P|54:101|84:101,1,80,14|2,0:1|0:0,0:0:0:0:
60,169,136677,2,0,L|54:275,1,80,10|2,0:0|0:0,0:0:0:0:
25,275,137075,2,0,B|84:255|73:329|136:305,1,120,2|0,0:0|0:0,0:0:0:0:
187,247,137739,2,0,P|255:279|237:306,1,80,8|0,0:0|0:0,0:0:0:0:
284,333,138270,6,0,L|280:399,2,40,8|0|0,0:1|0:0|0:0,0:0:0:0:
348,283,138801,1,8,0:0:0:0:
380,357,139066,1,0,0:0:0:0:
441,304,139332,2,0,P|508:304|524:266,2,80,10|0|8,0:1|0:0|0:0,0:0:0:0:
409,230,140128,2,0,L|413:164,1,40,10|0,0:1|0:0,0:0:0:0:
405,150,140393,6,0,P|463:108|438:68,1,80,14|2,0:1|0:0,0:0:0:0:
416,45,140924,2,0,L|325:51,1,80,10|2,0:0|0:0,0:0:0:0:
307,79,141323,2,0,B|256:111|256:111|177:61,1,120,2|0,0:0|0:0,0:0:0:0:
150,20,141986,2,0,P|70:41|70:88,1,80,8|0,0:0|0:0,0:0:0:0:
41,102,142517,6,0,L|-34:107,2,40,8|0|0,0:1|0:0|0:0,0:0:0:0:
85,170,143048,1,8,0:0:0:0:
16,214,143314,1,0,0:0:0:0:
50,287,143579,2,0,B|109:267|98:341|161:317,1,120,10|0,0:1|0:0,0:0:0:0:
191,297,144110,2,0,P|206:287|146:217,1,80,8|8,0:0|0:1,0:0:0:0:
166,164,144641,5,14,0:1:0:0:
213,99,144907,2,0,P|213:64|246:49,2,40,0|0|8,0:0|0:0|0:0,0:0:0:0:
289,124,145438,2,0,P|326:107|326:211,1,160,2|0,0:0|0:0,0:0:0:0:
306,243,146234,2,0,L|300:349,1,80,8|0,0:0|0:0,0:0:0:0:
357,381,146765,1,10,0:1:0:0:
427,340,147031,6,0,P|467:333|467:310,2,40,0|0|8,0:0|0:0|0:0,0:0:0:0:
383,271,147562,1,0,0:0:0:0:
446,219,147827,1,10,0:1:0:0:
402,150,148093,2,0,L|323:155,1,40,0|0,0:0|0:0,0:0:0:0:
339,186,148358,2,0,P|280:186|293:113,1,80,8|8,0:0|0:1,0:0:0:0:
239,99,148889,6,0,P|219:85|219:182,1,160,14|8,0:1|0:0,0:0:0:0:
211,227,149686,1,0,0:0:0:0:
154,284,149951,2,0,L|75:289,2,40,8|0|0,0:1|0:0|0:0,0:0:0:0:
205,347,150482,2,0,P|279:347|279:293,2,80,8|0|8,0:0|0:0|0:1,0:0:0:0:
154,284,151278,5,2,0:0:0:0:
211,227,151544,2,0,P|216:222|151:147,1,80,10|2,0:0|0:0,0:0:0:0:
165,92,152075,2,0,L|74:98,1,80,10|2,0:1|0:0,0:0:0:0:
16,140,152606,1,10,0:0:0:0:
58,209,152871,1,10,0:1:0:0:
8,273,153137,6,0,P|8:349|59:360,1,80,14|2,0:1|0:0,0:0:0:0:
81,372,153668,1,10,0:0:0:0:
130,307,153933,1,2,0:0:0:0:
135,310,154066,2,0,B|194:290|183:364|246:340,1,120,2|0,0:0|0:0,0:0:0:0:
299,284,154730,2,0,P|365:284|365:350,1,80,8|0,0:0|0:0,0:0:0:0:
419,353,155261,5,8,0:1:0:0:
495,325,155526,2,0,L|499:249,1,40,0|0,0:0|0:0,0:0:0:0:
480,248,155792,2,0,P|480:165|467:160,1,80,8|0,0:0|0:0,0:0:0:0:
421,147,156323,2,0,L|330:153,2,80,10|0|8,0:1|0:0|0:0,0:0:0:0:
453,74,157119,2,0,P|461:63|425:37,1,40,10|0,0:1|0:0,0:0:0:0:
427,8,157385,6,0,P|340:20|332:-22,1,80,14|2,0:1|0:0,0:0:0:0:
284,12,157916,1,10,0:0:0:0:
237,78,158181,1,2,0:0:0:0:
233,83,158314,2,0,L|105:91,1,120,2|0,0:0|0:0,0:0:0:0:
48,137,158978,2,0,P|48:212|108:212,1,80,8|0,0:0|0:0,0:0:0:0:
104,262,159509,5,8,0:1:0:0:
170,216,159774,2,0,P|220:216|225:235,1,40,0|0,0:0|0:0,0:0:0:0:
243,219,160040,2,0,L|237:325,1,80,8|0,0:0|0:0,0:0:0:0:
293,358,160570,2,0,P|363:358|363:288,1,120,10|0,0:1|0:0,0:0:0:0:
364,277,161101,2,0,P|364:210|388:196,1,80,8|8,0:0|0:1,0:0:0:0:
447,184,161632,5,14,0:1:0:0:
476,108,161898,2,0,P|493:114|519:76,2,40,0|0|8,0:0|0:0|0:0,0:0:0:0:
437,37,162429,2,0,B|391:40|391:40|365:103|365:103|319:106,1,160,2|0,0:0|0:0,0:0:0:0:
256,55,163225,1,8,0:0:0:0:
192,105,163491,2,0,P|143:106|138:95,1,40,0|0,0:0|0:0,0:0:0:0:
130,86,163756,6,0,L|2:94,1,80,10|0,0:1|0:0,0:0:0:0:
0,155,164287,1,8,0:0:0:0:
63,204,164553,2,0,P|106:228|100:245,1,40,0|0,0:0|0:0,0:0:0:0:
122,243,164818,2,0,P|203:243|206:263,1,80,10|0,0:1|0:0,0:0:0:0:
256,269,165349,2,0,L|256:345,2,40,8|0|8,0:0|0:0|0:1,0:0:0:0:
323,224,165880,5,14,0:1:0:0:
385,277,166146,2,0,P|385:317|370:326,1,40,0|0,0:0|0:0,0:0:0:0:
371,351,166411,2,0,P|434:377|469:333,1,80,10|0,0:0|0:0,0:0:0:0:
500,321,166942,1,10,0:1:0:0:
463,249,167208,2,0,P|469:243|457:187,1,40,0|0,0:0|0:0,0:0:0:0:
467,170,167473,2,0,L|339:178,1,80,10|0,0:0|0:0,0:0:0:0:
323,224,168004,5,10,0:1:0:0:
273,160,168270,2,0,P|270:154|296:110,2,40,0|0|10,0:0|0:0|0:0,0:0:0:0:
209,209,168801,2,0,L|132:213,1,40,0|0,0:0|0:0,0:0:0:0:
131,225,169066,2,0,P|37:226|33:243,2,80,10|2|10,0:0|0:0|0:0,0:0:0:0:
179,291,169863,2,0,P|179:340|200:350,1,40,10|8,0:0|0:0,0:0:0:0:
195,361,170128,5,6,0:0:0:0:
256,308,187119,6,0,P|328:348|306:377,2,120,14|2|2,0:1|0:3|0:1,0:0:0:0:
177,290,188181,2,0,P|102:290|113:243,1,80,10|0,0:1|0:0,0:0:0:0:
89,268,188579,2,0,L|95:162,1,80,2|0,0:3|0:0,0:0:0:0:
72,153,188978,1,2,0:1:0:0:
139,108,189243,6,0,B|112:55|112:55|156:-21,2,120,10|2|2,0:1|0:3|0:1,0:0:0:0:
203,56,190305,2,0,P|258:56|258:130,1,80,10|0,0:1|0:0,0:0:0:0:
269,113,190703,2,0,L|397:105,1,80,2|0,0:3|0:0,0:0:0:0:
376,138,191101,1,2,0:1:0:0:
452,111,191367,6,0,P|466:111|466:202,1,80,8|0,0:1|0:0,0:0:0:0:
485,192,191765,2,0,L|479:298,1,80,2|0,0:1|0:0,0:0:0:0:
460,306,192163,1,2,0:1:0:0:
408,368,192429,2,0,B|349:388|360:314|297:338,2,120,10|2|2,0:1|0:1|0:1,0:0:0:0:
460,306,193491,6,0,P|460:288|375:287,1,80,10|0,0:1|0:0,0:0:0:0:
387,224,193889,2,0,L|259:232,1,80,2|0,0:1|0:0,0:0:0:0:
279,258,194287,1,2,0:1:0:0:
301,336,194553,2,0,B|360:316|349:390|412:366,2,120,10|2|2,0:1|0:1|0:1,0:0:0:0:
279,258,195615,6,0,P|341:198|355:222,2,120,10|2|2,0:1|0:3|0:1,0:0:0:0:
213,305,196677,2,0,L|85:313,1,80,10|0,0:1|0:0,0:0:0:0:
116,346,197075,2,0,P|37:314|43:286,1,80,2|0,0:3|0:0,0:0:0:0:
39,297,197473,1,2,0:1:0:0:
95,239,197739,6,0,B|68:186|68:186|112:110,2,120,10|2|2,0:1|0:3|0:1,0:0:0:0:
160,188,198801,2,0,L|288:180,1,80,10|0,0:1|0:0,0:0:0:0:
272,160,199199,2,0,P|325:175|301:254,1,80,2|0,0:3|0:0,0:0:0:0:
326,233,199597,1,2,0:1:0:0:
363,305,199863,6,0,P|433:333|454:300,1,80,8|0,0:1|0:0,0:0:0:0:
458,312,200261,2,0,L|464:206,1,80,2|0,0:1|0:0,0:0:0:0:
434,203,200659,1,2,0:1:0:0:
445,124,200924,2,0,P|383:64|369:88,2,120,10|2|2,0:1|0:1|0:1,0:0:0:0:
371,154,201986,6,0,L|243:162,1,80,10|0,0:1|0:0,0:0:0:0:
266,190,202385,2,0,P|212:199|194:125,1,80,2|0,0:1|0:0,0:0:0:0:
176,150,202783,1,2,0:1:0:0:
101,180,203048,2,0,L|93:319,1,120,10|2,0:1|0:1,0:0:0:0:
77,336,203579,2,0,P|171:336|173:318,1,80,8|8,0:0|0:1,0:0:0:0:
210,325,204110,6,0,B|269:305|258:379|321:355,1,120,14|2,0:1|0:3,0:0:0:0:
351,335,204641,1,8,0:0:0:0:
425,367,204907,1,2,0:1:0:0:
488,317,205172,2,0,P|496:309|440:236,1,80,10|0,0:1|0:0,0:0:0:0:
463,218,205570,2,0,L|335:226,1,80,2|0,0:3|0:0,0:0:0:0:
356,254,205969,1,2,0:1:0:0:
281,285,206234,6,0,P|221:223|245:209,1,120,10|2,0:1|0:3,0:0:0:0:
243,199,206765,1,8,0:0:0:0:
289,132,207031,1,2,0:1:0:0:
251,61,207296,2,0,P|165:52|154:88,1,80,10|0,0:1|0:0,0:0:0:0:
155,67,207694,2,0,L|27:75,1,80,2|0,0:3|0:0,0:0:0:0:
47,101,208093,1,2,0:1:0:0:
99,163,208358,5,8,0:1:0:0:
40,218,208624,1,0,0:0:0:0:
34,221,208756,2,0,P|34:305|46:311,1,80,2|0,0:1|0:0,0:0:0:0:
39,328,209155,1,2,0:1:0:0:
116,304,209420,2,0,P|192:340|186:365,1,80,10|0,0:1|0:0,0:0:0:0:
202,355,209818,2,0,P|286:351|290:326,1,80,2|0,0:1|0:0,0:0:0:0:
301,341,210217,1,2,0:1:0:0:
377,369,210482,5,10,0:1:0:0:
427,305,210747,1,0,0:0:0:0:
429,299,210880,2,0,P|383:252|342:272,1,80,2|0,0:1|0:0,0:0:0:0:
338,269,211278,1,2,0:1:0:0:
290,204,211544,2,0,P|212:209|223:248,1,80,10|0,0:1|0:0,0:0:0:0:
207,226,211942,2,0,B|148:206|159:280|96:256,1,120,2|2,0:1|0:1,0:0:0:0:
27,223,212606,6,0,B|0:170|0:170|44:94,1,120,10|2,0:1|0:3,0:0:0:0:
69,104,213137,1,8,0:0:0:0:
127,161,213402,1,2,0:1:0:0:
176,97,213668,2,0,P|240:122|220:179,1,80,10|0,0:1|0:0,0:0:0:0:
256,162,214066,2,0,L|396:153,1,80,2|0,0:3|0:0,0:0:0:0:
351,194,214464,1,2,0:1:0:0:
416,145,214730,6,0,P|476:207|452:221,1,120,10|2,0:1|0:3,0:0:0:0:
451,228,215261,1,8,0:0:0:0:
512,282,215526,1,2,0:1:0:0:
447,330,215792,2,0,P|364:330|364:293,1,80,10|0,0:1|0:0,0:0:0:0:
355,315,216190,2,0,L|215:324,1,80,2|0,0:3|0:0,0:0:0:0:
254,354,216588,1,2,0:1:0:0:
198,295,216854,5,8,0:1:0:0:
151,361,217119,1,0,0:0:0:0:
146,365,217252,2,0,P|80:315|111:285,1,80,2|0,0:1|0:0,0:0:0:0:
87,302,217650,1,2,0:1:0:0:
23,252,217916,2,0,L|31:113,1,80,10|0,0:1|0:0,0:0:0:0:
48,137,218314,2,0,P|134:150|146:109,1,80,2|0,0:1|0:0,0:0:0:0:
139,131,218712,1,2,0:1:0:0:
217,109,218978,5,10,0:1:0:0:
256,180,219243,1,0,0:0:0:0:
259,185,219376,2,0,L|399:176,1,80,2|0,0:1|0:0,0:0:0:0:
363,212,219774,1,2,0:1:0:0:
431,168,220040,2,0,P|506:232|493:249,1,120,10|0,0:1|0:0,0:0:0:0:
493,256,220570,2,0,P|422:258|422:217,1,80,8|8,0:0|0:1,0:0:0:0:
