osu file format v14

[General]
AudioFilename: audio.mp3
AudioLeadIn: 0
PreviewTime: 67119
Countdown: 0
SampleSet: Soft
StackLeniency: 0.7
Mode: 0
LetterboxInBreaks: 0
WidescreenStoryboard: 1

[Editor]
Bookmarks: 8712,15084,17208,34199,51190,68181,85172,102163,117031,119155,136146,153137,170128,187119,195615,204110,212606
DistanceSpacing: 0.9
BeatDivisor: 4
GridSize: 32
TimelineZoom: 1.6

[Metadata]
Title:Every Day is Night
TitleUnicode:Every Day is Night
Artist:Garoad
ArtistUnicode:Garoad
Creator:Chaoslitz
Version:Karmotrine
Source:VA-11 HALL-A: Cyberpunk Bartender Action
Tags:valhalla black screen records sukeban games bsr017 michael kelly second round future synth electronic video game soundtrack instrumental ost DreaM117er
BeatmapID:2801137
BeatmapSetID:1353075

[Difficulty]
HPDrainRate:6
CircleSize:4.2
OverallDifficulty:7
ApproachRate:8.5
SliderMultiplier:2
SliderTickRate:1

[Events]
//Background and Video events
0,0,"bg.jpg",0,0
//Break Periods
//Storyboard Layer 0 (Background)
//Storyboard Layer 1 (Fail)
//Storyboard Layer 2 (Pass)
//Storyboard Layer 3 (Foreground)
//Storyboard Layer 4 (Overlay)
//Storyboard Sound Samples

[TimingPoints]
217,530.973451327434,4,2,1,60,1,0
217,-95.2380952380952,4,2,1,60,0,0
3270,-90.9090909090909,4,2,1,60,0,0
3668,-95.2380952380952,4,2,1,60,0,0
7517,-90.9090909090909,4,2,1,60,0,0
7916,-95.2380952380952,4,2,1,60,0,0
8712,-95.2380952380952,4,2,20,75,0,0
8845,-95.2380952380952,4,2,1,75,0,0
11765,-90.9090909090909,4,2,1,75,0,0
12163,-95.2380952380952,4,2,1,75,0,0
15084,-90.9090909090909,4,2,1,50,0,0
16942,-83.3333333333333,4,2,1,80,0,0
17208,-86.9565217391304,4,2,2,90,0,1
17340,-86.9565217391304,4,2,2,90,0,0
21455,-83.3333333333333,4,2,2,90,0,0
22385,-86.9565217391304,4,2,2,90,0,0
32075,-95.2380952380952,4,2,2,50,0,0
34199,-90.9090909090909,4,2,10,75,0,0
34332,-90.9090909090909,4,2,3,75,0,0
38447,-90.9090909090909,4,2,10,75,0,0
38581,-90.9090909090909,4,2,3,75,0,0
42694,-90.9090909090909,4,2,10,75,0,0
42827,-90.9090909090909,4,2,3,75,0,0
46942,-90.9090909090909,4,2,10,75,0,0
47075,-90.9090909090909,4,2,3,75,0,0
49863,-100,4,2,3,70,0,0
50393,-111.111111111111,4,2,3,60,0,0
50924,-125,4,2,3,50,0,0
51190,-83.3333333333333,4,2,11,85,0,0
51323,-83.3333333333333,4,2,4,85,0,0
55438,-83.3333333333333,4,2,11,85,0,0
55570,-83.3333333333333,4,2,4,85,0,0
59686,-83.3333333333333,4,2,11,85,0,0
59818,-83.3333333333333,4,2,4,85,0,0
62871,-76.9230769230769,4,2,4,85,0,0
63402,-83.3333333333333,4,2,4,85,0,0
63933,-83.3333333333333,4,2,11,85,0,0
64066,-83.3333333333333,4,2,4,85,0,0
67916,-80,4,2,4,85,0,0
68181,-76.9230769230769,4,2,2,95,0,1
81455,-71.4285714285714,4,2,2,95,0,1
81721,-76.9230769230769,4,2,2,95,0,1
85040,-76.9230769230769,4,2,2,95,0,0
85172,-76.9230769230769,4,2,2,100,0,1
102163,-90.9090909090909,4,2,1,80,0,0
110659,-90.9090909090909,4,2,20,80,0,0
110792,-90.9090909090909,4,2,1,80,0,0
117031,-90.9090909090909,4,2,1,50,0,0
118889,-83.3333333333333,4,2,1,80,0,0
119155,-86.9565217391304,4,2,2,90,0,1
119287,-86.9565217391304,4,2,2,90,0,0
123402,-83.3333333333333,4,2,2,90,0,0
124332,-86.9565217391304,4,2,2,90,0,0
134022,-95.2380952380952,4,2,2,50,0,0
136146,-90.9090909090909,4,2,10,75,0,0
136278,-90.9090909090909,4,2,3,75,0,0
140393,-90.9090909090909,4,2,10,75,0,0
140526,-90.9090909090909,4,2,3,75,0,0
144641,-90.9090909090909,4,2,10,75,0,0
144774,-90.9090909090909,4,2,3,75,0,0
148889,-90.9090909090909,4,2,10,75,0,0
149022,-90.9090909090909,4,2,3,75,0,0
151809,-100,4,2,3,70,0,0
152340,-111.111111111111,4,2,3,60,0,0
152871,-125,4,2,3,50,0,0
153137,-83.3333333333333,4,2,11,85,0,0
153270,-83.3333333333333,4,2,4,85,0,0
157385,-83.3333333333333,4,2,11,85,0,0
157517,-83.3333333333333,4,2,4,85,0,0
161632,-83.3333333333333,4,2,11,85,0,0
161765,-83.3333333333333,4,2,4,85,0,0
164818,-76.9230769230769,4,2,4,85,0,0
165349,-83.3333333333333,4,2,4,85,0,0
165880,-83.3333333333333,4,2,11,85,0,0
166013,-83.3333333333333,4,2,4,85,0,0
170128,-142.857142857143,4,2,5,75,0,0
170659,-142.857142857143,4,2,5,10,0,0
170924,-142.857142857143,4,2,5,40,0,0
171721,-142.857142857143,4,2,5,40,0,0
173048,-142.857142857143,4,2,5,40,0,0
174243,-166.666666666667,4,2,5,40,0,0
175969,-166.666666666667,4,2,5,40,0,0
177562,-166.666666666667,4,2,5,40,0,0
178624,-142.857142857143,4,2,5,40,0,0
178889,-142.857142857143,4,2,5,10,0,0
179155,-142.857142857143,4,2,5,40,0,0
179951,-142.857142857143,4,2,5,10,0,0
180217,-142.857142857143,4,2,5,40,0,0
181544,-142.857142857143,4,2,5,10,0,0
181809,-142.857142857143,4,2,5,40,0,0
182075,-142.857142857143,4,2,5,10,0,0
182340,-142.857142857143,4,2,5,40,0,0
183270,-142.857142857143,4,2,5,10,0,0
183402,-142.857142857143,4,2,5,40,0,0
184464,-142.857142857143,4,2,5,40,0,0
186057,-1000,4,2,5,40,0,0
186986,-1000,4,2,5,10,0,0
187119,-86.9565217391304,4,2,6,80,0,0
204110,-86.9565217391304,4,2,6,85,0,0

[Colours]
Combo1 : 50,124,255
Combo2 : 46,73,142
Combo3 : 244,0,87
SliderBorder : 70,53,140
SliderTrackOverride : 104,76,225

[HitObjects]
174,331,217,5,0,3:0:0:0:
34,229,482,2,0,P|41:292|49:295,1,52.4999983978272,2|0,0:0|0:0,0:0:0:0:
103,366,747,1,0,3:0:0:0:
95,356,880,2,0,L|103:257,1,52.4999983978272,2|0,0:0|0:0,0:0:0:0:
60,153,1146,6,0,B|67:162|67:162|208:152,1,104.999996795654,2|0,3:2|0:0,0:0:0:0:
166,161,1544,2,0,B|138:206|138:206|181:298,1,104.999996795654,2|2,3:2|0:0,0:0:0:0:
290,217,1942,1,0,3:0:0:0:
281,207,2075,2,0,L|180:214,1,52.4999983978272,2|2,0:0|0:0,0:0:0:0:
336,284,2340,5,0,3:0:0:0:
241,131,2606,2,0,L|249:32,1,52.4999983978272,2|0,0:0|0:0,0:0:0:0:
346,25,2871,1,2,3:2:0:0:
337,15,3004,2,0,P|321:38|337:79,1,52.4999983978272,2|0,0:0|0:0,0:0:0:0:
468,175,3270,6,0,B|409:162|428:233|348:205,1,110.000003356934,2|0,3:0|0:0,0:0:0:0:
365,206,3668,2,0,P|356:196|433:127,1,104.999996795654,2|2,3:2|0:0,0:0:0:0:
455,96,4066,1,0,3:0:0:0:
455,96,4199,1,2,0:0:0:0:
481,254,4464,5,0,3:0:0:0:
331,364,4730,2,0,P|353:305|372:305,1,52.4999983978272,2|0,0:0|0:0,0:0:0:0:
399,211,4995,1,0,3:0:0:0:
407,221,5128,2,0,L|399:320,1,52.4999983978272,2|0,0:0|0:0,0:0:0:0:
290,248,5393,6,0,B|268:201|268:201|327:107,1,104.999996795654,2|0,3:2|0:0,0:0:0:0:
302,150,5792,2,0,L|105:163,1,104.999996795654,2|2,3:2|2:0,0:0:0:0:
85,169,6190,1,0,3:0:0:0:
76,178,6323,2,0,P|92:191|143:160,1,52.4999983978272,2|2,0:0|0:0,0:0:0:0:
150,90,6588,5,0,3:0:0:0:
191,237,6854,2,0,L|183:337,1,52.4999983978272,2|0,0:0|0:0,0:0:0:0:
122,368,7119,1,2,3:2:0:0:
109,373,7252,2,0,P|131:314|150:314,1,52.4999983978272,2|0,0:0|0:0,0:0:0:0:
271,242,7517,6,0,L|256:442,1,110.000003356934,2|0,3:0|0:0,0:0:0:0:
258,358,7916,2,0,P|263:364|327:350,1,52.4999983978272,2|0,3:2|0:0,0:0:0:0:
363,292,8181,2,0,B|345:277|345:277|350:314,1,52.4999983978272,2|0,0:0|3:0,0:0:0:0:
511,335,8447,1,2,0:0:0:0:
366,201,8712,5,4,3:1:0:0:
429,382,8978,2,0,L|437:282,1,52.4999983978272,2|0,0:0|0:0,0:0:0:0:
468,227,9243,1,2,3:2:0:0:
475,238,9376,2,0,P|427:248|422:243,1,52.4999983978272,2|0,0:0|0:0,0:0:0:0:
303,153,9641,6,0,L|318:-47,1,104.999996795654,2|0,3:2|0:0,0:0:0:0:
317,46,10040,2,0,P|349:94|333:124,1,52.4999983978272,2|0,3:2|0:0,0:0:0:0:
446,0,10305,2,0,L|345:7,1,52.4999983978272,2|0,0:0|3:0,0:0:0:0:
502,142,10570,5,2,0:0:0:0:
492,152,10703,2,0,B|470:105|470:105|530:8,1,104.999996795654,2|0,0:0|0:0,0:0:0:0:
446,0,11101,1,2,0:0:0:0:
303,153,11367,1,2,3:2:0:0:
310,166,11500,2,0,L|411:159,1,52.4999983978272,2|0,0:0|0:0,0:0:0:0:
512,251,11765,6,0,B|453:238|472:309|392:281,1,110.000003356934,2|0,3:0|0:0,0:0:0:0:
406,282,12163,2,0,P|403:279|435:214,1,52.4999983978272,2|0,3:2|0:0,0:0:0:0:
439,131,12429,2,0,B|460:147|460:147|416:190,1,52.4999983978272,2|0,0:0|3:0,0:0:0:0:
348,84,12694,1,2,0:0:0:0:
237,200,12960,5,0,3:0:0:0:
287,369,13225,2,0,P|290:365|262:291,1,52.4999983978272,2|0,0:0|0:0,0:0:0:0:
165,270,13491,1,2,3:2:0:0:
172,283,13624,2,0,L|273:276,1,52.4999983978272,2|0,0:0|0:0,0:0:0:0:
328,196,13889,6,0,B|283:224|283:224|192:178,1,104.999996795654,2|0,3:2|0:0,0:0:0:0:
232,195,14287,2,0,P|227:180|263:139,1,52.4999983978272,2|0,3:2|0:0,0:0:0:0:
183,42,14553,2,0,L|176:139,1,52.4999983978272,2|0,0:0|3:0,0:0:0:0:
101,208,14818,1,2,0:0:0:0:
14,13,15084,5,2,3:2:0:0:
24,4,15217,2,0,P|30:61|16:72,1,55.0000016784668,2|0,0:0|0:0,0:0:0:0:
19,267,15482,2,0,L|27:167,1,55.0000016784668,2|0,0:0|3:0,0:0:0:0:
84,129,15747,2,0,L|-17:136,1,55.0000016784668,2|0,0:0|0:0,0:0:0:0:
19,267,16013,6,0,B|78:254|59:325|139:297,1,110.000003356934,2|0,3:2|0:0,0:0:0:0:
125,298,16411,2,0,P|128:295|89:231,1,55.0000016784668,2|0,3:2|0:0,0:0:0:0:
192,164,16677,2,0,B|174:149|174:149|180:191,1,55.0000016784668,2|0,0:0|3:0,0:0:0:0:
326,332,16942,1,2,0:0:0:0:
284,368,17075,1,2,0:0:0:0:
238,342,17208,6,0,L|253:137,1,115.000002193451,12|0,3:1|0:0,0:0:0:0:
215,119,17606,1,0,0:0:0:0:
201,113,17739,2,0,P|196:117|222:178,1,57.5000010967255,8|0,3:2|0:0,0:0:0:0:
330,211,18004,5,0,0:0:0:0:
325,195,18137,2,0,B|385:178|368:253|450:221,1,115.000002193451,0|0,3:0|0:0,0:0:0:0:
477,137,18535,2,0,P|406:136|398:115,1,57.5000010967255,2|0,3:1|0:0,0:0:0:0:
283,79,18800,1,10,0:0:0:0:
360,56,18933,2,0,L|352:158,1,57.5000010967255,2|0,3:1|0:0,0:0:0:0:
416,331,19199,6,0,B|390:279|390:279|439:205,1,115.000002193451,2|0,0:1|0:0,0:0:0:0:
428,228,19597,2,0,P|467:277|455:303,1,57.5000010967255,0|0,0:0|0:0,0:0:0:0:
330,325,19863,6,0,B|270:308|287:383|205:351,1,115.000002193451,8|0,3:2|0:0,0:0:0:0:
101,286,20261,2,0,P|100:274|178:321,1,115.000002193451,0|0,3:0|0:0,0:0:0:0:
185,235,20659,2,0,L|177:337,1,57.5000010967255,0|0,3:0|0:0,0:0:0:0:
46,343,20924,1,8,0:0:0:0:
4,97,21190,6,0,B|27:84|27:84|17:131,1,57.5000010967255,2|0,0:0|0:0,0:0:0:0:
177,42,21455,1,10,3:1:0:0:
102,63,21588,2,0,P|93:47|153:14,1,59.9999981689454,2|0,0:0|0:0,0:0:0:0:
303,110,21854,2,0,L|297:211,1,59.9999981689454,2|8,0:0|3:2,0:0:0:0:
222,165,22120,2,0,L|228:64,1,59.9999981689454,2|0,0:0|0:0,0:0:0:0:
360,55,22385,6,0,B|420:38|403:113|485:81,1,115.000002193451,2|0,3:1|0:0,0:0:0:0:
472,83,22783,2,0,P|475:80|431:18,1,57.5000010967255,0|0,3:0|0:0,0:0:0:0:
377,175,23048,6,0,B|400:162|400:162|390:209,1,57.5000010967255,10|0,0:0|3:0,0:0:0:0:
495,321,23314,1,2,0:0:0:0:
430,367,23447,2,0,B|404:315|404:315|453:241,1,115.000002193451,2|0,0:0|0:0,0:0:0:0:
431,261,23845,2,0,P|387:274|361:245,1,57.5000010967255,0|0,0:0|0:0,0:0:0:0:
162,337,24110,6,0,B|222:320|205:395|287:363,1,115.000002193451,8|0,3:2|0:0,0:0:0:0:
302,264,24509,1,0,3:0:0:0:
294,260,24641,2,0,P|280:260|292:312,1,57.5000010967255,10|8,0:1|0:0,0:0:0:0:
103,223,24907,1,8,3:2:0:0:
132,191,25040,1,0,0:0:0:0:
172,207,25172,2,0,P|161:281|147:284,1,57.5000010967255,10|0,0:0|3:0,0:0:0:0:
90,369,25438,1,4,0:3:0:0:
33,164,25703,6,0,B|7:112|7:112|56:38,1,115.000002193451,10|0,3:1|0:0,0:0:0:0:
147,99,26101,1,0,0:0:0:0:
155,114,26234,2,0,L|73:119,1,57.5000010967255,8|0,3:2|0:0,0:0:0:0:
35,258,26500,5,0,0:0:0:0:
25,244,26632,2,0,B|85:227|68:302|150:270,1,115.000002193451,0|0,3:0|0:0,0:0:0:0:
199,203,27031,2,0,B|181:188|181:188|187:230,1,57.5000010967255,2|0,3:1|0:0,0:0:0:0:
310,371,27296,1,10,0:0:0:0:
252,315,27429,2,0,L|259:212,1,57.5000010967255,2|0,3:1|0:0,0:0:0:0:
327,96,27694,6,0,P|315:95|354:183,1,115.000002193451,2|0,0:0|0:0,0:0:0:0:
276,181,28093,2,0,L|358:176,1,57.5000010967255,0|0,0:0|0:0,0:0:0:0:
500,125,28358,6,0,B|451:157|451:157|385:122,1,115.000002193451,8|0,3:2|0:0,0:0:0:0:
341,33,28756,1,0,3:0:0:0:
331,39,28889,2,0,L|324:142,1,57.5000010967255,8|8,0:1|0:0,0:0:0:0:
397,239,29155,1,8,3:2:0:0:
359,258,29287,1,0,0:0:0:0:
327,229,29420,2,0,P|324:224|373:171,1,57.5000010967255,8|0,0:0|3:0,0:0:0:0:
412,317,29686,6,0,L|405:420,1,57.5000010967255,2|0,0:0|0:0,0:0:0:0:
290,312,29951,1,10,3:1:0:0:
283,324,30084,2,0,P|343:334|352:324,1,57.5000010967255,2|0,0:0|0:0,0:0:0:0:
250,168,30349,2,0,L|151:174,1,57.5000010967255,2|8,0:0|3:2,0:0:0:0:
187,251,30615,2,0,L|285:244,1,57.5000010967255,2|0,0:0|0:0,0:0:0:0:
147,107,30880,6,0,B|87:90|104:165|22:133,1,115.000002193451,2|0,3:1|0:0,0:0:0:0:
35,135,31278,2,0,B|22:108|22:108|48:69,1,57.5000010967255,0|0,3:0|0:0,0:0:0:0:
145,19,31544,6,0,L|46:25,1,57.5000010967255,10|0,0:0|3:0,0:0:0:0:
227,169,31809,1,2,0:0:0:0:
209,179,31942,1,2,0:0:0:0:
193,171,32075,6,0,B|171:123|171:123|213:54,1,104.999996795654,0|0,3:0|0:0,0:0:0:0:
279,63,32473,1,0,0:0:0:0:
274,57,32606,2,0,L|281:-46,2,52.4999983978272,0|0|0,3:0|0:0|0:0,0:0:0:0:
351,35,33004,5,0,3:0:0:0:
360,26,33137,2,0,P|381:74|359:95,1,52.4999983978272,10|8,0:1|0:1,0:0:0:0:
498,179,33402,2,0,B|484:190|484:190|491:136,1,52.4999983978272,0|8,3:0|0:1,0:0:0:0:
355,142,33668,1,8,0:1:0:0:
361,149,33801,2,0,L|459:142,2,52.4999983978272,0|8|0,3:0|0:1|0:0,0:0:0:0:
201,189,34199,6,0,B|247:219|247:219|353:163,1,110.000003356934,14|2,0:1|0:0,0:0:0:0:
270,86,34597,1,0,0:0:0:0:
262,78,34730,2,0,P|249:123|285:151,1,55.0000016784668,10|0,0:0|0:0,0:0:0:0:
367,228,34995,5,2,0:0:0:0:
353,248,35128,2,0,B|412:235|393:306|473:278,1,110.000003356934,2|0,0:0|0:0,0:0:0:0:
512,163,35526,1,0,0:0:0:0:
493,151,35659,1,0,0:0:0:0:
471,157,35792,2,0,P|460:210|477:220,1,55.0000016784668,8|0,0:0|0:0,0:0:0:0:
406,80,36057,2,0,B|440:75|440:75|427:91,1,55.0000016784668,0|0,0:0|0:0,0:0:0:0:
309,132,36323,5,8,0:1:0:0:
300,138,36455,2,0,L|293:241,2,55.0000016784668,0|0|0,0:0|0:0|0:0,0:0:0:0:
258,23,36854,2,0,P|252:72|295:93,1,55.0000016784668,8|0,0:0|0:0,0:0:0:0:
330,55,37119,1,0,0:0:0:0:
176,92,37385,6,0,B|117:79|136:150|56:122,1,110.000003356934,10|0,0:1|0:0,0:0:0:0:
14,45,37783,1,0,0:0:0:0:
24,39,37916,2,0,P|77:66|69:88,1,55.0000016784668,8|0,0:0|0:0,0:0:0:0:
148,165,38181,2,0,L|141:268,1,55.0000016784668,10|0,0:1|0:0,0:0:0:0:
90,376,38447,6,0,B|64:327|64:327|131:227,1,110.000003356934,14|2,0:1|0:0,0:0:0:0:
203,319,38845,1,0,0:0:0:0:
211,328,38978,2,0,L|129:333,1,55.0000016784668,10|0,0:0|0:0,0:0:0:0:
283,364,39243,5,2,0:0:0:0:
296,378,39376,2,0,P|315:366|254:281,1,110.000003356934,2|0,0:0|0:0,0:0:0:0:
224,225,39774,1,0,0:0:0:0:
242,238,39907,1,0,0:0:0:0:
262,227,40040,2,0,P|276:190|228:159,1,55.0000016784668,8|0,0:0|0:0,0:0:0:0:
200,96,40305,2,0,L|193:199,1,55.0000016784668,0|0,0:0|0:0,0:0:0:0:
86,46,40570,5,8,0:1:0:0:
95,36,40703,2,0,P|158:48|166:69,2,55.0000016784668,0|0|0,0:0|0:0|0:0,0:0:0:0:
98,165,41101,2,0,B|118:146|118:146|67:83,1,55.0000016784668,8|0,0:0|0:0,0:0:0:0:
22,139,41367,1,0,0:0:0:0:
7,279,41632,6,0,B|66:292|47:221|127:249,1,110.000003356934,10|0,0:1|0:0,0:0:0:0:
114,362,42031,1,0,0:0:0:0:
104,370,42163,2,0,P|120:315|160:323,1,55.0000016784668,8|0,0:0|0:0,0:0:0:0:
193,260,42429,2,0,B|210:271|210:271|176:276,1,55.0000016784668,8|0,0:1|0:0,0:0:0:0:
331,351,42694,6,0,P|301:369|225:284,1,110.000003356934,14|0,0:1|0:0,0:0:0:0:
285,247,43092,1,0,0:0:0:0:
294,242,43225,2,0,P|338:283|324:316,1,55.0000016784668,8|0,0:0|0:0,0:0:0:0:
230,188,43491,6,0,L|239:54,1,110.000003356934,2|8,0:0|0:1,0:0:0:0:
233,67,43889,1,0,0:0:0:0:
229,56,44022,2,0,P|201:103|225:127,1,55.0000016784668,0|0,0:0|0:0,0:0:0:0:
100,166,44287,2,0,L|198:159,1,55.0000016784668,8|0,0:0|0:0,0:0:0:0:
230,188,44553,1,0,0:0:0:0:
38,117,44818,6,0,B|7:163|7:163|65:269,1,110.000003356934,10|0,0:1|0:0,0:0:0:0:
94,294,45217,1,0,0:0:0:0:
103,301,45349,2,0,L|110:198,1,55.0000016784668,8|0,0:0|0:0,0:0:0:0:
0,349,45615,2,0,P|72:336|74:325,1,55.0000016784668,0|0,0:0|0:0,0:0:0:0:
186,251,45880,6,0,L|177:385,1,110.000003356934,10|0,0:1|0:0,0:0:0:0:
282,278,46278,1,0,0:0:0:0:
285,266,46411,2,0,B|265:256|265:256|270:289,1,55.0000016784668,8|0,0:0|0:0,0:0:0:0:
379,190,46677,2,0,P|306:183|299:168,1,55.0000016784668,8|0,0:1|0:0,0:0:0:0:
341,324,46942,6,0,B|400:311|381:382|461:354,1,110.000003356934,14|0,0:1|0:0,0:0:0:0:
468,242,47340,1,0,0:0:0:0:
459,233,47473,2,0,P|448:286|465:296,1,55.0000016784668,8|0,0:0|0:0,0:0:0:0:
449,154,47739,2,0,L|456:51,1,55.0000016784668,0|0,0:0|0:0,0:0:0:0:
293,18,48004,5,8,0:1:0:0:
286,26,48137,2,0,P|304:85|312:86,2,55.0000016784668,0|0|0,0:0|0:0|0:0,0:0:0:0:
385,64,48535,2,0,B|396:48|396:48|350:54,1,55.0000016784668,8|0,0:0|0:0,0:0:0:0:
261,151,48801,2,0,B|283:168|283:168|327:140,1,55.0000016784668,0|0,0:0|0:0,0:0:0:0:
288,76,49066,1,8,0:1:0:0:
54,142,49332,6,0,B|88:137|88:137|75:153,1,55.0000016784668,2|0,0:0|0:0,0:0:0:0:
172,359,49597,2,0,B|160:334|160:334|198:276,1,55.0000016784668,10|0,0:0|0:0,0:0:0:0:
189,185,49863,6,0,P|127:190|115:179,1,50,2|0,0:0|0:0,0:0:0:0:
49,268,50128,2,0,L|147:261,1,50,10|0,0:1|0:0,0:0:0:0:
175,311,50393,6,0,P|161:258|151:257,1,44.999998626709,2|0,0:0|0:0,0:0:0:0:
99,265,50659,2,0,P|113:318|123:319,1,44.999998626709,10|0,0:0|0:0,0:0:0:0:
23,359,50924,6,0,P|25:362|83:352,1,40,10|0,0:1|0:0,0:0:0:0:
254,316,51190,6,0,B|316:299|298:390|384:346,1,119.999996337891,14|2,0:1|0:0,0:0:0:0:
387,237,51588,1,0,0:0:0:0:
377,226,51721,2,0,P|364:276|370:282,1,59.9999981689454,10|0,0:0|0:0,0:0:0:0:
512,307,51986,5,2,0:0:0:0:
459,363,52119,2,0,L|468:229,1,119.999996337891,2|0,0:0|0:0,0:0:0:0:
441,103,52518,1,0,0:0:0:0:
427,123,52650,1,0,0:0:0:0:
432,147,52783,2,0,P|499:147|505:135,1,59.9999981689454,8|0,0:0|0:0,0:0:0:0:
384,47,53048,2,0,L|286:54,1,59.9999981689454,0|0,0:0|0:0,0:0:0:0:
208,183,53314,5,8,0:1:0:0:
215,190,53447,2,0,P|290:159|290:139,2,59.9999981689454,0|0|0,0:0|0:0|0:0,0:0:0:0:
230,97,53845,2,0,B|250:80|250:80|243:123,1,59.9999981689454,8|0,0:0|0:0,0:0:0:0:
177,37,54110,1,0,0:0:0:0:
26,166,54376,6,0,B|76:199|76:199|188:140,1,119.999996337891,10|0,0:1|0:0,0:0:0:0:
101,65,54774,1,0,0:0:0:0:
91,54,54907,2,0,P|97:118|123:118,1,59.9999981689454,8|0,0:0|0:0,0:0:0:0:
23,226,55172,2,0,L|30:107,1,59.9999981689454,10|0,0:1|0:0,0:0:0:0:
106,308,55438,6,0,P|-3:322|-4:305,1,119.999996337891,14|2,0:1|0:0,0:0:0:0:
13,237,55836,1,0,0:0:0:0:
23,226,55969,2,0,P|95:263|93:283,1,59.9999981689454,10|0,0:0|0:0,0:0:0:0:
187,348,56234,5,2,0:0:0:0:
170,372,56367,2,0,B|142:318|142:318|209:222,1,119.999996337891,2|0,0:0|0:0,0:0:0:0:
295,241,56765,1,0,0:0:0:0:
310,260,56898,1,0,0:0:0:0:
303,283,57031,2,0,P|241:293|224:259,1,59.9999981689454,8|0,0:0|0:0,0:0:0:0:
149,192,57296,2,0,L|156:73,1,59.9999981689454,0|0,0:0|0:0,0:0:0:0:
111,12,57562,5,8,0:1:0:0:
103,17,57694,2,0,P|116:84|134:87,2,59.9999981689454,0|0|0,0:0|0:0|0:0,0:0:0:0:
203,67,58093,2,0,B|216:49|216:49|180:55,1,59.9999981689454,8|0,0:0|0:0,0:0:0:0:
153,132,58358,1,0,0:0:0:0:
294,51,58624,6,0,B|356:34|338:125|424:81,1,119.999996337891,10|0,0:1|0:0,0:0:0:0:
472,19,59022,1,0,0:0:0:0:
464,6,59155,2,0,L|366:13,1,59.9999981689454,8|0,0:0|0:0,0:0:0:0:
326,125,59420,2,0,P|339:192|374:188,1,59.9999981689454,8|0,0:1|0:0,0:0:0:0:
451,381,59686,6,0,L|460:247,1,119.999996337891,14|0,0:1|0:0,0:0:0:0:
494,189,60085,1,0,0:0:0:0:
491,177,60217,2,0,B|513:163|513:163|507:198,1,59.9999981689454,8|0,0:0|0:0,0:0:0:0:
401,318,60482,6,0,B|339:301|357:392|271:348,1,119.999996337891,2|8,0:0|0:1,0:0:0:0:
288,352,60880,1,0,0:0:0:0:
281,343,61013,2,0,P|302:278|326:279,1,59.9999981689454,0|0,0:0|0:0,0:0:0:0:
388,223,61278,2,0,B|362:240|362:240|318:215,1,59.9999981689454,8|0,0:0|0:0,0:0:0:0:
162,161,61544,5,0,0:0:0:0:
152,156,61677,1,0,0:0:0:0:
141,161,61809,2,0,B|107:211|107:211|164:314,1,119.999996337891,10|0,0:1|0:0,0:0:0:0:
194,366,62208,1,0,0:0:0:0:
184,375,62340,2,0,P|178:377|185:337,1,59.9999981689454,8|0,0:0|0:0,0:0:0:0:
275,176,62606,5,0,0:0:0:0:
280,166,62739,1,0,0:0:0:0:
285,156,62871,2,0,B|243:131|243:131|262:247,1,129.999994049073,10|0,0:1|0:0,0:0:0:0:
215,282,63270,1,0,0:0:0:0:
224,293,63402,2,0,L|322:286,1,59.9999981689454,8|0,0:0|0:0,0:0:0:0:
512,348,63668,2,0,P|509:353|441:321,1,59.9999981689454,8|0,0:1|0:0,0:0:0:0:
342,232,63933,6,0,L|333:366,1,119.999996337891,14|0,0:1|0:0,0:0:0:0:
429,249,64332,1,0,0:0:0:0:
420,237,64464,2,0,L|413:356,1,59.9999981689454,10|0,0:0|0:0,0:0:0:0:
278,185,64730,2,0,B|272:151|272:151|294:165,1,59.9999981689454,0|0,0:0|0:0,0:0:0:0:
418,111,64995,5,10,0:1:0:0:
412,104,65128,2,0,L|314:111,2,59.9999981689454,0|0|0,0:0|0:0|0:0,0:0:0:0:
474,168,65526,2,0,P|424:191|400:160,1,59.9999981689454,10|0,0:0|0:0,0:0:0:0:
290,29,65792,5,0,0:0:0:0:
296,37,65924,1,0,0:0:0:0:
302,45,66057,2,0,L|293:179,1,119.999996337891,10|0,0:1|0:0,0:0:0:0:
356,259,66455,1,0,0:0:0:0:
348,272,66588,2,0,B|334:245|334:245|375:190,1,59.9999981689454,10|0,0:0|0:0,0:0:0:0:
203,367,66854,5,0,0:0:0:0:
191,376,66986,1,0,0:0:0:0:
177,371,67119,2,0,P|169:273|246:286,1,119.999996337891,10|2,0:0|0:0,0:0:0:0:
228,213,67517,1,8,0:1:0:0:
179,149,67650,2,0,B|174:156|174:156|65:162,1,59.9999981689454,10|0,0:0|0:0,0:0:0:0:
48,313,67916,2,0,P|116:312|123:290,1,62.5,10|8,0:0|0:0,0:0:0:0:
259,138,68181,6,0,L|250:15,2,64.9999970245363,14|0|0,0:1|0:0|0:0,0:0:0:0:
328,233,68579,1,0,0:0:0:0:
317,248,68712,2,0,P|336:182|364:183,1,64.9999970245363,8|0,0:0|0:0,0:0:0:0:
400,105,68978,2,0,L|302:112,1,64.9999970245363,2|0,0:0|0:0,0:0:0:0:
429,322,69243,6,0,B|376:361|376:361|289:309,1,129.999994049073,10|0,0:1|0:0,0:0:0:0:
242,262,69641,1,0,0:0:0:0:
252,252,69774,2,0,L|350:245,1,64.9999970245363,8|0,0:0|0:0,0:0:0:0:
205,350,70040,2,0,B|186:367|186:367|197:317,1,64.9999970245363,0|0,0:0|0:0,0:0:0:0:
185,204,70305,5,8,0:1:0:0:
177,199,70438,2,0,P|181:272|211:272,2,64.9999970245363,0|0|0,0:0|0:0|0:0,0:0:0:0:
72,152,70836,2,0,B|116:146|116:146|81:187,1,64.9999970245363,8|0,0:0|0:0,0:0:0:0:
250,103,71101,6,0,P|173:101|166:72,1,64.9999970245363,2|0,0:0|0:0,0:0:0:0:
82,7,71367,2,0,L|73:130,1,64.9999970245363,10|0,0:1|0:0,0:0:0:0:
7,156,71632,2,0,L|108:149,1,64.9999970245363,2|0,0:0|0:0,0:0:0:0:
61,296,71898,2,0,L|70:173,1,64.9999970245363,10|0,0:0|0:0,0:0:0:0:
267,95,72163,5,2,0:0:0:0:
197,61,72296,2,0,P|207:127|232:126,1,64.9999970245363,2|8,0:0|0:1,0:0:0:0:
306,167,72562,2,0,P|305:182|303:174,1,64.9999970245363,0|0,0:0|0:0,0:0:0:0:
330,45,72827,5,0,0:0:0:0:
336,53,72960,2,0,B|352:59|352:59|381:32|381:32|517:15,2,129.999994049073,8|0|8,0:0|0:0|0:1,0:0:0:0:
417,151,73624,1,0,0:0:0:0:
410,145,73756,2,0,B|415:106|415:106|448:145,1,64.9999970245363,0|0,0:0|0:0,0:0:0:0:
461,360,74022,6,0,B|448:329|448:329|494:260,1,64.9999970245363,8|0,0:0|0:0,0:0:0:0:
382,223,74287,2,0,B|389:231|389:231|485:224,1,64.9999970245363,0|0,0:0|0:0,0:0:0:0:
263,356,74553,5,8,0:1:0:0:
269,363,74686,2,0,P|338:347|337:308,2,64.9999970245363,0|0|0,0:0|0:0|0:0,0:0:0:0:
287,263,75084,2,0,B|305:245|305:245|293:347,1,64.9999970245363,8|0,0:0|0:0,0:0:0:0:
183,350,75349,5,0,0:0:0:0:
138,374,75482,1,0,0:0:0:0:
104,335,75615,2,0,L|113:212,1,64.9999970245363,10|0,0:1|0:0,0:0:0:0:
48,163,75880,1,0,0:0:0:0:
38,145,76013,2,0,B|0:198|0:198|49:291,1,129.999994049073,2|0,0:0|0:0,0:0:0:0:
183,350,76411,2,0,L|192:227,1,64.9999970245363,10|0,0:1|0:0,0:0:0:0:
97,59,76677,6,0,L|-1:66,2,64.9999970245363,10|0|0,0:1|0:0|0:0,0:0:0:0:
138,176,77075,1,0,0:0:0:0:
127,191,77208,2,0,P|144:125|174:126,1,64.9999970245363,10|0,0:0|0:0,0:0:0:0:
243,22,77473,6,0,B|212:0|212:0|194:148,1,129.999994049073,2|8,0:0|0:1,0:0:0:0:
205,100,77871,1,0,0:0:0:0:
209,109,78004,2,0,P|279:115|296:71,1,64.9999970245363,0|0,0:0|0:0,0:0:0:0:
469,26,78270,2,0,B|463:34|463:34|367:41,1,64.9999970245363,10|0,0:0|0:0,0:0:0:0:
313,189,78535,6,0,P|402:128|416:152,1,129.999994049073,2|8,0:0|0:1,0:0:0:0:
394,125,78933,1,0,0:0:0:0:
402,136,79066,2,0,P|387:207|364:211,1,64.9999970245363,0|0,0:0|0:0,0:0:0:0:
298,375,79332,2,0,P|315:309|345:310,1,64.9999970245363,8|0,0:0|0:0,0:0:0:0:
475,228,79597,5,0,0:0:0:0:
509,263,79730,1,0,0:0:0:0:
488,308,79863,2,0,B|419:289|439:389|346:340,1,129.999994049073,10|0,0:1|0:0,0:0:0:0:
206,239,80261,1,0,0:0:0:0:
193,253,80393,2,0,L|291:246,1,64.9999970245363,10|0,0:0|0:0,0:0:0:0:
99,111,80659,2,0,P|101:182|131:184,1,64.9999970245363,2|0,0:0|0:0,0:0:0:0:
124,365,80924,5,8,0:1:0:0:
117,357,81057,2,0,L|126:234,2,64.9999970245363,0|0|0,0:0|0:0|0:0,0:0:0:0:
16,250,81455,6,0,B|58:243|58:243|9:297,1,69.9999978637696,10|0,0:0|0:0,0:0:0:0:
207,363,81721,2,0,P|214:345|105:328,1,129.999994049073,2|8,0:0|0:1,0:0:0:0:
134,285,82119,1,0,0:0:0:0:
122,292,82252,2,0,L|113:415,1,64.9999970245363,0|0,0:0|0:0,0:0:0:0:
211,144,82517,6,0,B|172:137|172:137|231:202,1,64.9999970245363,8|0,0:0|0:0,0:0:0:0:
227,275,82783,2,0,P|225:204|195:202,1,64.9999970245363,0|0,0:0|0:0,0:0:0:0:
100,100,83048,5,8,0:1:0:0:
92,106,83181,2,0,L|83:229,2,64.9999970245363,0|0|0,0:0|0:0|0:0,0:0:0:0:
21,31,83579,2,0,B|60:24|60:24|1:89,1,64.9999970245363,8|0,0:0|0:0,0:0:0:0:
211,144,83845,5,0,0:0:0:0:
235,101,83978,1,0,0:0:0:0:
205,62,84110,2,0,B|136:43|156:143|63:94,1,129.999994049073,10|0,0:1|0:0,0:0:0:0:
42,207,84509,1,0,0:0:0:0:
31,222,84642,2,0,P|48:156|78:157,1,64.9999970245363,8|0,0:0|0:0,0:0:0:0:
81,301,84907,2,0,L|72:424,1,64.9999970245363,8|0,0:1|0:0,0:0:0:0:
264,203,85172,6,0,P|273:207|264:193,1,32.4999985122681,14|0,0:1|0:0,0:0:0:0:
211,144,85305,2,0,B|173:197|173:197|222:290,1,129.999994049073,2|0,0:0|0:0,0:0:0:0:
81,301,85703,2,0,B|88:309|88:309|184:302,1,64.9999970245363,8|0,0:0|0:0,0:0:0:0:
356,339,85969,5,0,3:0:0:0:
322,376,86101,1,0,3:0:0:0:
277,353,86234,1,8,0:1:0:0:
273,346,86367,2,0,L|282:223,2,64.9999970245363,0|0|0,0:0|0:0|0:0,0:0:0:0:
378,351,86765,6,0,B|395:332|395:332|356:339,1,64.9999970245363,10|0,0:0|0:0,0:0:0:0:
260,117,87031,2,0,P|245:114|264:221,1,129.999994049073,2|8,0:0|0:1,0:0:0:0:
194,201,87429,1,0,0:0:0:0:
199,208,87562,2,0,L|297:201,1,64.9999970245363,0|0,0:0|0:0,0:0:0:0:
509,265,87827,2,0,P|436:262|430:241,1,64.9999970245363,8|0,0:0|0:0,0:0:0:0:
330,157,88093,5,0,3:0:0:0:
365,121,88225,1,0,3:0:0:0:
410,145,88358,2,0,L|401:268,2,64.9999970245363,10|0|0,0:1|0:0|0:0,0:0:0:0:
336,15,88756,1,0,0:0:0:0:
325,0,88889,2,0,P|338:76|369:74,1,64.9999970245363,8|0,0:0|0:0,0:0:0:0:
120,237,89155,5,0,3:0:0:0:
105,282,89287,1,0,3:0:0:0:
137,318,89420,2,0,P|199:225|139:219,1,129.999994049073,10|0,0:1|0:0,0:0:0:0:
57,162,89818,1,0,0:0:0:0:
44,171,89951,2,0,L|35:294,1,64.9999970245363,10|0,0:0|0:0,0:0:0:0:
260,117,90217,6,0,B|191:98|211:198|118:149,1,129.999994049073,2|8,0:0|0:1,0:0:0:0:
141,156,90615,1,0,0:0:0:0:
136,149,90747,2,0,P|177:82|196:92,1,64.9999970245363,0|0,0:0|0:0,0:0:0:0:
329,36,91013,2,0,B|308:19|308:19|321:100,1,64.9999970245363,8|0,0:0|0:0,0:0:0:0:
418,193,91278,5,0,3:0:0:0:
384,230,91410,1,0,3:0:0:0:
339,207,91543,1,8,0:1:0:0:
335,200,91677,2,0,L|344:77,2,64.9999970245363,0|0|0,0:0|0:0|0:0,0:0:0:0:
451,277,92075,2,0,P|455:284|453:267,1,64.9999970245363,8|0,0:0|0:0,0:0:0:0:
286,318,92340,5,0,3:0:0:0:
325,286,92473,1,0,3:0:0:0:
369,312,92606,2,0,P|363:387|333:401,2,64.9999970245363,10|0|0,0:1|0:0|0:0,0:0:0:0:
263,234,93004,1,0,0:0:0:0:
248,246,93137,2,0,L|119:255,1,64.9999970245363,8|0,0:0|0:0,0:0:0:0:
3,335,93402,2,0,P|75:333|78:314,1,64.9999970245363,8|0,0:1|0:0,0:0:0:0:
103,116,93668,6,0,P|88:113|107:220,1,129.999994049073,10|0,0:1|0:0,0:0:0:0:
118,298,94066,1,0,0:0:0:0:
103,285,94199,2,0,L|112:162,1,64.9999970245363,10|0,0:0|0:0,0:0:0:0:
173,75,94464,6,0,P|201:72|169:179,1,129.999994049073,2|8,0:0|0:1,0:0:0:0:
240,156,94862,1,0,0:0:0:0:
232,161,94995,2,0,L|103:170,1,64.9999970245363,0|0,0:0|0:0,0:0:0:0:
344,369,95261,2,0,P|345:290|313:275,1,64.9999970245363,8|0,0:0|0:0,0:0:0:0:
227,241,95526,5,0,3:0:0:0:
190,274,95659,1,0,3:0:0:0:
208,320,95792,1,8,0:1:0:0:
213,327,95924,2,0,L|342:318,2,64.9999970245363,0|0|0,0:0|0:0|0:0,0:0:0:0:
83,344,96323,2,0,P|160:341|164:324,1,64.9999970245363,8|0,0:0|0:0,0:0:0:0:
298,205,96588,5,0,3:0:0:0:
319,160,96721,1,0,3:0:0:0:
282,126,96854,2,0,B|213:104|230:205|138:153,1,129.999994049073,10|0,0:1|0:0,0:0:0:0:
126,54,97252,1,0,0:0:0:0:
138,39,97385,2,0,P|145:95|132:94,1,64.9999970245363,8|0,0:0|0:0,0:0:0:0:
15,144,97650,5,0,3:0:0:0:
50,106,97783,1,0,3:0:0:0:
95,129,97916,2,0,B|133:182|133:182|84:275,1,129.999994049073,10|0,0:1|0:0,0:0:0:0:
63,381,98314,1,0,0:0:0:0:
48,368,98447,2,0,L|57:245,1,64.9999970245363,10|0,0:0|0:0,0:0:0:0:
245,340,98712,6,0,B|192:379|192:379|105:327,1,129.999994049073,2|8,0:0|0:1,0:0:0:0:
134,338,99110,1,0,0:0:0:0:
132,330,99243,2,0,P|215:315|220:327,1,64.9999970245363,0|0,0:0|0:0,0:0:0:0:
380,332,99509,2,0,B|353:352|353:352|302:320,1,64.9999970245363,8|0,0:0|0:0,0:0:0:0:
175,213,99774,5,0,3:0:0:0:
204,171,99907,1,0,3:0:0:0:
252,188,100040,1,8,0:1:0:0:
257,194,100172,2,0,L|248:317,2,64.9999970245363,0|0|0,0:0|0:0|0:0,0:0:0:0:
252,107,100570,6,0,B|321:85|304:186|396:134,1,129.999994049073,8|0,0:0|0:0,0:0:0:0:
444,30,100969,1,0,0:0:0:0:
446,11,101101,2,0,P|377:74|409:92,1,129.999994049073,8|0,3:1|0:0,0:0:0:0:
377,227,101500,1,0,0:0:0:0:
362,212,101633,2,0,L|371:89,1,64.9999970245363,8|0,0:0|0:0,0:0:0:0:
499,99,101898,2,0,B|493:107|493:107|397:114,1,64.9999970245363,8|0,0:1|0:0,0:0:0:0:
231,35,102163,5,12,3:1:0:0:
200,241,102429,2,0,P|210:181|237:180,1,55.0000016784668,2|0,0:0|0:0,0:0:0:0:
281,100,102694,1,10,3:2:0:0:
273,111,102827,2,0,L|172:118,1,55.0000016784668,2|0,0:0|0:0,0:0:0:0:
64,59,103093,6,0,P|7:104|91:112,1,110.000003356934,2|0,3:2|0:0,0:0:0:0:
22,132,103491,2,0,B|81:119|62:190|142:162,1,110.000003356934,2|10,3:2|0:0,0:0:0:0:
152,50,103889,1,0,3:0:0:0:
146,37,104022,2,0,L|139:144,1,55.0000016784668,2|2,0:0|0:0,0:0:0:0:
272,229,104287,5,8,3:1:0:0:
137,357,104553,2,0,P|162:293|186:295,1,55.0000016784668,2|0,0:0|0:0,0:0:0:0:
207,182,104818,1,10,3:2:0:0:
197,191,104951,2,0,L|190:298,1,55.0000016784668,2|0,0:0|0:0,0:0:0:0:
368,296,105217,6,0,B|319:321|319:321|218:256,1,110.000003356934,2|0,3:0|0:0,0:0:0:0:
269,284,105615,2,0,L|276:177,1,55.0000016784668,2|0,3:2|0:0,0:0:0:0:
169,67,105880,1,10,0:0:0:0:
144,56,106013,1,0,3:0:0:0:
120,70,106146,2,0,P|119:130|153:136,1,55.0000016784668,2|0,0:0|0:0,0:0:0:0:
194,246,106411,5,8,3:1:0:0:
80,193,106677,2,0,B|84:198|84:198|174:192,1,55.0000016784668,2|0,0:0|0:0,0:0:0:0:
148,345,106942,1,8,3:2:0:0:
137,357,107075,2,0,P|162:293|186:295,1,55.0000016784668,2|0,0:0|0:0,0:0:0:0:
199,152,107340,6,0,B|168:198|168:198|226:304,1,110.000003356934,2|0,3:2|0:0,0:0:0:0:
200,252,107739,2,0,L|352:241,1,110.000003356934,2|10,3:2|0:0,0:0:0:0:
399,301,108137,1,0,3:0:0:0:
390,312,108270,2,0,B|367:328|367:328|316:297,1,55.0000016784668,2|2,0:0|0:0,0:0:0:0:
277,172,108535,5,8,3:1:0:0:
417,65,108801,2,0,L|409:170,1,55.0000016784668,2|0,0:0|0:0,0:0:0:0:
461,229,109066,1,10,3:2:0:0:
449,239,109199,2,0,P|475:181|487:183,1,55.0000016784668,2|0,0:0|0:0,0:0:0:0:
340,5,109464,6,0,L|329:167,1,110.000003356934,2|0,3:0|0:0,0:0:0:0:
336,124,109863,2,0,P|276:134|269:119,1,55.0000016784668,2|0,3:2|0:0,0:0:0:0:
106,104,110128,2,0,B|86:121|86:121|143:115,1,55.0000016784668,8|0,0:0|3:0,0:0:0:0:
260,18,110393,2,0,L|253:125,1,55.0000016784668,8|0,0:1|0:0,0:0:0:0:
284,227,110659,5,12,3:1:0:0:
180,12,110924,2,0,L|173:119,1,55.0000016784668,2|0,0:0|0:0,0:0:0:0:
219,180,111190,1,10,3:2:0:0:
208,187,111323,2,0,B|196:162|196:162|240:94,1,55.0000016784668,2|0,0:0|0:0,0:0:0:0:
364,233,111588,6,0,L|355:367,1,110.000003356934,2|0,3:2|0:0,0:0:0:0:
362,350,111986,2,0,P|405:304|396:294,1,55.0000016784668,2|0,3:2|0:0,0:0:0:0:
284,227,112252,2,0,L|279:295,1,55.0000016784668,10|0,0:0|3:0,0:0:0:0:
140,364,112517,5,2,0:0:0:0:
129,373,112650,2,0,B|103:324|103:324|170:224,1,110.000003356934,2|0,0:0|0:0,0:0:0:0:
175,213,113048,2,0,B|206:207|206:207|187:227,1,55.0000016784668,2|0,0:0|0:0,0:0:0:0:
55,195,113314,1,10,3:2:0:0:
63,187,113447,2,0,B|74:200|74:200|57:285,1,55.0000016784668,2|0,0:0|0:0,0:0:0:0:
190,72,113712,6,0,P|107:125|82:86,1,110.000003356934,2|0,3:0|0:0,0:0:0:0:
108,122,114110,2,0,L|115:15,1,55.0000016784668,2|0,3:2|0:0,0:0:0:0:
234,7,114376,1,10,0:0:0:0:
252,32,114509,1,0,3:0:0:0:
238,60,114641,2,0,P|175:55|173:36,1,55.0000016784668,2|0,0:0|0:0,0:0:0:0:
65,4,114907,5,8,3:1:0:0:
190,72,115172,2,0,L|183:179,1,55.0000016784668,2|0,0:0|0:0,0:0:0:0:
149,233,115438,1,10,3:2:0:0:
139,243,115570,2,0,P|151:187|181:186,1,55.0000016784668,2|0,0:0|0:0,0:0:0:0:
259,158,115836,6,0,B|318:145|299:216|379:188,1,110.000003356934,2|0,3:2|0:0,0:0:0:0:
364,189,116234,2,0,P|357:131|343:132,1,55.0000016784668,2|0,3:2|0:0,0:0:0:0:
295,7,116500,1,10,0:0:0:0:
277,32,116633,1,0,3:0:0:0:
291,60,116765,2,0,P|354:55|356:36,1,55.0000016784668,2|0,0:0|0:0,0:0:0:0:
490,29,117031,5,2,3:2:0:0:
493,16,117163,2,0,P|477:18|509:41,1,55.0000016784668,2|0,0:0|0:0,0:0:0:0:
458,266,117429,2,0,L|465:159,1,55.0000016784668,2|0,0:0|3:0,0:0:0:0:
411,135,117694,2,0,L|512:128,1,55.0000016784668,2|0,0:0|0:0,0:0:0:0:
458,266,117960,6,0,P|402:333|427:351,1,110.000003356934,2|0,3:2|0:0,0:0:0:0:
403,333,118358,2,0,P|456:344|465:336,1,55.0000016784668,2|0,3:2|0:0,0:0:0:0:
357,194,118624,2,0,L|256:201,1,55.0000016784668,2|0,0:0|3:0,0:0:0:0:
150,333,118889,1,2,0:0:0:0:
189,372,119022,1,2,0:0:0:0:
233,342,119155,6,0,B|264:293|264:293|214:198,1,115.000002193451,12|0,3:1|0:0,0:0:0:0:
173,169,119553,1,0,0:0:0:0:
163,178,119686,2,0,L|156:285,1,57.5000010967255,8|0,3:2|0:0,0:0:0:0:
63,369,119951,5,0,0:0:0:0:
47,376,120084,2,0,P|35:372|88:286,1,115.000002193451,0|0,3:0|0:0,0:0:0:0:
84,173,120482,2,0,L|77:280,1,57.5000010967255,2|0,3:1|0:0,0:0:0:0:
207,299,120747,1,10,0:0:0:0:
159,235,120880,2,0,L|166:128,1,57.5000010967255,2|0,3:1|0:0,0:0:0:0:
27,72,121146,6,0,B|-4:120|-4:120|36:199,1,115.000002193451,2|0,0:1|0:0,0:0:0:0:
27,177,121544,2,0,L|128:170,1,57.5000010967255,0|0,0:0|0:0,0:0:0:0:
227,132,121809,6,0,B|287:115|270:190|352:158,1,115.000002193451,8|0,3:2|0:0,0:0:0:0:
379,4,122207,2,0,P|367:3|406:91,1,115.000002193451,0|0,3:0|0:0,0:0:0:0:
327,86,122606,2,0,L|409:81,1,57.5000010967255,0|0,3:0|0:0,0:0:0:0:
246,12,122871,1,8,0:0:0:0:
331,165,123137,6,0,L|324:272,1,57.5000010967255,2|0,0:0|0:0,0:0:0:0:
471,345,123402,1,10,3:1:0:0:
395,363,123535,2,0,B|382:336|382:336|421:278,1,59.9999981689454,2|0,0:0|0:0,0:0:0:0:
248,217,123801,2,0,P|255:278|281:279,1,59.9999981689454,2|8,0:0|3:2,0:0:0:0:
323,275,124066,2,0,P|316:214|290:213,1,59.9999981689454,2|0,0:0|0:0,0:0:0:0:
189,328,124332,6,0,B|128:313|148:387|64:358,1,115.000002193451,2|0,3:1|0:0,0:0:0:0:
79,360,124730,2,0,P|60:322|112:293,1,57.5000010967255,0|0,3:0|0:0,0:0:0:0:
171,149,124995,6,0,B|192:131|192:131|183:174,1,57.5000010967255,10|0,0:0|3:0,0:0:0:0:
2,186,125261,1,2,0:0:0:0:
73,150,125393,2,0,P|110:240|83:245,1,115.000002193451,2|0,0:0|0:0,0:0:0:0:
126,226,125792,2,0,L|25:233,1,57.5000010967255,0|0,0:0|0:0,0:0:0:0:
239,369,126057,6,0,B|213:317|213:317|262:243,1,115.000002193451,8|0,3:2|0:0,0:0:0:0:
370,305,126455,1,0,3:0:0:0:
361,319,126588,2,0,L|279:324,1,57.5000010967255,10|8,0:1|0:0,0:0:0:0:
396,197,126854,1,8,3:2:0:0:
363,170,126986,1,0,0:0:0:0:
326,192,127119,2,0,P|320:198|358:258,1,57.5000010967255,10|0,0:0|3:0,0:0:0:0:
430,374,127385,1,4,0:3:0:0:
485,213,127650,6,0,B|511:161|511:161|462:87,1,115.000002193451,10|0,3:1|0:0,0:0:0:0:
375,156,128048,1,0,0:0:0:0:
363,170,128181,2,0,L|464:163,1,57.5000010967255,8|0,3:2|0:0,0:0:0:0:
485,34,128447,5,0,0:0:0:0:
474,21,128579,2,0,B|414:4|431:79|349:47,1,115.000002193451,0|0,3:0|0:0,0:0:0:0:
278,19,128978,2,0,P|277:22|283:14,1,57.5000010967255,2|0,3:1|0:0,0:0:0:0:
145,180,129243,1,10,0:0:0:0:
218,148,129376,2,0,P|204:213|183:214,1,57.5000010967255,2|0,3:1|0:0,0:0:0:0:
30,39,129641,6,0,P|90:117|69:131,1,115.000002193451,2|0,0:0|0:0,0:0:0:0:
96,104,130040,2,0,L|197:97,1,57.5000010967255,0|0,0:0|0:0,0:0:0:0:
317,142,130305,6,0,B|268:174|268:174|202:139,1,115.000002193451,8|0,3:2|0:0,0:0:0:0:
258,30,130703,1,0,3:0:0:0:
268,24,130836,2,0,L|261:131,1,57.5000010967255,8|8,0:1|0:0,0:0:0:0:
381,201,131101,1,8,3:2:0:0:
343,222,131234,1,0,0:0:0:0:
311,192,131367,2,0,P|328:138|356:146,1,57.5000010967255,8|0,0:0|3:0,0:0:0:0:
420,77,131632,6,0,B|395:94|395:94|351:66,1,57.5000010967255,2|0,0:0|0:0,0:0:0:0:
471,212,131898,1,10,3:1:0:0:
461,200,132031,2,0,L|468:93,1,57.5000010967255,2|0,0:0|0:0,0:0:0:0:
361,346,132296,2,0,P|423:333|419:306,1,57.5000010967255,2|8,0:0|3:2,0:0:0:0:
418,271,132562,2,0,P|356:284|360:311,1,57.5000010967255,2|0,0:0|0:0,0:0:0:0:
244,367,132827,6,0,B|218:315|218:315|267:241,1,115.000002193451,2|0,3:1|0:0,0:0:0:0:
256,264,133225,2,0,P|295:313|283:339,1,57.5000010967255,0|0,3:0|0:0,0:0:0:0:
127,317,133491,2,0,L|228:310,1,57.5000010967255,10|0,0:0|3:0,0:0:0:0:
67,198,133756,1,2,0:0:0:0:
76,187,133889,1,2,0:0:0:0:
88,181,134022,6,0,P|144:251|117:271,1,104.999996795654,0|0,3:0|0:0,0:0:0:0:
120,313,134420,1,0,0:0:0:0:
127,317,134553,2,0,L|120:420,2,52.4999983978272,0|0|0,3:0|0:0|0:0,0:0:0:0:
31,269,134951,5,0,3:0:0:0:
22,277,135084,2,0,B|10:287|10:287|63:282,1,52.4999983978272,10|8,0:1|0:1,0:0:0:0:
202,375,135349,2,0,L|209:272,1,52.4999983978272,0|8,3:0|0:1,0:0:0:0:
119,195,135615,1,8,0:1:0:0:
112,187,135747,2,0,P|115:240|151:239,2,52.4999983978272,0|8|0,3:0|0:1|0:0,0:0:0:0:
177,57,136146,6,0,B|208:103|208:103|150:209,1,110.000003356934,14|2,0:1|0:0,0:0:0:0:
67,121,136544,1,0,0:0:0:0:
60,111,136677,2,0,L|142:106,1,55.0000016784668,10|0,0:0|0:0,0:0:0:0:
249,194,136942,5,2,0:0:0:0:
267,206,137075,2,0,P|317:151|223:141,1,110.000003356934,2|0,0:0|0:0,0:0:0:0:
213,9,137473,1,0,0:0:0:0:
198,30,137606,1,0,0:0:0:0:
207,54,137739,2,0,P|268:52|270:31,1,55.0000016784668,8|0,0:0|0:0,0:0:0:0:
326,7,138004,2,0,P|308:-5|323:12,1,55.0000016784668,0|0,0:0|0:0,0:0:0:0:
389,109,138270,5,8,0:1:0:0:
382,100,138402,2,0,P|399:48|423:48,2,55.0000016784668,0|0|0,0:0|0:0|0:0,0:0:0:0:
489,93,138801,2,0,B|500:78|500:78|414:93,1,55.0000016784668,8|0,0:0|0:0,0:0:0:0:
448,162,139066,1,0,0:0:0:0:
451,371,139332,6,0,P|501:316|407:306,1,110.000003356934,10|0,0:1|0:0,0:0:0:0:
432,240,139730,1,0,0:0:0:0:
422,254,139863,2,0,L|340:259,1,55.0000016784668,8|0,0:0|0:0,0:0:0:0:
197,344,140128,2,0,P|261:340|264:329,1,55.0000016784668,10|0,0:1|0:0,0:0:0:0:
305,206,140393,6,0,B|274:252|274:252|332:358,1,110.000003356934,14|2,0:1|0:0,0:0:0:0:
412,268,140792,1,0,0:0:0:0:
422,254,140924,2,0,L|340:259,1,55.0000016784668,10|0,0:0|0:0,0:0:0:0:
232,171,141190,5,2,0:0:0:0:
243,155,141323,2,0,B|184:142|203:213|123:185,1,110.000003356934,2|0,0:0|0:0,0:0:0:0:
28,109,141721,1,0,0:0:0:0:
52,99,141854,1,0,0:0:0:0:
74,112,141986,2,0,L|67:215,1,55.0000016784668,8|0,0:0|0:0,0:0:0:0:
103,370,142252,2,0,P|119:313|134:312,1,55.0000016784668,0|0,0:0|0:0,0:0:0:0:
26,236,142517,5,8,0:1:0:0:
33,247,142650,2,0,L|115:242,2,55.0000016784668,0|0|0,0:0|0:0|0:0,0:0:0:0:
56,152,143048,2,0,B|76:137|76:137|68:180,1,55.0000016784668,8|0,0:0|0:0,0:0:0:0:
26,236,143314,1,0,0:0:0:0:
180,350,143579,6,0,B|228:375|228:375|330:309,1,110.000003356934,10|0,0:1|0:0,0:0:0:0:
238,242,143978,1,0,0:0:0:0:
230,233,144110,2,0,P|232:291|269:297,1,55.0000016784668,8|0,0:0|0:0,0:0:0:0:
328,286,144376,2,0,B|342:268|342:268|267:278,1,55.0000016784668,8|0,0:1|0:0,0:0:0:0:
472,366,144641,6,0,P|412:300|379:340,1,110.000003356934,14|0,0:1|0:0,0:0:0:0:
399,174,145040,1,0,0:0:0:0:
409,165,145172,2,0,L|402:268,1,55.0000016784668,8|0,0:0|0:0,0:0:0:0:
301,166,145438,6,0,B|275:117|275:117|342:17,1,110.000003356934,2|8,0:0|0:1,0:0:0:0:
316,69,145836,1,0,0:0:0:0:
327,66,145969,2,0,P|345:127|327:137,1,55.0000016784668,0|0,0:0|0:0,0:0:0:0:
405,220,146234,2,0,L|412:117,1,55.0000016784668,8|0,0:0|0:0,0:0:0:0:
471,116,146500,1,0,0:0:0:0:
301,166,146765,6,0,B|242:153|261:224|181:196,1,110.000003356934,10|0,0:1|0:0,0:0:0:0:
175,88,147163,1,0,0:0:0:0:
182,76,147296,2,0,P|168:139|161:138,1,55.0000016784668,8|0,0:0|0:0,0:0:0:0:
76,171,147562,2,0,L|158:166,1,55.0000016784668,0|0,0:0|0:0,0:0:0:0:
50,371,147827,6,0,P|18:284|76:288,1,110.000003356934,10|0,0:1|0:0,0:0:0:0:
135,258,148225,1,0,0:0:0:0:
127,247,148358,2,0,L|45:252,1,55.0000016784668,8|0,0:0|0:0,0:0:0:0:
62,156,148624,2,0,B|82:141|82:141|74:184,1,55.0000016784668,8|0,0:1|0:0,0:0:0:0:
123,337,148889,6,0,B|169:367|169:367|275:311,1,110.000003356934,14|0,0:1|0:0,0:0:0:0:
261,248,149287,1,0,0:0:0:0:
269,259,149420,2,0,L|187:264,1,55.0000016784668,8|0,0:0|0:0,0:0:0:0:
325,366,149686,2,0,L|331:288,1,55.0000016784668,0|0,0:0|0:0,0:0:0:0:
350,180,149951,5,8,0:1:0:0:
344,186,150084,2,0,P|360:242|372:242,2,55.0000016784668,0|0|0,0:0|0:0|0:0,0:0:0:0:
437,226,150482,2,0,B|453:208|453:208|414:215,1,55.0000016784668,8|0,0:0|0:0,0:0:0:0:
419,79,150747,2,0,L|413:157,1,55.0000016784668,0|0,0:0|0:0,0:0:0:0:
350,180,151013,1,8,0:1:0:0:
212,36,151278,6,0,B|232:21|232:21|224:64,1,55.0000016784668,2|0,0:0|0:0,0:0:0:0:
51,210,151544,2,0,B|56:216|56:216|141:211,1,55.0000016784668,10|0,0:0|0:0,0:0:0:0:
204,133,151809,6,0,P|147:126|146:111,1,50,2|0,0:0|0:0,0:0:0:0:
89,48,152075,2,0,B|75:69|75:69|96:115,1,50,10|0,0:1|0:0,0:0:0:0:
160,143,152340,6,0,L|166:65,1,44.999998626709,2|0,0:0|0:0,0:0:0:0:
85,92,152606,2,0,L|79:170,1,44.999998626709,10|0,0:0|0:0,0:0:0:0:
16,199,152871,6,0,P|18:202|66:178,1,40,10|0,0:1|0:0,0:0:0:0:
152,368,153137,6,0,B|180:314|180:314|113:218,1,119.999996337891,14|2,0:1|0:0,0:0:0:0:
19,311,153535,1,0,0:0:0:0:
27,324,153668,2,0,L|125:317,1,59.9999981689454,10|0,0:0|0:0,0:0:0:0:
205,210,153933,5,2,0:0:0:0:
250,277,154066,2,0,B|312:260|294:351|380:307,1,119.999996337891,2|0,0:0|0:0,0:0:0:0:
463,296,154464,1,0,0:0:0:0:
483,319,154597,1,0,0:0:0:0:
472,347,154730,2,0,P|463:358|401:318,1,59.9999981689454,8|0,0:0|0:0,0:0:0:0:
360,237,154995,2,0,L|367:118,1,59.9999981689454,0|0,0:0|0:0,0:0:0:0:
501,151,155261,5,8,0:1:0:0:
495,158,155393,2,0,P|462:167|437:102,2,59.9999981689454,0|0|0,0:0|0:0|0:0,0:0:0:0:
451,63,155792,2,0,B|471:46|471:46|464:89,1,59.9999981689454,8|0,0:0|0:0,0:0:0:0:
398,3,156057,1,0,0:0:0:0:
255,144,156323,6,0,B|227:90|227:90|294:-6,1,119.999996337891,10|0,0:1|0:0,0:0:0:0:
373,79,156721,1,0,0:0:0:0:
380,92,156854,2,0,L|282:99,1,59.9999981689454,8|0,0:0|0:0,0:0:0:0:
343,193,157119,2,0,B|323:210|323:210|330:167,1,59.9999981689454,10|0,0:1|0:0,0:0:0:0:
261,41,157385,6,0,B|199:24|217:115|131:71,1,119.999996337891,14|2,0:1|0:0,0:0:0:0:
95,196,157783,1,0,0:0:0:0:
107,207,157916,2,0,L|114:88,1,59.9999981689454,10|0,0:0|0:0,0:0:0:0:
7,35,158181,5,2,0:0:0:0:
3,16,158314,2,0,P|76:45|51:105,1,119.999996337891,2|0,0:0|0:0,0:0:0:0:
157,210,158712,1,0,0:0:0:0:
131,227,158845,1,0,0:0:0:0:
107,207,158978,2,0,L|114:88,1,59.9999981689454,8|0,0:0|0:0,0:0:0:0:
13,275,159243,2,0,B|18:281|18:281|109:276,1,59.9999981689454,0|0,0:0|0:0,0:0:0:0:
148,376,159509,5,8,0:1:0:0:
140,366,159641,2,0,L|147:247,2,59.9999981689454,0|0|0,0:0|0:0|0:0,0:0:0:0:
234,351,160040,2,0,B|252:332|252:332|191:341,1,59.9999981689454,8|0,0:0|0:0,0:0:0:0:
148,376,160305,1,0,0:0:0:0:
276,200,160570,6,0,P|243:192|260:281,1,119.999996337891,10|0,0:1|0:0,0:0:0:0:
148,376,160969,1,0,0:0:0:0:
140,366,161101,2,0,L|147:247,1,59.9999981689454,8|0,0:0|0:0,0:0:0:0:
55,262,161367,2,0,B|36:280|36:280|127:275,1,59.9999981689454,8|0,0:1|0:0,0:0:0:0:
219,337,161632,6,0,B|281:320|263:411|349:367,1,119.999996337891,14|0,0:1|0:0,0:0:0:0:
388,308,162031,1,0,0:0:0:0:
391,296,162163,2,0,B|369:282|369:282|375:317,1,59.9999981689454,8|0,0:0|0:0,0:0:0:0:
507,152,162429,6,0,P|437:226|497:252,1,119.999996337891,2|8,0:0|0:1,0:0:0:0:
437,224,162827,1,0,0:0:0:0:
443,235,162960,2,0,L|541:228,1,59.9999981689454,0|0,0:0|0:0,0:0:0:0:
466,370,163225,2,0,L|473:251,1,59.9999981689454,8|0,0:0|0:0,0:0:0:0:
338,187,163491,5,0,0:0:0:0:
345,195,163624,1,0,0:0:0:0:
352,203,163756,2,0,B|302:236|302:236|190:177,1,119.999996337891,10|0,0:1|0:0,0:0:0:0:
228,98,164155,1,0,0:0:0:0:
237,88,164287,2,0,P|254:127|231:128,1,59.9999981689454,8|0,0:0|0:0,0:0:0:0:
113,192,164553,5,0,0:0:0:0:
106,184,164686,1,0,0:0:0:0:
99,176,164818,2,0,B|181:164|181:164|135:221,1,129.999994049073,10|0,0:1|0:0,0:0:0:0:
85,333,165217,1,0,0:0:0:0:
89,350,165349,2,0,P|160:333|160:323,1,59.9999981689454,8|0,0:0|0:0,0:0:0:0:
271,225,165615,2,0,B|251:208|251:208|258:251,1,59.9999981689454,8|0,0:1|0:0,0:0:0:0:
147,281,165880,6,0,B|209:264|191:355|277:311,1,119.999996337891,14|0,0:1|0:0,0:0:0:0:
378,296,166278,1,0,0:0:0:0:
384,282,166411,2,0,L|286:289,1,59.9999981689454,10|0,0:0|0:0,0:0:0:0:
444,371,166677,2,0,P|435:295|411:291,1,59.9999981689454,0|0,0:0|0:0,0:0:0:0:
447,170,166942,5,10,0:1:0:0:
453,177,167075,2,0,L|446:296,2,59.9999981689454,0|0|0,0:0|0:0|0:0,0:0:0:0:
396,64,167473,2,0,B|376:87|376:87|419:152,1,59.9999981689454,10|0,0:0|0:0,0:0:0:0:
471,94,167739,1,0,0:0:0:0:
224,23,168004,6,0,P|246:16|275:107,1,119.999996337891,10|0,0:1|0:0,0:0:0:0:
334,206,168402,1,0,0:0:0:0:
322,216,168535,2,0,L|329:97,1,59.9999981689454,10|0,0:0|0:0,0:0:0:0:
158,315,168801,5,0,0:0:0:0:
173,316,168933,1,0,0:0:0:0:
182,304,169066,2,0,B|120:287|138:378|52:334,1,119.999996337891,10|2,0:0|0:0,0:0:0:0:
34,276,169464,1,8,0:1:0:0:
86,215,169597,2,0,B|92:222|92:222|200:214,1,59.9999981689454,10|0,0:0|0:0,0:0:0:0:
259,369,169863,2,0,L|266:250,1,59.9999981689454,10|8,0:0|0:0,0:0:0:0:
444,213,170128,6,0,B|368:189|389:296|297:242,1,139.999995727539,6|0,0:0|0:0,0:0:0:0:
280,164,170924,2,0,P|245:157|284:168,1,209.999993591309,2|0,0:0|3:0,0:0:0:0:
143,201,173048,5,2,0:0:0:0:
160,279,173314,2,0,L|258:272,2,69.9999978637696,2|2|2,0:0|0:0|0:0,0:0:0:0:
73,245,174110,5,2,0:0:0:0:
83,255,174243,2,0,B|81:332|0:383|-89:327|-17:222|68:201|57:349|127:395|186:355,1,389.999988098145,2|0,0:0|3:0,0:0:0:0:
456,306,177562,6,0,P|374:309|365:294,2,89.9999972534181,2|2|2,0:0|0:0|0:0,0:0:0:0:
325,250,178624,6,0,L|227:257,1,69.9999978637696,2|0,0:0|0:0,0:0:0:0:
377,312,179155,1,2,0:0:0:0:
318,368,179420,2,0,B|284:306|284:306|337:234,1,139.999995727539,2|0,0:0|0:0,0:0:0:0:
351,105,180217,5,2,0:0:0:0:
490,122,180482,2,0,B|471:156|405:152|401:82|416:42|547:55|475:204|401:213|365:182,1,279.999991455078,2|0,0:0|0:0,0:0:0:0:
273,74,181809,6,0,L|280:193,1,69.9999978637696,2|0,0:0|0:0,0:0:0:0:
351,105,182340,1,2,0:0:0:0:
198,114,182606,2,0,B|113:80|129:210|40:165,1,174.999994659424,2|0,0:0|0:0,0:0:0:0:
37,158,183402,5,2,0:0:0:0:
120,296,183668,2,0,P|122:318|71:263,1,209.999993591309,2|0,0:0|3:0,0:0:0:0:
211,213,186057,6,0,L|156:217,1,34.9999989318848,2|0,0:0|0:0,0:0:0:0:
170,220,187119,6,0,P|184:286|211:286,1,57.5000010967255,14|0,0:1|0:0,0:0:0:0:
281,351,187385,1,0,0:0:0:0:
257,373,187517,2,0,B|231:321|231:321|280:247,1,115.000002193451,2|0,0:3|0:0,0:0:0:0:
358,280,187916,2,0,B|375:291|375:291|340:296,1,57.5000010967255,2|0,0:1|0:0,0:0:0:0:
440,371,188181,6,0,P|442:307|412:293,1,57.5000010967255,10|0,0:1|0:0,0:0:0:0:
314,214,188447,1,0,0:0:0:0:
307,207,188579,2,0,L|314:100,2,57.5000010967255,2|8|0,0:3|0:0|0:0,0:0:0:0:
262,274,188978,1,2,0:1:0:0:
385,177,189243,6,0,L|483:170,1,57.5000010967255,10|0,0:1|0:0,0:0:0:0:
399,25,189509,1,0,0:0:0:0:
377,0,189641,2,0,B|346:48|346:48|386:127,1,115.000002193451,2|0,0:3|0:0,0:0:0:0:
256,148,190040,2,0,B|260:153|260:153|350:148,1,57.5000010967255,2|0,0:1|0:0,0:0:0:0:
175,87,190305,6,0,B|196:73|196:73|185:135,1,57.5000010967255,10|0,0:1|0:0,0:0:0:0:
77,149,190570,1,0,0:0:0:0:
87,180,190703,2,0,B|136:212|136:212|220:166,1,115.000002193451,2|0,0:3|0:0,0:0:0:0:
190,105,191101,1,2,0:1:0:0:
259,345,191367,5,8,0:1:0:0:
421,162,191632,1,0,0:0:0:0:
413,174,191765,1,2,0:1:0:0:
218,258,192030,1,0,0:0:0:0:
225,271,192163,2,0,L|323:264,1,57.5000010967255,2|0,0:1|0:0,0:0:0:0:
412,368,192429,6,0,L|421:234,1,115.000002193451,10|0,0:1|0:0,0:0:0:0:
352,121,192827,2,0,B|321:169|321:169|361:248,1,115.000002193451,2|0,0:1|0:0,0:0:0:0:
470,170,193225,2,0,L|372:177,1,57.5000010967255,2|0,0:1|0:0,0:0:0:0:
292,68,193491,5,10,0:1:0:0:
412,265,193756,1,0,0:0:0:0:
420,253,193889,1,2,0:1:0:0:
433,50,194155,1,0,0:0:0:0:
425,38,194287,2,0,L|327:45,1,57.5000010967255,2|0,0:1|0:0,0:0:0:0:
228,114,194553,6,0,B|202:62|202:62|251:-12,1,115.000002193451,10|0,0:1|0:0,0:0:0:0:
300,148,194951,2,0,B|238:136|262:209|177:184,1,115.000002193451,2|0,0:1|0:0,0:0:0:0:
150,312,195349,2,0,L|156:218,1,57.5000010967255,2|0,0:1|0:0,0:0:0:0:
59,233,195615,6,0,B|41:249|41:249|115:245,1,57.5000010967255,10|0,0:1|0:0,0:0:0:0:
247,352,195880,1,0,0:0:0:0:
225,375,196013,2,0,L|234:241,1,115.000002193451,2|0,0:3|0:0,0:0:0:0:
279,194,196411,2,0,B|300:177|300:177|282:256,1,57.5000010967255,2|0,0:1|0:0,0:0:0:0:
363,277,196677,6,0,B|359:282|359:282|266:288,1,57.5000010967255,10|0,0:1|0:0,0:0:0:0:
481,349,196942,1,0,0:0:0:0:
457,371,197074,2,0,B|431:319|431:319|480:245,1,115.000002193451,2|0,0:3|0:0,0:0:0:0:
409,212,197473,1,2,0:1:0:0:
385,8,197739,6,0,L|378:115,1,57.5000010967255,10|0,0:1|0:0,0:0:0:0:
510,171,198004,1,0,0:0:0:0:
487,195,198137,2,0,P|454:107|498:114,1,115.000002193451,2|0,0:3|0:0,0:0:0:0:
306,2,198535,2,0,L|299:109,1,57.5000010967255,2|0,0:1|0:0,0:0:0:0:
212,123,198801,6,0,B|246:116|246:116|205:161,1,57.5000010967255,10|0,0:1|0:0,0:0:0:0:
300,254,199066,1,0,0:0:0:0:
322,228,199199,2,0,B|260:216|284:289|199:264,1,115.000002193451,2|0,0:3|0:0,0:0:0:0:
184,198,199597,1,2,0:1:0:0:
51,383,199863,5,8,0:1:0:0:
123,126,200128,1,0,0:0:0:0:
133,136,200261,1,2,0:1:0:0:
175,334,200526,1,0,0:0:0:0:
165,324,200659,2,0,L|67:331,1,57.5000010967255,2|0,0:1|0:0,0:0:0:0:
10,210,200924,6,0,B|70:196|49:270|133:242,1,115.000002193451,10|0,0:1|0:0,0:0:0:0:
149,139,201323,2,0,P|145:128|120:169,1,115.000002193451,2|0,0:1|0:0,0:0:0:0:
199,223,201721,2,0,B|215:205|215:205|180:211,1,57.5000010967255,2|0,0:1|0:0,0:0:0:0:
6,289,201986,5,10,0:1:0:0:
75,83,202252,1,0,0:0:0:0:
83,95,202385,1,2,0:1:0:0:
294,130,202650,1,0,0:0:0:0:
286,142,202783,2,0,L|188:149,1,57.5000010967255,2|0,0:1|0:0,0:0:0:0:
125,329,203048,6,0,B|174:361|174:361|240:326,1,115.000002193451,10|0,0:1|0:0,0:0:0:0:
195,218,203447,1,2,0:1:0:0:
182,211,203579,2,0,L|176:306,1,57.5000010967255,8|0,0:0|0:0,0:0:0:0:
295,372,203845,2,0,P|309:313|272:300,1,57.5000010967255,8|0,0:1|0:0,0:0:0:0:
286,142,204110,6,0,L|188:149,1,57.5000010967255,14|0,0:1|0:0,0:0:0:0:
353,237,204376,1,0,0:0:0:0:
342,248,204509,2,0,P|365:190|387:197,1,57.5000010967255,2|8,0:3|0:0,0:0:0:0:
322,28,204774,1,0,0:0:0:0:
301,4,204907,2,0,L|295:98,1,57.5000010967255,2|0,0:1|0:0,0:0:0:0:
383,109,205172,6,0,P|381:118|377:101,1,57.5000010967255,10|0,0:1|0:0,0:0:0:0:
264,168,205438,1,0,0:0:0:0:
286,142,205570,2,0,B|224:130|248:203|163:178,1,115.000002193451,2|0,0:3|0:0,0:0:0:0:
98,130,205969,2,0,B|119:116|119:116|108:178,1,57.5000010967255,2|0,0:1|0:0,0:0:0:0:
19,352,206234,6,0,P|58:368|83:320,1,57.5000010967255,10|0,0:1|0:0,0:0:0:0:
127,238,206500,1,0,0:0:0:0:
119,228,206632,2,0,L|21:235,1,57.5000010967255,2|8,0:3|0:0,0:0:0:0:
172,338,206898,1,0,0:0:0:0:
191,313,207031,2,0,L|93:320,1,57.5000010967255,2|0,0:1|0:0,0:0:0:0:
307,347,207296,6,0,P|264:363|247:313,1,57.5000010967255,10|0,0:1|0:0,0:0:0:0:
246,191,207562,1,0,0:0:0:0:
270,165,207694,2,0,L|263:312,1,115.000002193451,2|0,0:3|0:0,0:0:0:0:
362,289,208093,2,0,B|378:271|378:271|343:277,1,57.5000010967255,2|0,0:1|0:0,0:0:0:0:
434,215,208358,6,0,P|438:215|426:209,1,57.5000010967255,8|0,0:1|0:0,0:0:0:0:
423,340,208624,1,0,0:0:0:0:
444,365,208756,2,0,P|453:266|434:266,1,115.000002193451,2|0,0:1|0:0,0:0:0:0:
438,157,209155,2,0,L|431:264,1,57.5000010967255,2|0,0:1|0:0,0:0:0:0:
413,19,209420,6,0,L|315:26,1,57.5000010967255,10|0,0:1|0:0,0:0:0:0:
438,157,209686,1,0,0:0:0:0:
450,126,209818,2,0,B|388:114|412:187|327:162,1,115.000002193451,2|0,0:1|0:0,0:0:0:0:
291,86,210217,2,0,P|290:89|296:81,1,57.5000010967255,2|0,0:1|0:0,0:0:0:0:
149,137,210482,6,0,L|142:244,1,57.5000010967255,10|0,0:1|0:0,0:0:0:0:
199,342,210747,1,0,0:0:0:0:
175,364,210880,2,0,B|149:312|149:312|198:238,1,115.000002193451,2|0,0:1|0:0,0:0:0:0:
228,142,211278,2,0,L|221:249,1,57.5000010967255,2|0,0:1|0:0,0:0:0:0:
315,261,211544,6,0,B|311:266|311:266|218:272,1,57.5000010967255,10|0,0:1|0:0,0:0:0:0:
430,346,211809,1,0,0:0:0:0:
450,372,211942,2,0,P|459:273|440:273,1,115.000002193451,2|0,0:1|0:0,0:0:0:0:
394,256,212340,2,0,B|415:239|415:239|397:318,1,57.5000010967255,2|0,0:1|0:0,0:0:0:0:
503,159,212606,6,0,P|464:175|439:127,1,57.5000010967255,10|0,0:1|0:0,0:0:0:0:
395,45,212871,1,0,0:0:0:0:
403,35,213004,2,0,L|501:28,1,57.5000010967255,2|8,0:3|0:0,0:0:0:0:
350,152,213269,1,0,0:0:0:0:
331,128,213402,2,0,L|429:121,1,57.5000010967255,2|0,0:1|0:0,0:0:0:0:
250,73,213668,6,0,B|271:56|271:56|253:135,1,57.5000010967255,10|0,0:1|0:0,0:0:0:0:
257,214,213933,1,0,0:0:0:0:
279,188,214066,2,0,B|217:176|241:249|156:224,1,115.000002193451,2|0,0:3|0:0,0:0:0:0:
159,137,214464,2,0,P|161:146|165:129,1,57.5000010967255,2|0,0:1|0:0,0:0:0:0:
5,271,214730,6,0,P|44:287|69:239,1,57.5000010967255,10|0,0:1|0:0,0:0:0:0:
97,206,214995,1,0,0:0:0:0:
103,199,215128,2,0,L|5:206,1,57.5000010967255,2|8,0:3|0:0,0:0:0:0:
54,78,215393,1,0,0:0:0:0:
85,65,215526,2,0,L|78:172,1,57.5000010967255,2|0,0:1|0:0,0:0:0:0:
179,229,215792,6,0,L|172:336,1,57.5000010967255,10|0,0:1|0:0,0:0:0:0:
277,323,216057,1,0,0:0:0:0:
253,349,216189,2,0,L|260:202,1,115.000002193451,2|0,0:3|0:0,0:0:0:0:
236,149,216588,2,0,B|215:132|215:132|233:211,1,57.5000010967255,2|0,0:1|0:0,0:0:0:0:
367,165,216854,6,0,B|363:170|363:170|270:176,1,57.5000010967255,8|0,0:1|0:0,0:0:0:0:
453,33,217119,1,0,0:0:0:0:
433,7,217252,2,0,P|424:106|443:106,1,115.000002193451,2|0,0:1|0:0,0:0:0:0:
488,132,217650,2,0,B|504:114|504:114|469:120,1,57.5000010967255,2|0,0:1|0:0,0:0:0:0:
367,165,217916,6,0,L|363:235,1,57.5000010967255,10|0,0:1|0:0,0:0:0:0:
475,355,218181,1,0,0:0:0:0:
497,329,218313,2,0,B|435:317|459:390|374:365,1,115.000002193451,2|0,0:1|0:0,0:0:0:0:
324,301,218712,2,0,P|323:304|329:296,1,57.5000010967255,2|0,0:1|0:0,0:0:0:0:
176,343,218978,6,0,P|215:359|240:311,1,57.5000010967255,10|0,0:1|0:0,0:0:0:0:
244,200,219243,1,0,0:0:0:0:
222,175,219375,2,0,B|191:223|191:223|231:302,1,115.000002193451,2|0,0:1|0:0,0:0:0:0:
308,318,219774,2,0,B|324:300|324:300|289:306,1,57.5000010967255,2|0,0:1|0:0,0:0:0:0:
402,255,220040,6,0,L|395:402,1,115.000002193451,10|0,0:1|0:0,0:0:0:0:
490,292,220438,1,0,0:0:0:0:
476,286,220570,2,0,L|471:374,1,57.5000010967255,8|0,0:0|0:0,0:0:0:0:
328,224,220836,1,8,0:1:0:0:
