osu file format v14

[General]
AudioFilename: audio.mp3
AudioLeadIn: 0
PreviewTime: 67119
Countdown: 0
SampleSet: Soft
StackLeniency: 0.7
Mode: 0
LetterboxInBreaks: 0
WidescreenStoryboard: 1

[Editor]
Bookmarks: 96588,98579,170128,182871
DistanceSpacing: 0.9
BeatDivisor: 4
GridSize: 32
TimelineZoom: 0.6999999

[Metadata]
Title:Every Day is Night
TitleUnicode:Every Day is Night
Artist:Garoad
ArtistUnicode:Garoad
Creator:Chaoslitz
Version:117's Hard
Source:VA-11 HALL-A: Cyberpunk Bartender Action
Tags:valhalla black screen records sukeban games bsr017 michael kelly second round future synth electronic video game soundtrack instrumental ost DreaM117er
BeatmapID:2908295
BeatmapSetID:1353075

[Difficulty]
HPDrainRate:5
CircleSize:4.5
OverallDifficulty:6
ApproachRate:7.5
SliderMultiplier:1.5
SliderTickRate:1

[Events]
//Background and Video events
0,0,"bg.jpg",0,0
//Break Periods
2,102363,109834
//Storyboard Layer 0 (Background)
//Storyboard Layer 1 (Fail)
//Storyboard Layer 2 (Pass)
//Storyboard Layer 3 (Foreground)
//Storyboard Layer 4 (Overlay)
//Storyboard Sound Samples

[TimingPoints]
217,530.973451327434,4,2,1,60,1,0
217,-95.2380952380952,4,2,1,60,0,0
3270,-90.9090909090909,4,2,1,60,0,0
3668,-95.2380952380952,4,2,1,60,0,0
7517,-90.9090909090909,4,2,1,60,0,0
7916,-95.2380952380952,4,2,1,60,0,0
8712,-95.2380952380952,4,2,20,75,0,0
8845,-95.2380952380952,4,2,1,75,0,0
11765,-90.9090909090909,4,2,1,75,0,0
12163,-95.2380952380952,4,2,1,75,0,0
15084,-90.9090909090909,4,2,1,50,0,0
16942,-83.3333333333333,4,2,1,80,0,0
17208,-86.9565217391304,4,2,2,90,0,1
17340,-86.9565217391304,4,2,2,90,0,0
21455,-83.3333333333333,4,2,2,90,0,0
22385,-86.9565217391304,4,2,2,90,0,0
32075,-95.2380952380952,4,2,2,50,0,0
34199,-90.9090909090909,4,2,10,75,0,0
34332,-90.9090909090909,4,2,3,75,0,0
38447,-90.9090909090909,4,2,10,75,0,0
38581,-90.9090909090909,4,2,3,75,0,0
42694,-90.9090909090909,4,2,10,75,0,0
42827,-90.9090909090909,4,2,3,75,0,0
46942,-90.9090909090909,4,2,10,75,0,0
47075,-90.9090909090909,4,2,3,75,0,0
49863,-100,4,2,3,70,0,0
50393,-111.111111111111,4,2,3,60,0,0
50924,-125,4,2,3,50,0,0
51190,-83.3333333333333,4,2,11,85,0,0
51323,-83.3333333333333,4,2,4,85,0,0
55438,-83.3333333333333,4,2,11,85,0,0
55570,-83.3333333333333,4,2,4,85,0,0
59686,-83.3333333333333,4,2,11,85,0,0
59818,-83.3333333333333,4,2,4,85,0,0
62871,-76.9230769230769,4,2,4,85,0,0
63402,-83.3333333333333,4,2,4,85,0,0
63933,-83.3333333333333,4,2,11,85,0,0
64066,-83.3333333333333,4,2,4,85,0,0
67916,-80,4,2,4,85,0,0
68181,-76.9230769230769,4,2,2,95,0,1
81455,-71.4285714285714,4,2,2,95,0,1
81721,-76.9230769230769,4,2,2,95,0,1
85040,-76.9230769230769,4,2,2,95,0,0
85172,-76.9230769230769,4,2,2,100,0,1
102163,-90.9090909090909,4,2,1,80,0,0
110659,-90.9090909090909,4,2,20,80,0,0
110792,-90.9090909090909,4,2,1,80,0,0
117031,-90.9090909090909,4,2,1,50,0,0
118889,-83.3333333333333,4,2,1,80,0,0
119155,-86.9565217391304,4,2,2,90,0,1
119287,-86.9565217391304,4,2,2,90,0,0
123402,-83.3333333333333,4,2,2,90,0,0
124332,-86.9565217391304,4,2,2,90,0,0
134022,-95.2380952380952,4,2,2,50,0,0
136146,-90.9090909090909,4,2,10,75,0,0
136278,-90.9090909090909,4,2,3,75,0,0
140393,-90.9090909090909,4,2,10,75,0,0
140526,-90.9090909090909,4,2,3,75,0,0
144641,-90.9090909090909,4,2,10,75,0,0
144774,-90.9090909090909,4,2,3,75,0,0
148889,-90.9090909090909,4,2,10,75,0,0
149022,-90.9090909090909,4,2,3,75,0,0
151809,-90.9090909090909,4,2,3,70,0,0
152340,-90.9090909090909,4,2,3,60,0,0
152871,-90.9090909090909,4,2,3,50,0,0
153137,-83.3333333333333,4,2,11,85,0,0
153270,-83.3333333333333,4,2,4,85,0,0
157385,-83.3333333333333,4,2,11,85,0,0
157517,-83.3333333333333,4,2,4,85,0,0
161632,-83.3333333333333,4,2,11,85,0,0
161765,-83.3333333333333,4,2,4,85,0,0
164818,-76.9230769230769,4,2,4,85,0,0
165349,-83.3333333333333,4,2,4,85,0,0
165880,-83.3333333333333,4,2,11,85,0,0
166013,-83.3333333333333,4,2,4,85,0,0
170128,-142.857142857143,4,2,5,75,0,0
170659,-142.857142857143,4,2,5,10,0,0
170924,-142.857142857143,4,2,5,40,0,0
171721,-142.857142857143,4,2,5,40,0,0
173048,-142.857142857143,4,2,5,40,0,0
174243,-166.666666666667,4,2,5,40,0,0
175969,-166.666666666667,4,2,5,40,0,0
177562,-166.666666666667,4,2,5,40,0,0
178624,-142.857142857143,4,2,5,40,0,0
178889,-142.857142857143,4,2,5,10,0,0
179155,-142.857142857143,4,2,5,40,0,0
179951,-142.857142857143,4,2,5,10,0,0
180217,-142.857142857143,4,2,5,40,0,0
181278,-142.857142857143,4,2,5,10,0,0
181544,-142.857142857143,4,2,5,10,0,0
181809,-142.857142857143,4,2,5,40,0,0
182075,-142.857142857143,4,2,5,10,0,0
182340,-142.857142857143,4,2,5,40,0,0
183270,-142.857142857143,4,2,5,10,0,0
183402,-142.857142857143,4,2,5,40,0,0
184464,-142.857142857143,4,2,5,40,0,0
186986,-1000,4,2,5,10,0,0
187119,-86.9565217391304,4,2,6,80,0,0
204110,-86.9565217391304,4,2,6,85,0,0

[Colours]
Combo1 : 50,124,255
Combo2 : 46,73,142
Combo3 : 244,0,87
SliderBorder : 70,53,140
SliderTrackOverride : 104,76,225

[HitObjects]
115,130,217,5,0,3:0:0:0:
61,62,482,2,0,L|150:44,1,78.7499975967408,2|0,0:0|3:0,0:0:0:0:
164,41,880,1,2,0:0:0:0:
236,88,1146,2,0,P|234:136|219:175,1,78.7499975967408,2|0,3:2|0:0,0:0:0:0:
212,189,1544,2,0,L|229:275,1,78.7499975967408,2|2,3:2|0:0,0:0:0:0:
307,320,2075,1,2,0:0:0:0:
307,320,2208,1,2,0:0:0:0:
307,320,2340,5,0,3:0:0:0:
374,374,2606,2,0,L|389:296,1,78.7499975967408,2|2,0:0|3:2,0:0:0:0:
396,268,3004,1,2,0:0:0:0:
467,211,3270,2,0,P|453:155|450:113,1,82.5000025177003,2|0,3:0|0:0,0:0:0:0:
449,105,3668,1,2,3:2:0:0:
472,21,3933,1,2,0:0:0:0:
386,5,4199,1,2,0:0:0:0:
363,88,4464,5,0,3:0:0:0:
301,26,4730,1,2,0:0:0:0:
216,43,4995,1,0,3:0:0:0:
212,63,5128,1,2,0:0:0:0:
267,129,5393,2,0,P|217:147|162:142,1,78.7499975967408,2|0,3:2|0:0,0:0:0:0:
170,170,5792,2,0,P|130:158|81:158,1,78.7499975967408,2|2,3:2|2:0,0:0:0:0:
27,213,6323,1,2,0:0:0:0:
27,213,6455,1,2,0:0:0:0:
27,213,6588,5,0,3:0:0:0:
0,295,6854,2,0,P|39:293|76:281,1,78.7499975967408,2|2,0:0|3:2,0:0:0:0:
102,271,7252,1,2,0:0:0:0:
179,317,7517,2,0,L|271:332,1,82.5000025177003,2|0,3:0|0:0,0:0:0:0:
289,334,7916,1,2,3:2:0:0:
363,290,8181,1,2,0:0:0:0:
438,333,8447,1,2,0:0:0:0:
501,273,8712,5,4,3:1:0:0:
471,191,8978,1,2,0:0:0:0:
439,110,9243,2,0,L|452:64,2,39.3749987983704,2|2|0,3:2|0:0|0:0,0:0:0:0:
414,123,9641,2,0,P|367:108|315:102,1,78.7499975967408,2|0,3:2|0:0,0:0:0:0:
310,102,10040,2,0,P|298:50|288:21,1,78.7499975967408,2|2,3:2|0:0,0:0:0:0:
205,6,10570,1,2,0:0:0:0:
205,6,10703,1,2,0:0:0:0:
205,6,10836,5,0,3:0:0:0:
140,63,11101,2,0,P|152:115|162:144,1,78.7499975967408,2|2,0:0|3:2,0:0:0:0:
172,164,11500,1,2,0:0:0:0:
248,212,11765,2,0,L|232:301,1,82.5000025177003,2|0,3:0|0:0,0:0:0:0:
227,322,12163,2,0,P|177:330|141:347,1,78.7499975967408,2|2,3:2|0:0,0:0:0:0:
72,304,12694,1,2,0:0:0:0:
72,304,12827,1,0,0:0:0:0:
72,304,12960,5,0,3:0:0:0:
96,221,13225,1,2,0:0:0:0:
54,144,13491,2,0,L|6:135,2,39.3749987983704,2|2|0,3:2|0:0|0:0,0:0:0:0:
82,128,13889,2,0,P|94:79|99:32,1,78.7499975967408,2|0,3:2|0:0,0:0:0:0:
119,33,14287,2,0,P|167:31|203:54,1,78.7499975967408,2|2,3:2|0:0,0:0:0:0:
255,105,14818,1,2,0:0:0:0:
316,162,15084,5,2,3:2:0:0:
334,176,15217,2,0,P|382:178|416:157,1,82.5000025177003,2|2,0:0|0:0,0:0:0:0:
476,111,15747,1,2,0:0:0:0:
425,176,16013,2,0,P|411:227|398:305,1,123.75000377655,2|2,3:2|3:2,0:0:0:0:
425,374,16677,1,2,0:0:0:0:
336,356,16942,1,2,0:0:0:0:
336,356,17075,1,2,0:0:0:0:
336,356,17208,6,0,B|239:376|239:376|223:301,1,172.500003290176,12|8,3:1|3:2,0:0:0:0:
205,219,18004,1,0,0:0:0:0:
289,200,18270,1,8,0:1:0:0:
367,235,18535,1,2,3:1:0:0:
427,173,18801,1,10,0:0:0:0:
412,157,18933,2,0,P|397:113|395:69,1,86.2500016450882,2|2,3:1|0:1,0:0:0:0:
396,44,19332,6,0,P|355:79|283:62,1,129.375002467632,8|0,0:1|0:0,0:0:0:0:
270,41,19863,2,0,P|226:67|173:43,1,86.2500016450882,8|0,3:2|0:0,0:0:0:0:
168,49,20261,1,0,3:0:0:0:
168,49,20393,2,0,L|153:144,1,86.2500016450882,8|0,0:1|3:0,0:0:0:0:
87,189,20924,2,0,L|100:244,2,43.1250008225441,8|0|2,0:0|0:0|0:0,0:0:0:0:
183,239,21455,5,10,3:1:0:0:
177,263,21588,1,2,0:0:0:0:
130,340,21854,1,2,0:0:0:0:
48,302,22119,1,2,0:0:0:0:
96,230,22385,1,2,3:1:0:0:
91,204,22517,2,0,P|147:201|181:180,2,86.2500016450882,8|0|10,0:1|3:0|0:0,0:0:0:0:
19,155,23314,1,2,0:0:0:0:
19,155,23447,1,2,0:0:0:0:
19,155,23579,6,0,B|41:50|41:50|126:68,1,172.500003290176,8|8,0:1|3:2,0:0:0:0:
188,85,24376,1,0,0:0:0:0:
266,49,24641,1,10,0:1:0:0:
266,49,24774,1,8,0:0:0:0:
266,49,24907,1,8,3:2:0:0:
345,15,25172,1,10,0:0:0:0:
428,38,25438,1,4,0:3:0:0:
508,67,25703,6,0,P|477:106|482:193,1,129.375002467632,10|0,3:1|0:0,0:0:0:0:
494,206,26234,2,0,P|468:245|468:294,1,86.2500016450882,8|0,3:2|0:0,0:0:0:0:
472,311,26632,1,0,3:0:0:0:
472,311,26765,2,0,L|372:331,1,86.2500016450882,8|2,0:1|3:1,0:0:0:0:
307,360,27296,1,10,0:0:0:0:
286,368,27429,2,0,P|233:354|182:353,1,86.2500016450882,2|2,3:1|0:0,0:0:0:0:
174,354,27827,5,8,0:1:0:0:
91,378,28093,1,0,0:0:0:0:
110,294,28358,2,0,P|99:252|92:205,1,86.2500016450882,8|0,3:2|0:0,0:0:0:0:
134,134,28889,2,0,L|184:144,2,43.1250008225441,8|8|8,0:1|0:0|3:2,0:0:0:0:
20,163,29420,1,8,0:0:0:0:
61,87,29686,1,2,0:0:0:0:
92,209,29951,5,10,3:1:0:0:
97,228,30084,2,0,L|197:251,1,86.2500016450882,2|2,0:0|0:0,0:0:0:0:
199,269,30482,2,0,P|243:257|291:251,1,86.2500016450882,8|0,3:2|0:0,0:0:0:0:
314,250,30880,1,2,3:1:0:0:
314,250,31013,1,8,0:1:0:0:
372,186,31278,1,0,3:0:0:0:
306,129,31544,1,10,0:0:0:0:
359,61,31809,6,0,L|367:12,2,43.1250008225441,2|2|0,0:0|0:0|3:0,0:0:0:0:
250,193,32606,2,0,P|209:194|169:165,1,78.7499975967408,0|0,3:0|0:0,0:0:0:0:
123,117,33137,1,10,0:1:0:0:
101,123,33270,1,8,0:1:0:0:
38,75,33535,1,8,0:1:0:0:
16,81,33668,2,0,B|-2:176,1,78.7499975967408,8|8,0:1|0:1,0:0:0:0:
46,227,34199,6,0,P|54:276|64:317,1,82.5000025177003,14|2,0:1|0:0,0:0:0:0:
108,376,34730,1,10,0:0:0:0:
192,353,34995,1,2,0:0:0:0:
197,331,35128,2,0,L|215:237,1,82.5000025177003,2|0,0:0|0:0,0:0:0:0:
197,228,35526,2,0,L|150:238,2,41.2500012588501,0|0|8,0:0|0:0|0:0,0:0:0:0:
258,173,36057,1,0,0:0:0:0:
221,99,36323,6,0,P|181:85|136:82,2,82.5000025177003,8|0|8,0:1|0:0|0:0,0:0:0:0:
294,61,37119,1,0,0:0:0:0:
294,61,37252,1,0,0:0:0:0:
294,61,37385,2,0,P|345:78|428:13,1,165.000005035401,10|8,0:1|0:0,0:0:0:0:
504,66,38181,1,10,0:1:0:0:
504,66,38447,6,0,P|494:110|487:160,1,82.5000025177003,14|2,0:1|0:0,0:0:0:0:
451,221,38978,1,10,0:0:0:0:
378,182,39243,1,2,0:0:0:0:
373,160,39376,2,0,L|355:66,1,82.5000025177003,2|0,0:0|0:0,0:0:0:0:
353,52,39774,2,0,L|362:5,2,41.2500012588501,0|0|8,0:0|0:0|0:0,0:0:0:0:
277,86,40305,1,0,0:0:0:0:
206,44,40570,6,0,P|150:36|120:28,1,82.5000025177003,8|0,0:1|0:0,0:0:0:0:
124,29,41101,1,8,0:0:0:0:
43,46,41367,1,0,0:0:0:0:
43,46,41500,1,0,0:0:0:0:
43,46,41632,2,0,P|20:89|28:133,1,82.5000025177003,10|0,0:1|0:0,0:0:0:0:
64,193,42163,1,8,0:0:0:0:
141,165,42429,1,8,0:1:0:0:
72,211,42694,6,0,B|59:260|59:260|81:319|81:319|67:377,1,165.000005035401,14|8,0:1|0:0,0:0:0:0:
151,365,43491,2,0,B|163:315|163:315|141:256|141:256|154:207,1,165.000005035401,2|0,0:0|0:0,0:0:0:0:
208,144,44287,1,8,0:0:0:0:
297,139,44553,1,0,0:0:0:0:
297,139,44686,1,0,0:0:0:0:
297,139,44818,6,0,B|358:153|358:153|394:143,2,82.5000025177003,10|0|8,0:1|0:0|0:0,0:0:0:0:
282,56,45615,1,0,0:0:0:0:
282,56,45747,1,0,0:0:0:0:
282,56,45880,2,0,L|456:27,1,165.000005035401,10|8,0:1|0:0,0:0:0:0:
506,83,46677,1,8,0:1:0:0:
483,162,46942,6,0,P|437:148|344:215,1,165.000005035401,14|8,0:1|0:0,0:0:0:0:
319,287,47739,1,0,0:0:0:0:
249,331,48004,2,0,P|209:321|162:312,1,82.5000025177003,8|0,0:1|0:0,0:0:0:0:
145,309,48402,1,0,0:0:0:0:
145,309,48535,1,8,0:0:0:0:
73,350,48801,1,0,0:0:0:0:
6,301,49066,5,8,0:1:0:0:
6,301,49332,2,0,P|17:255|23:215,1,82.5000025177003,2|10,0:0|0:0,0:0:0:0:
86,165,49863,1,2,0:0:0:0:
86,165,50128,2,0,P|75:119|70:81,1,75,10|2,0:1|0:0,0:0:0:0:
11,30,50659,1,10,0:0:0:0:
11,30,50924,1,10,0:1:0:0:
85,68,51190,6,0,P|128:85|177:76,1,89.9999972534181,14|2,0:1|0:0,0:0:0:0:
245,36,51721,1,10,0:0:0:0:
279,118,51986,1,2,0:0:0:0:
288,136,52119,2,0,P|331:119|380:128,1,89.9999972534181,2|0,0:0|0:0,0:0:0:0:
397,136,52517,2,0,L|408:93,2,44.999998626709,0|0|8,0:0|0:0|0:0,0:0:0:0:
375,223,53048,1,0,0:0:0:0:
407,307,53314,6,0,P|449:313|503:328,1,89.9999972534181,8|0,0:1|0:0,0:0:0:0:
271,247,53845,2,0,P|313:240|367:226,1,89.9999972534181,8|0,0:0|0:0,0:0:0:0:
254,274,54376,2,0,P|210:267|167:256,1,89.9999972534181,10|0,0:1|0:0,0:0:0:0:
166,255,54907,1,8,0:0:0:0:
118,332,55172,1,10,0:1:0:0:
118,332,55305,1,0,0:0:0:0:
118,332,55438,6,0,P|74:339|31:352,1,89.9999972534181,14|2,0:1|0:0,0:0:0:0:
30,352,55969,1,10,0:0:0:0:
58,266,56234,1,2,0:0:0:0:
52,240,56367,2,0,P|42:197|33:141,1,89.9999972534181,2|0,0:0|0:0,0:0:0:0:
43,125,56765,2,0,L|0:114,2,44.999998626709,0|0|8,0:0|0:0|0:0,0:0:0:0:
128,154,57296,1,0,0:0:0:0:
206,109,57562,6,0,P|199:68|185:12,1,89.9999972534181,8|0,0:1|0:0,0:0:0:0:
306,108,58093,2,0,P|313:64|324:20,2,89.9999972534181,8|0|10,0:0|0:0|0:1,0:0:0:0:
384,154,58889,1,0,0:0:0:0:
384,154,59022,1,0,0:0:0:0:
384,154,59155,1,8,0:0:0:0:
469,125,59420,1,8,0:1:0:0:
415,241,59686,6,0,B|396:325|396:325|293:293,1,179.999994506836,14|8,0:1|0:0,0:0:0:0:
205,297,60482,2,0,B|116:325|116:325|97:241,1,179.999994506836,2|0,0:0|0:0,0:0:0:0:
128,154,61278,1,8,0:0:0:0:
212,196,61544,1,0,0:0:0:0:
212,196,61677,1,0,0:0:0:0:
212,196,61809,6,0,L|189:303,1,89.9999972534181,10|0,0:1|0:0,0:0:0:0:
300,196,62340,2,0,L|323:303,1,89.9999972534181,8|0,0:0|0:0,0:0:0:0:
346,369,62871,1,10,0:1:0:0:
405,262,63137,1,0,0:0:0:0:
405,262,63270,1,0,0:0:0:0:
405,262,63402,2,0,P|447:236|495:244,1,89.9999972534181,8|8,0:0|0:1,0:0:0:0:
505,151,63933,6,0,P|408:155|332:206,1,179.999994506836,14|10,0:1|0:0,0:0:0:0:
256,288,64730,1,0,0:0:0:0:
172,197,64995,2,0,P|95:152|7:151,1,179.999994506836,10|10,0:1|0:0,0:0:0:0:
26,239,65792,1,0,0:0:0:0:
26,239,65925,1,0,0:0:0:0:
26,239,66057,6,0,P|70:236|106:261,1,89.9999972534181,10|0,0:1|0:0,0:0:0:0:
164,330,66588,2,0,B|189:337|189:337|253:321,1,89.9999972534181,10|0,0:0|0:0,0:0:0:0:
315,258,67119,2,0,P|372:246|438:298,1,134.999995880127,10|8,0:0|0:1,0:0:0:0:
447,319,67650,1,10,0:0:0:0:
359,346,67916,1,10,0:0:0:0:
359,346,68048,1,8,0:0:0:0:
359,346,68181,6,0,L|383:244,1,97.4999955368044,14|0,0:1|0:0,0:0:0:0:
404,156,68712,1,8,0:0:0:0:
320,78,68978,1,2,0:0:0:0:
320,78,69110,1,0,0:0:0:0:
320,78,69243,2,0,P|289:123|289:168,1,97.4999955368044,10|0,0:1|0:0,0:0:0:0:
205,239,69774,2,0,P|158:225|98:215,1,97.4999955368044,8|0,0:0|0:0,0:0:0:0:
21,257,70305,5,8,0:1:0:0:
98,197,70570,1,0,0:0:0:0:
98,197,70703,1,0,0:0:0:0:
98,197,70836,1,8,0:0:0:0:
67,104,71101,1,2,0:0:0:0:
161,127,71367,2,0,P|214:124|253:103,1,97.4999955368044,10|2,0:1|0:0,0:0:0:0:
235,7,71898,1,10,0:0:0:0:
336,37,72163,1,2,0:0:0:0:
336,37,72296,1,2,0:0:0:0:
336,37,72429,6,0,P|379:15|427:13,1,97.4999955368044,8|0,0:1|0:0,0:0:0:0:
405,108,72960,1,8,0:0:0:0:
489,156,73225,1,0,0:0:0:0:
458,248,73491,1,8,0:1:0:0:
458,248,73624,1,0,0:0:0:0:
458,248,73756,1,0,0:0:0:0:
374,197,74022,2,0,P|328:188|274:175,1,97.4999955368044,8|0,0:0|0:0,0:0:0:0:
215,101,74553,5,8,0:1:0:0:
215,101,74685,1,0,0:0:0:0:
215,101,74818,1,0,0:0:0:0:
185,193,75084,2,0,L|85:215,1,97.4999955368044,8|0,0:0|0:0,0:0:0:0:
21,298,75615,2,0,B|60:289|60:289|119:308|119:308|178:294,1,146.249993305207,10|2,0:1|0:0,0:0:0:0:
193,291,76146,1,8,0:0:0:0:
255,366,76411,1,10,0:1:0:0:
319,291,76677,6,0,L|308:234,2,48.7499977684022,10|0|0,0:1|0:0|0:0,0:0:0:0:
405,335,77208,1,10,0:0:0:0:
479,272,77473,2,0,L|454:157,1,97.4999955368044,2|8,0:0|0:1,0:0:0:0:
377,121,78004,1,0,0:0:0:0:
377,121,78137,1,0,0:0:0:0:
377,121,78270,1,10,0:0:0:0:
296,66,78535,6,0,B|274:58|274:58|195:77,1,97.4999955368044,2|8,0:0|0:1,0:0:0:0:
111,37,79066,1,0,0:0:0:0:
111,37,79199,1,0,0:0:0:0:
111,37,79332,2,0,P|93:82|91:136,1,97.4999955368044,8|0,0:0|0:0,0:0:0:0:
46,217,79863,2,0,B|68:225|68:225|147:206,1,97.4999955368044,10|0,0:1|0:0,0:0:0:0:
222,150,80393,1,10,0:0:0:0:
224,256,80659,1,2,0:0:0:0:
224,256,80792,1,0,0:0:0:0:
224,256,80924,6,0,L|211:315,2,48.7499977684022,8|0|0,0:1|0:0|0:0,0:0:0:0:
222,150,81455,1,10,0:0:0:0:
140,207,81721,2,0,P|100:207|50:172,1,97.4999955368044,2|8,0:0|0:1,0:0:0:0:
213,303,82252,1,0,0:0:0:0:
213,303,82385,1,0,0:0:0:0:
213,303,82517,2,0,B|289:288|289:288|326:300,1,97.4999955368044,8|0,0:0|0:0,0:0:0:0:
391,370,83048,5,8,0:1:0:0:
391,370,83181,1,0,0:0:0:0:
391,370,83314,1,0,0:0:0:0:
497,286,83579,2,0,B|477:292|477:292|401:277,1,97.4999955368044,8|0,0:0|0:0,0:0:0:0:
308,294,84110,1,10,0:1:0:0:
339,211,84376,1,0,0:0:0:0:
339,211,84509,1,0,0:0:0:0:
339,211,84641,2,0,L|317:107,1,97.4999955368044,8|8,0:0|0:1,0:0:0:0:
302,29,85172,6,0,L|362:39,2,48.7499977684022,14|2|0,0:1|0:0|0:0,0:0:0:0:
212,81,85703,2,0,L|114:65,1,97.4999955368044,8|0,0:0|3:0,0:0:0:0:
29,120,86234,1,8,0:1:0:0:
13,27,86500,1,0,0:0:0:0:
13,27,86632,1,0,0:0:0:0:
13,27,86765,1,10,0:0:0:0:
98,84,87031,6,0,B|106:114|106:114|89:193,1,97.4999955368044,2|8,0:0|0:1,0:0:0:0:
40,262,87562,2,0,L|-15:274,2,48.7499977684022,0|0|8,0:0|0:0|0:0,0:0:0:0:
124,329,88093,1,0,3:0:0:0:
124,329,88225,1,0,3:0:0:0:
124,329,88358,2,0,P|173:314|229:308,1,97.4999955368044,10|0,0:1|0:0,0:0:0:0:
316,298,88889,1,8,0:0:0:0:
330,207,89155,1,0,3:0:0:0:
330,207,89287,1,0,0:0:0:0:
330,207,89420,6,0,P|314:160|313:104,1,97.4999955368044,10|0,0:1|0:0,0:0:0:0:
350,33,89951,1,10,0:0:0:0:
288,103,90217,2,0,L|192:86,1,97.4999955368044,2|8,0:0|0:1,0:0:0:0:
134,152,90747,2,0,L|75:167,2,48.7499977684022,0|0|8,0:0|0:0|0:0,0:0:0:0:
223,208,91278,1,0,3:0:0:0:
223,208,91411,1,0,3:0:0:0:
223,208,91544,6,0,L|278:193,2,48.7499977684022,8|0|0,0:1|0:0|0:0,0:0:0:0:
186,299,92075,1,8,0:0:0:0:
268,360,92340,1,0,3:0:0:0:
268,360,92473,1,0,3:0:0:0:
268,360,92606,2,0,P|311:345|381:339,1,97.4999955368044,10|0,0:1|0:0,0:0:0:0:
458,360,93137,1,8,0:0:0:0:
458,360,93402,1,8,0:1:0:0:
487,267,93668,6,0,L|464:170,1,97.4999955368044,10|0,0:1|0:0,0:0:0:0:
497,80,94199,1,10,0:0:0:0:
368,39,94464,2,0,L|345:133,1,97.4999955368044,2|8,0:0|0:1,0:0:0:0:
250,117,94995,2,0,L|239:68,2,48.7499977684022,0|0|8,0:0|0:0|0:0,0:0:0:0:
273,219,95526,1,0,3:0:0:0:
273,219,95659,1,0,3:0:0:0:
273,219,95792,6,0,P|324:237|372:243,1,97.4999955368044,8|0,0:1|0:0,0:0:0:0:
457,282,96323,1,8,0:0:0:0:
454,190,96588,1,0,3:0:0:0:
454,190,96721,1,0,3:0:0:0:
454,190,96854,2,0,P|472:139|478:91,1,97.4999955368044,10|0,0:1|0:0,0:0:0:0:
415,20,97385,1,8,0:0:0:0:
324,41,97650,1,0,3:0:0:0:
324,41,97783,1,0,3:0:0:0:
324,41,97916,6,0,L|369:245,1,194.999991073609,10|10,0:1|0:0,0:0:0:0:
145,231,98712,2,0,L|188:41,1,194.999991073609,2|0,0:0|0:0,0:0:0:0:
302,144,99509,2,0,P|255:156|209:141,1,97.4999955368044,8|0,0:0|3:0,0:0:0:0:
118,107,100040,5,8,0:1:0:0:
49,175,100305,1,0,0:0:0:0:
49,175,100438,1,0,0:0:0:0:
49,175,100570,2,0,B|42:205|42:205|60:276,1,97.4999955368044,8|0,0:0|0:0,0:0:0:0:
34,364,101101,1,8,3:1:0:0:
128,338,101367,1,0,0:0:0:0:
128,338,101500,1,0,0:0:0:0:
128,338,101632,2,0,P|177:346|239:363,1,97.4999955368044,8|8,0:0|0:1,0:0:0:0:
313,325,102163,5,12,3:1:0:0:
478,20,110659,5,12,3:1:0:0:
400,48,110924,1,2,0:0:0:0:
462,101,111190,1,10,3:2:0:0:
477,115,111323,2,0,L|460:207,1,82.5000025177003,2|2,0:0|3:2,0:0:0:0:
457,221,111721,2,0,P|418:202|374:201,1,82.5000025177003,8|2,0:1|3:2,0:0:0:0:
400,284,112252,1,10,0:0:0:0:
342,347,112517,1,2,0:0:0:0:
342,347,112650,1,2,0:0:0:0:
342,347,112783,6,0,P|381:366|425:367,1,82.5000025177003,8|2,0:1|0:0,0:0:0:0:
497,339,113314,1,10,3:2:0:0:
509,319,113447,2,0,L|490:223,1,82.5000025177003,2|2,0:0|3:0,0:0:0:0:
486,214,113845,1,8,0:1:0:0:
416,170,114110,1,2,3:2:0:0:
442,91,114376,1,10,0:0:0:0:
511,136,114641,1,2,0:0:0:0:
416,170,114907,5,8,3:1:0:0:
346,126,115172,1,2,0:0:0:0:
337,208,115438,1,10,3:2:0:0:
316,219,115570,2,0,L|225:201,1,82.5000025177003,2|2,0:0|3:2,0:0:0:0:
210,211,115969,2,0,L|185:122,1,82.5000025177003,8|2,0:1|3:2,0:0:0:0:
166,51,116500,1,10,0:0:0:0:
107,109,116765,1,2,0:0:0:0:
187,131,117031,5,2,3:2:0:0:
211,138,117163,2,0,L|304:119,1,82.5000025177003,2|2,0:0|0:0,0:0:0:0:
347,60,117694,1,2,0:0:0:0:
423,92,117960,2,0,P|414:154|442:210,1,123.75000377655,2|2,3:2|3:2,0:0:0:0:
495,268,118624,1,2,0:0:0:0:
471,354,118889,1,2,0:0:0:0:
471,354,119022,1,2,0:0:0:0:
471,354,119155,6,0,B|355:328|355:328|342:383,1,172.500003290176,12|8,3:1|3:2,0:0:0:0:
256,365,119951,1,0,0:0:0:0:
170,380,120217,1,8,0:1:0:0:
196,298,120482,1,2,3:1:0:0:
142,230,120747,1,10,0:0:0:0:
125,214,120880,2,0,P|81:220|35:236,1,86.2500016450882,2|2,3:1|0:1,0:0:0:0:
20,250,121278,6,0,P|48:193|41:129,1,129.375002467632,8|0,0:1|0:0,0:0:0:0:
19,110,121809,2,0,P|21:63|45:27,1,86.2500016450882,8|0,3:2|0:0,0:0:0:0:
66,15,122208,1,0,3:0:0:0:
66,15,122340,2,0,L|163:35,1,86.2500016450882,8|0,0:1|3:0,0:0:0:0:
206,98,122871,2,0,P|198:121|195:149,2,43.1250008225441,8|0|2,0:0|0:0|0:0,0:0:0:0:
274,39,123402,5,10,3:1:0:0:
268,15,123535,1,2,0:0:0:0:
358,10,123801,1,2,0:0:0:0:
418,76,124066,1,2,0:0:0:0:
372,149,124332,1,2,3:1:0:0:
359,168,124464,2,0,L|378:268,1,86.2500016450882,8|0,0:1|3:0,0:0:0:0:
375,252,124995,1,10,0:0:0:0:
319,318,125261,1,2,0:0:0:0:
319,318,125393,1,2,0:0:0:0:
319,318,125526,6,0,B|214:343|214:343|196:274,1,172.500003290176,8|8,0:1|3:2,0:0:0:0:
174,196,126323,1,0,0:0:0:0:
202,114,126588,1,10,0:1:0:0:
202,114,126721,1,8,0:0:0:0:
202,114,126854,1,8,3:2:0:0:
179,31,127119,1,10,0:0:0:0:
98,61,127385,1,4,0:3:0:0:
18,28,127650,6,0,P|19:98|67:140,1,129.375002467632,10|0,3:1|0:0,0:0:0:0:
86,148,128181,2,0,P|62:194|66:239,1,86.2500016450882,8|0,3:2|0:0,0:0:0:0:
76,252,128579,1,0,3:0:0:0:
76,252,128712,2,0,P|125:252|168:288,1,86.2500016450882,8|2,0:1|3:1,0:0:0:0:
207,340,129243,1,10,0:0:0:0:
225,357,129376,2,0,P|274:357|317:321,1,86.2500016450882,2|2,3:1|0:0,0:0:0:0:
315,317,129774,5,8,0:1:0:0:
344,235,130040,1,0,0:0:0:0:
403,297,130305,2,0,B|422:306|422:306|493:291,1,86.2500016450882,8|0,3:2|0:0,0:0:0:0:
496,206,130836,2,0,L|438:218,2,43.1250008225441,8|8|8,0:1|0:0|3:2,0:0:0:0:
508,120,131367,1,8,0:0:0:0:
403,11,131632,1,2,0:0:0:0:
428,93,131898,5,10,3:1:0:0:
413,110,132031,2,0,B|388:121|388:121|316:106,1,86.2500016450882,2|2,0:0|0:0,0:0:0:0:
305,121,132429,2,0,L|284:31,1,86.2500016450882,8|0,3:2|0:0,0:0:0:0:
279,13,132827,1,2,3:1:0:0:
279,13,132960,1,8,0:1:0:0:
193,4,133225,1,0,3:0:0:0:
124,56,133491,1,10,0:0:0:0:
115,141,133756,1,2,0:0:0:0:
115,141,133889,1,2,0:0:0:0:
115,141,134022,5,0,3:0:0:0:
194,337,134553,2,0,L|276:320,1,78.7499975967408,0|0,3:0|0:0,0:0:0:0:
345,347,135084,1,10,0:1:0:0:
366,341,135217,1,8,0:1:0:0:
438,371,135482,1,8,0:1:0:0:
459,365,135615,1,8,0:1:0:0:
507,302,135880,1,8,0:1:0:0:
455,237,136146,6,0,L|373:255,2,82.5000025177003,14|2|10,0:1|0:0|0:0,0:0:0:0:
507,163,136942,1,2,0:0:0:0:
492,137,137075,2,0,P|450:118|401:124,1,82.5000025177003,2|0,0:0|0:0,0:0:0:0:
388,133,137473,2,0,L|376:84,2,41.2500012588501,0|0|8,0:0|0:0|0:0,0:0:0:0:
325,187,138004,1,0,0:0:0:0:
242,182,138270,6,0,P|230:142|226:96,1,82.5000025177003,8|0,0:1|0:0,0:0:0:0:
241,20,138801,1,8,0:0:0:0:
163,46,139066,1,0,0:0:0:0:
163,46,139199,1,0,0:0:0:0:
163,46,139332,2,0,B|48:29|48:29|36:85,1,165.000005035401,10|8,0:1|0:0,0:0:0:0:
21,157,140128,1,10,0:1:0:0:
82,211,140393,6,0,P|102:165|94:122,2,82.5000025177003,14|2|10,0:1|0:0|0:0,0:0:0:0:
16,261,141190,1,2,0:0:0:0:
27,280,141323,2,0,P|66:299|111:292,1,82.5000025177003,2|0,0:0|0:0,0:0:0:0:
127,283,141721,2,0,L|136:334,2,41.2500012588501,0|0|8,0:0|0:0|0:0,0:0:0:0:
187,226,142252,1,0,0:0:0:0:
265,249,142517,6,0,L|286:340,1,82.5000025177003,8|0,0:1|0:0,0:0:0:0:
283,329,143048,1,8,0:0:0:0:
363,312,143314,1,0,0:0:0:0:
363,312,143447,1,0,0:0:0:0:
363,312,143579,2,0,L|344:231,1,82.5000025177003,10|0,0:1|0:0,0:0:0:0:
322,151,144110,1,8,0:0:0:0:
402,170,144376,1,8,0:1:0:0:
447,101,144641,6,0,P|386:49|310:69,1,165.000005035401,14|8,0:1|0:0,0:0:0:0:
201,69,145438,2,0,P|125:49|65:101,1,165.000005035401,2|0,0:0|0:0,0:0:0:0:
30,176,146234,1,8,0:0:0:0:
89,246,146500,1,0,0:0:0:0:
89,246,146632,1,0,0:0:0:0:
89,246,146765,6,0,P|108:288|110:342,1,82.5000025177003,10|0,0:1|0:0,0:0:0:0:
111,323,147296,1,8,0:0:0:0:
187,377,147562,1,0,0:0:0:0:
187,377,147694,1,0,0:0:0:0:
187,377,147827,2,0,L|363:344,1,165.000005035401,10|8,0:1|0:0,0:0:0:0:
430,329,148624,1,8,0:1:0:0:
406,238,148889,6,0,L|243:268,1,165.000005035401,14|8,0:1|0:0,0:0:0:0:
162,285,149686,1,0,0:0:0:0:
144,204,149951,1,8,0:1:0:0:
225,188,150217,1,0,0:0:0:0:
225,188,150349,1,0,0:0:0:0:
225,188,150482,2,0,P|239:144|228:97,1,82.5000025177003,8|0,0:0|0:0,0:0:0:0:
199,33,151013,5,8,0:1:0:0:
138,89,151278,2,0,B|96:94|96:94|58:72,1,82.5000025177003,2|10,0:0|0:0,0:0:0:0:
61,73,151809,1,2,0:0:0:0:
44,154,152075,2,0,B|78:174|78:174|120:169,1,82.5000025177003,10|2,0:1|0:0,0:0:0:0:
121,169,152606,1,10,0:0:0:0:
134,250,152871,1,10,0:1:0:0:
91,319,153137,6,0,B|46:324|46:324|7:298,2,89.9999972534181,14|2|10,0:1|0:0|0:0,0:0:0:0:
161,375,153933,1,2,0:0:0:0:
184,371,154066,2,0,P|227:360|274:355,1,89.9999972534181,2|0,0:0|0:0,0:0:0:0:
292,342,154464,2,0,P|314:348|342:351,2,44.999998626709,0|0|8,0:0|0:0|0:0,0:0:0:0:
256,259,154995,1,0,0:0:0:0:
301,181,155261,6,0,P|346:185|396:209,1,89.9999972534181,8|0,0:1|0:0,0:0:0:0:
211,181,155792,2,0,P|166:184|125:202,1,89.9999972534181,8|0,0:0|0:0,0:0:0:0:
101,115,156323,2,0,P|142:97|186:93,1,89.9999972534181,10|0,0:1|0:0,0:0:0:0:
254,34,156854,1,8,0:0:0:0:
322,92,157119,1,10,0:1:0:0:
322,92,157252,1,0,0:0:0:0:
322,92,157385,6,0,P|366:95|407:113,1,89.9999972534181,14|2,0:1|0:0,0:0:0:0:
407,114,157916,1,10,0:0:0:0:
493,90,158181,1,2,0:0:0:0:
505,109,158314,2,0,P|493:162|479:232,1,89.9999972534181,2|0,0:0|0:0,0:0:0:0:
471,218,158712,2,0,L|410:202,2,44.999998626709,0|0|8,0:0|0:0|0:0,0:0:0:0:
508,299,159243,1,0,0:0:0:0:
417,295,159509,6,0,P|406:344|399:388,1,89.9999972534181,8|0,0:1|0:0,0:0:0:0:
303,233,160040,2,0,P|314:282|321:326,1,89.9999972534181,8|0,0:0|0:0,0:0:0:0:
209,233,160570,2,0,P|198:276|191:321,1,89.9999972534181,10|0,0:1|0:0,0:0:0:0:
112,383,161101,1,8,0:0:0:0:
28,349,161367,1,8,0:1:0:0:
9,261,161632,6,0,B|88:227|88:227|57:131,1,179.999994506836,14|8,0:1|0:0,0:0:0:0:
198,23,162429,2,0,B|119:57|119:57|147:146,1,179.999994506836,2|0,0:0|0:0,0:0:0:0:
178,231,163225,1,8,0:0:0:0:
265,208,163491,1,0,0:0:0:0:
265,208,163624,1,0,0:0:0:0:
265,208,163756,6,0,P|313:216|364:237,1,89.9999972534181,10|0,0:1|0:0,0:0:0:0:
394,309,164287,2,0,P|436:293|480:286,1,89.9999972534181,8|0,0:0|0:0,0:0:0:0:
509,292,164686,1,0,0:0:0:0:
509,292,164818,2,0,L|469:92,1,194.999991073609,10|8,0:1|0:0,0:0:0:0:
404,39,165615,1,8,0:1:0:0:
342,104,165880,6,0,P|255:126|170:101,1,179.999994506836,14|10,0:1|0:0,0:0:0:0:
108,39,166677,1,0,0:0:0:0:
41,100,166942,2,0,L|3:292,1,179.999994506836,10|10,0:1|0:0,0:0:0:0:
58,351,167739,1,0,0:0:0:0:
58,351,167871,1,0,0:0:0:0:
58,351,168004,6,0,P|105:330|154:332,1,89.9999972534181,10|0,0:1|0:0,0:0:0:0:
222,286,168535,2,0,P|269:307|318:305,1,89.9999972534181,10|0,0:0|0:0,0:0:0:0:
375,366,169066,2,0,P|442:366|497:309,1,134.999995880127,10|8,0:0|0:1,0:0:0:0:
503,293,169597,1,10,0:0:0:0:
463,211,169863,1,10,0:0:0:0:
463,211,169995,1,8,0:0:0:0:
463,211,170128,5,6,0:0:0:0:
463,211,170924,2,0,P|415:223|310:163,1,157.499995193482,2|0,0:0|3:0,0:0:0:0:
256,83,173048,5,2,0:0:0:0:
256,83,173314,2,0,L|186:100,2,52.4999983978272,2|2|2,0:0|0:0|0:0,0:0:0:0:
314,29,174110,1,2,0:0:0:0:
332,33,174243,1,2,0:0:0:0:
104,108,177562,6,0,P|99:68|73:32,2,67.4999979400635,2|2|2,0:0|0:0|0:0,0:0:0:0:
60,170,178624,2,0,P|49:202|45:233,1,52.4999983978272,2|0,0:0|0:0,0:0:0:0:
76,292,179155,1,2,0:0:0:0:
76,292,179420,2,0,P|119:290|177:324,1,104.999996795654,2|0,0:0|0:0,0:0:0:0:
228,375,180217,1,2,0:0:0:0:
302,345,180482,6,0,L|462:313,1,157.499995193482,2|0,0:0|0:0,0:0:0:0:
456,314,181809,6,0,P|462:267|430:218,1,104.999996795654,2|2,0:0|0:0,0:0:0:0:
362,182,182606,1,2,0:0:0:0:
319,118,182871,2,0,P|313:71|345:22,1,104.999996795654,0|2,0:0|0:0,0:0:0:0:
394,87,183668,2,0,L|273:109,1,104.999996795654,2|0,0:0|0:0,0:0:0:0:
212,122,184464,1,0,3:0:0:0:
29,295,186057,6,0,P|37:370|99:326,1,183.749994392395,2|0,0:0|0:0,0:0:0:0:
109,305,187119,5,14,0:1:0:0:
97,219,187385,1,0,0:0:0:0:
78,202,187517,2,0,P|60:164|68:105,1,86.2500016450882,2|0,0:3|0:0,0:0:0:0:
76,99,187916,1,2,0:1:0:0:
136,37,188181,1,10,0:1:0:0:
215,70,188447,2,0,L|227:123,2,43.1250008225441,0|2|8,0:0|0:3|0:0,0:0:0:0:
277,9,188978,1,2,0:1:0:0:
351,52,189243,5,10,0:1:0:0:
335,137,189509,1,0,0:0:0:0:
318,150,189641,2,0,P|300:196|305:240,1,86.2500016450882,2|0,0:3|0:0,0:0:0:0:
316,250,190040,1,2,0:1:0:0:
375,311,190305,2,0,P|418:300|469:291,1,86.2500016450882,10|0,0:1|0:0,0:0:0:0:
483,289,190703,1,2,0:3:0:0:
483,289,190836,1,8,0:0:0:0:
502,205,191101,1,2,0:1:0:0:
437,147,191367,6,0,P|381:174|294:172,1,129.375002467632,8|2,0:1|0:1,0:0:0:0:
292,168,191898,1,8,0:0:0:0:
239,100,192163,1,2,0:1:0:0:
172,44,192429,2,0,P|116:17|29:19,1,129.375002467632,10|2,0:1|0:1,0:0:0:0:
26,24,192960,1,8,0:0:0:0:
3,107,193225,1,2,0:1:0:0:
83,137,193491,5,10,0:1:0:0:
62,220,193756,1,0,0:0:0:0:
85,227,193889,2,0,L|178:250,1,86.2500016450882,2|0,0:1|0:0,0:0:0:0:
191,254,194287,1,2,0:1:0:0:
255,311,194553,1,10,0:1:0:0:
317,252,194818,2,0,P|319:228|326:202,2,43.1250008225441,0|2|8,0:0|0:1|0:0,0:0:0:0:
341,334,195349,1,2,0:1:0:0:
426,320,195615,6,0,P|436:264|447:223,1,86.2500016450882,10|0,0:1|0:0,0:0:0:0:
453,212,196013,1,2,0:3:0:0:
453,212,196146,1,8,0:0:0:0:
489,134,196411,1,2,0:1:0:0:
421,79,196677,1,10,0:1:0:0:
342,115,196942,2,0,P|317:105|290:99,2,43.1250008225441,0|2|8,0:0|0:3|0:0,0:0:0:0:
364,198,197473,1,2,0:1:0:0:
309,264,197739,6,0,P|261:249|180:228,1,129.375002467632,10|2,0:1|0:3,0:0:0:0:
162,223,198270,1,8,0:0:0:0:
78,200,198535,1,2,0:1:0:0:
27,129,198801,2,0,P|75:114|156:93,1,129.375002467632,10|2,0:1|0:3,0:0:0:0:
174,88,199332,1,8,0:0:0:0:
258,70,199597,1,2,0:1:0:0:
307,141,199863,5,8,0:1:0:0:
387,171,200128,1,0,0:0:0:0:
411,163,200261,2,0,P|435:117|429:75,1,86.2500016450882,2|0,0:1|0:0,0:0:0:0:
419,62,200659,1,2,0:1:0:0:
350,9,200924,1,10,0:1:0:0:
274,50,201190,1,0,0:0:0:0:
274,50,201323,1,2,0:1:0:0:
274,50,201455,2,0,L|292:146,1,86.2500016450882,8|2,0:0|0:1,0:0:0:0:
308,219,201986,5,10,0:1:0:0:
226,191,202252,1,0,0:0:0:0:
205,198,202385,2,0,P|157:186|113:179,1,86.2500016450882,2|0,0:1|0:0,0:0:0:0:
98,178,202783,1,2,0:1:0:0:
20,216,203048,1,10,0:1:0:0:
24,129,203314,2,0,L|8:77,2,43.1250008225441,0|2|8,0:0|0:1|0:0,0:0:0:0:
98,178,203845,1,8,0:1:0:0:
20,216,204110,6,0,P|-2:259|4:310,1,86.2500016450882,14|0,0:1|0:0,0:0:0:0:
83,276,204641,1,8,0:0:0:0:
145,335,204907,1,2,0:1:0:0:
145,335,205040,1,0,0:0:0:0:
145,335,205172,2,0,P|165:297|165:254,1,86.2500016450882,10|0,0:1|0:0,0:0:0:0:
83,276,205703,1,8,0:0:0:0:
83,276,205969,1,2,0:1:0:0:
145,335,206234,6,0,L|254:313,1,86.2500016450882,10|0,0:1|0:0,0:0:0:0:
252,314,206632,1,2,0:3:0:0:
252,314,206765,1,8,0:0:0:0:
318,258,207031,1,2,0:1:0:0:
360,332,207296,2,0,L|469:310,1,86.2500016450882,10|0,0:1|0:0,0:0:0:0:
502,249,207827,1,8,0:0:0:0:
502,249,208093,1,2,0:1:0:0:
432,197,208358,6,0,P|383:197|340:177,1,86.2500016450882,8|0,0:1|0:0,0:0:0:0:
289,120,208889,1,8,0:0:0:0:
236,51,209155,1,2,0:1:0:0:
236,51,209287,1,0,0:0:0:0:
236,51,209420,2,0,P|195:66|153:64,1,86.2500016450882,10|0,0:1|0:0,0:0:0:0:
70,38,209951,1,8,0:0:0:0:
88,122,210217,1,2,0:1:0:0:
18,173,210482,6,0,B|7:197|7:197|23:268,1,86.2500016450882,10|0,0:1|0:0,0:0:0:0:
26,279,210880,1,2,0:1:0:0:
26,279,211013,1,8,0:0:0:0:
85,340,211278,1,2,0:1:0:0:
162,300,211544,2,0,P|201:286|311:344,1,172.500003290176,10|8,0:1|0:0,0:0:0:0:
309,342,212340,1,2,0:1:0:0:
390,371,212606,6,0,P|432:359|484:350,1,86.2500016450882,10|0,0:1|0:0,0:0:0:0:
499,350,213004,1,2,0:3:0:0:
499,350,213137,1,8,0:0:0:0:
508,264,213402,1,2,0:1:0:0:
455,195,213668,2,0,P|413:207|361:216,1,86.2500016450882,10|0,0:1|0:0,0:0:0:0:
346,216,214066,1,2,0:3:0:0:
346,216,214199,1,8,0:0:0:0:
295,146,214464,1,2,0:1:0:0:
321,63,214730,6,0,B|355:36|355:36|456:55,1,129.375002467632,10|2,0:1|0:3,0:0:0:0:
463,58,215261,1,8,0:0:0:0:
506,132,215526,1,2,0:1:0:0:
445,194,215792,2,0,B|411:221|411:221|310:202,1,129.375002467632,10|2,0:1|0:3,0:0:0:0:
303,199,216323,1,8,0:0:0:0:
231,151,216588,1,2,0:1:0:0:
159,102,216854,6,0,P|104:101|74:119,1,86.2500016450882,8|0,0:1|0:0,0:0:0:0:
77,115,217385,1,8,0:0:0:0:
20,180,217650,1,2,0:1:0:0:
36,264,217916,2,0,P|91:263|121:281,1,86.2500016450882,10|0,0:1|0:0,0:0:0:0:
134,295,218314,1,2,0:1:0:0:
134,295,218447,1,8,0:0:0:0:
185,363,218712,1,2,0:1:0:0:
185,363,218978,6,0,L|372:337,1,172.500003290176,10|8,0:1|0:0,0:0:0:0:
339,254,219774,1,2,0:1:0:0:
339,254,219907,1,0,0:0:0:0:
339,254,220040,2,0,L|168:277,1,172.500003290176,10|8,0:1|0:0,0:0:0:0:
83,292,220836,5,8,0:1:0:0:
