osu file format v14

[General]
AudioFilename: audio.mp3
AudioLeadIn: 0
PreviewTime: 1149
Countdown: 0
SampleSet: None
StackLeniency: 0.7
Mode: 0
LetterboxInBreaks: 0
WidescreenStoryboard: 1

[Editor]
Bookmarks: 45461,62758,70866,77893,93028,110326,125461,147082,147623,147758,147893,148028,164380,190326,216272
DistanceSpacing: 1
BeatDivisor: 4
GridSize: 16
TimelineZoom: 0.6999999

[Metadata]
Title:Slowing Down
TitleUnicode:Slowing Down
Artist:Garlagan
ArtistUnicode:Garlagan
Creator:SaNoyOsu
Version:Jumpu map
Source:
Tags:
BeatmapID:1835701
BeatmapSetID:877711

[Difficulty]
HPDrainRate:3
CircleSize:4
OverallDifficulty:5
ApproachRate:4
SliderMultiplier:1
SliderTickRate:1

[Events]
//Background and Video events
0,0,"Screenshot_2.png",0,0
//Break Periods
//Storyboard Layer 0 (Background)
//Storyboard Layer 1 (Fail)
//Storyboard Layer 2 (Pass)
//Storyboard Layer 3 (Foreground)
//Storyboard Sound Samples

[TimingPoints]
2231,540.540540540541,4,2,0,100,1,0
2331,-83.3333333333333,4,2,0,100,0,0
28164,540.540540540541,4,2,0,100,1,0
44380,-90.9090909090909,4,1,0,100,0,0
45461,-66.6666666666667,4,3,0,100,0,1
62758,-111.111111111111,4,2,0,100,0,0
93028,-83.3333333333333,4,3,0,100,0,1
110326,-100,4,1,0,100,0,0
190326,-90.9090909090909,4,1,0,100,0,1
216272,-133.333333333333,4,1,0,100,0,0

[Colours]
Combo1 : 102,64,253
Combo2 : 0,128,255
Combo3 : 14,17,124
Combo4 : 151,244,242

[HitObjects]
84,151,2231,5,0,0:0:0:0:
181,309,2501,1,0,0:0:0:0:
213,145,2771,1,0,0:0:0:0:
421,63,3312,5,0,0:0:0:0:
204,222,3852,1,0,0:0:0:0:
68,75,4393,5,0,0:0:0:0:
161,210,4663,2,0,L|103:251,1,59.9999981689454
86,91,5474,1,0,0:0:0:0:
323,43,6014,1,0,0:0:0:0:
218,283,6555,5,0,0:0:0:0:
279,137,6825,1,0,0:0:0:0:
332,277,7095,1,0,0:0:0:0:
234,52,7636,1,0,0:0:0:0:
81,208,8176,1,0,0:0:0:0:
256,192,8717,12,0,10339,0:0:0:0:
88,297,10879,5,0,0:0:0:0:
436,85,11420,1,0,0:0:0:0:
220,299,11960,1,0,0:0:0:0:
436,85,12501,1,0,0:0:0:0:
155,295,13041,1,0,0:0:0:0:
436,85,13582,1,0,0:0:0:0:
88,297,14122,1,0,0:0:0:0:
436,85,14663,1,0,0:0:0:0:
405,302,15203,1,0,0:0:0:0:
113,68,15744,1,0,0:0:0:0:
409,66,16285,1,0,0:0:0:0:
119,302,16825,1,0,0:0:0:0:
256,192,17366,12,0,18987,0:0:0:0:
79,86,19528,5,0,0:0:0:0:
180,291,21690,1,0,0:0:0:0:
416,83,23852,1,0,0:0:0:0:
329,288,26014,1,0,0:0:0:0:
261,161,28164,1,0,0:0:0:0:
94,299,30326,1,0,0:0:0:0:
247,44,32488,1,0,0:0:0:0:
378,303,34650,1,0,0:0:0:0:
103,253,36812,5,0,0:0:0:0:
187,98,37353,1,0,0:0:0:0:
337,210,37893,1,0,0:0:0:0:
457,54,38434,1,0,0:0:0:0:
171,225,38974,5,0,0:0:0:0:
457,54,39515,1,0,0:0:0:0:
171,225,40055,1,0,0:0:0:0:
457,54,40596,1,0,0:0:0:0:
73,80,41136,1,0,0:0:0:0:
165,114,41407,6,0,L|224:130,1,50
393,200,42218,1,0,0:0:0:0:
211,304,42758,1,0,0:0:0:0:
170,195,43164,1,0,0:0:0:0:
262,311,44380,6,0,L|320:287,1,55.0000016784668
175,48,44920,2,0,L|123:68,1,55.0000016784668
