osu file format v14

[General]
AudioFilename: audio.mp3
AudioLeadIn: 0
PreviewTime: 55353
Countdown: 1
SampleSet: None
StackLeniency: 0.4
Mode: 0
LetterboxInBreaks: 0
WidescreenStoryboard: 1

[Editor]
Bookmarks: 1721,17333,17902,17927,46417,128991
DistanceSpacing: 1.7
BeatDivisor: 8
GridSize: 4
TimelineZoom: 4.499998

[Metadata]
Title:larva
TitleUnicode:larva
Artist:Garigari Samushi
ArtistUnicode:ガリガリさむし
Creator:Faken
Version:CS4
Source:maimai MiLK PLUS
Tags:
BeatmapID:1837934
BeatmapSetID:837530

[Difficulty]
HPDrainRate:5
CircleSize:4
OverallDifficulty:9.8
ApproachRate:9.6
SliderMultiplier:2
SliderTickRate:1

[Events]
//Background and Video events
0,0,"Larva.jpg",0,0
//Break Periods
2,55386,63120
//Storyboard Layer 0 (Background)
//Storyboard Layer 1 (Fail)
//Storyboard Layer 2 (Pass)
//Storyboard Layer 3 (Foreground)
//Storyboard Sound Samples

[TimingPoints]
682,297.029702970297,4,1,0,100,1,0
682,-100,4,2,0,60,0,0
2167,-200,4,2,0,7,0,0
3058,-100,4,2,0,60,0,0
4394,-333.333333333333,4,2,0,60,0,0
4766,-333.333333333333,4,2,0,5,0,0
4840,-100,4,2,0,60,0,0
5880,-100,4,2,0,60,0,0
6028,-100,4,2,0,60,0,0
9592,-133.333333333333,4,2,0,60,0,0
10335,-133.333333333333,4,2,0,5,0,0
10483,-200,4,2,0,60,0,0
14642,-66.6666666666667,4,2,0,60,0,0
15236,-100,4,2,0,60,0,0
19097,-100,4,2,0,60,0,0
19543,-100,4,2,0,5,0,0
19691,-66.6666666666667,4,2,0,60,0,0
20285,-100,4,2,0,60,0,0
28899,-100,4,2,0,60,0,0
29196,-200,4,2,0,60,0,0
33652,-153.846153846153,4,2,0,60,0,0
38107,-153.846153846153,4,2,0,60,0,0
38404,-100,4,2,0,60,0,0
38701,-66.6666666666667,4,2,0,60,0,0
38998,-100,4,2,0,60,0,0
41078,-133.333333333333,4,2,0,60,0,0
41375,-125,4,2,0,60,0,0
41672,-117.647058823529,4,2,0,60,0,0
41969,-111.111111111111,4,2,0,60,0,0
42266,-105.263157894737,4,2,0,60,0,0
42563,-100,4,2,0,60,0,0
43305,-66.6666666666667,4,2,0,60,0,0
43751,-100,4,2,0,60,0,0
44493,-66.6666666666667,4,2,0,60,0,0
44939,-100,4,2,0,60,0,0
45682,-66.6666666666667,4,2,0,60,0,0
45979,-66.6666666666667,4,2,0,60,0,0
54295,-66.6666666666667,4,2,0,60,0,0
54394,-66.6666666666667,4,2,0,5,0,0
54518,-83.3333333333333,4,2,0,60,0,0
54617,-66.6666666666667,4,2,0,5,0,0
54741,-117.647058823529,4,2,0,60,0,0
54840,-66.6666666666667,4,2,0,5,0,0
54964,-166.666666666667,4,2,0,60,0,0
55063,-66.6666666666667,4,2,0,5,0,0
55186,-250,4,2,0,60,0,0
55285,-66.6666666666667,4,2,0,5,0,0
55632,-333.333333333333,4,2,0,60,0,0
63652,-100,4,2,0,60,0,0
72878,-100,4,2,0,60,0,0
73157,-100,4,2,0,60,0,0
74345,-100,4,2,0,60,0,0
76127,-66.6666666666667,4,2,0,60,0,0
76275,-40,4,2,0,5,0,0
76424,-66.6666666666667,4,2,0,60,0,0
76572,-40,4,2,0,5,0,0
76721,-100,4,2,0,60,0,0
78503,-40,4,2,0,60,0,0
78651,-40,4,2,0,5,0,0
78800,-28.5714285714286,4,2,0,60,0,0
78948,-40,4,2,0,5,0,0
79097,-83.3333333333333,4,2,0,60,0,0
81473,-76.9230769230769,4,2,0,60,0,0
82662,-76.9230769230769,4,2,0,60,0,0
83107,-76.9230769230769,4,2,0,35,0,0
83701,-100,4,2,0,60,0,0
88156,-66.6666666666667,4,2,0,60,0,0
88305,-100,4,2,0,5,0,0
88602,-100,4,2,0,60,0,0
94245,-100,4,2,0,5,0,0
94543,-76.9230769230769,4,2,0,60,0,1
95731,-66.6666666666667,4,2,0,60,0,1
96325,-76.9230769230769,4,2,0,60,0,1
96919,-66.6666666666667,4,2,0,60,0,1
98552,-76.9230769230769,4,2,0,60,0,1
99889,-58.8235294117647,4,2,0,60,0,1
100483,-66.6666666666667,4,2,0,60,0,1
107389,-71.4285714285714,4,2,0,60,0,1
108132,-76.9230769230769,4,2,0,60,0,1
108800,-83.3333333333333,4,2,0,60,0,1
109172,-90.9090909090909,4,2,0,60,0,1
109394,-66.6666666666667,4,2,0,60,0,1
109543,-66.6666666666667,4,2,0,20,0,1
109617,-66.6666666666667,4,2,0,60,0,1
109766,-66.6666666666667,4,2,0,5,0,1
109840,-66.6666666666667,4,2,0,60,0,1
109988,-66.6666666666667,4,2,0,5,0,1
110137,-66.6666666666667,4,2,0,60,0,1
110434,-76.9230769230769,4,2,0,60,0,1
111771,-66.6666666666667,4,2,0,60,0,1
114147,-66.6666666666667,4,2,0,60,0,0
114741,-66.6666666666667,4,2,0,60,0,1
119196,-50,4,2,0,60,0,1
119493,-33.3333333333333,4,2,0,39,0,1
119790,-50,4,2,0,60,0,1
121870,-66.6666666666667,4,2,0,60,0,0
123058,-66.6666666666667,4,2,0,60,0,1
123949,-50,4,2,0,60,0,1
124469,-50,4,2,0,5,0,1
124543,-50,4,2,0,60,0,1
127662,-40,4,2,0,60,0,1
127810,-50,4,2,0,60,0,1
128033,-40,4,2,0,60,0,1
128182,-66.6666666666667,4,2,0,60,0,1
131820,-66.6666666666667,4,2,0,60,0,1
138503,-66.6666666666667,4,2,0,60,0,0
143256,-40,4,2,0,60,0,0

[Colours]
Combo1 : 26,116,242
Combo2 : 35,17,255
Combo3 : 37,185,239
Combo4 : 255,255,255
Combo5 : 46,174,243

[HitObjects]
124,70,682,5,0,0:0:0:0:
296,50,830,2,0,P|352:39|412:45,1,100
142,144,1127,5,0,0:0:0:0:
267,174,1276,2,0,P|320:192|369:227,1,100
139,217,1573,5,0,0:0:0:0:
209,259,1721,2,0,P|250:298|271:356,1,100
184,333,2018,6,0,P|125:323|86:288,1,100
42,216,2315,2,0,L|45:157,1,50
38,70,2612,2,0,L|80:37,1,50
184,37,2909,1,0,0:0:0:0:
352,45,3058,5,0,0:0:0:0:
259,78,3206,2,0,P|205:105|162:161,1,100
335,128,3503,5,0,0:0:0:0:
279,189,3651,2,0,P|245:239|236:309,1,100
425,106,3949,5,0,0:0:0:0:
415,179,4097,2,0,P|411:239|438:304,1,100
324,322,4394,2,0,L|241:323,1,74.9999977111817
231,322,4840,1,0,0:0:0:0:
129,160,5434,5,0,0:0:0:0:
203,104,5583,2,0,P|224:150|235:202,1,100
112,254,5880,5,0,0:0:0:0:
91,354,6028,2,0,B|141:349|198:313,1,100,0|0,0:0|0:0,2:0:0:0:
239,249,6325,5,0,0:0:0:0:
265,160,6474,2,0,P|305:189|335:229,1,100
346,338,6771,5,0,0:0:0:0:
450,263,6919,2,0,B|455:202|413:148,1,100
356,83,7216,5,0,0:0:0:0:
54,46,7513,5,0,0:0:0:0:
310,208,7810,5,0,0:0:0:0:
409,289,7959,2,0,P|431:244|435:187,1,100
259,120,8256,5,0,0:0:0:0:
299,37,8404,2,0,P|249:39|197:64,1,100
196,178,8701,5,0,0:0:0:0:
127,141,8850,2,0,P|129:191|154:243,1,100
242,252,9147,5,0,0:0:0:0:
199,295,9296,2,0,P|249:293|301:268,1,100
414,139,9592,5,0,0:0:0:0:
382,129,9666,1,0,0:0:0:0:
352,120,9740,1,0,0:0:0:0:
322,109,9814,1,0,0:0:0:0:
290,100,9889,1,0,0:0:0:0:
260,91,9963,1,0,0:0:0:0:
229,81,10037,1,0,0:0:0:0:
199,72,10111,1,0,0:0:0:0:
159,75,10186,2,0,P|96:88|60:103,1,75.0000028610231
226,270,10483,6,0,L|280:260,1,50
242,194,10781,1,0,0:0:0:0:
242,36,10929,1,0,0:0:0:0:
149,66,11078,1,0,0:0:0:0:
299,115,11226,1,0,0:0:0:0:
144,167,11375,2,0,L|81:205,1,50
119,320,11672,5,0,0:0:0:0:
226,211,11820,1,0,0:0:0:0:
244,293,11969,2,0,L|273:322,3,25
307,231,12266,2,0,L|326:263,3,25
357,167,12563,1,0,0:0:0:0:
285,51,12860,5,0,0:0:0:0:
173,141,13008,1,0,0:0:0:0:
154,50,13157,2,0,L|125:21,3,25
85,99,13454,2,0,L|61:68,3,25
44,173,13751,1,0,0:0:0:0:
201,120,14048,6,0,L|157:157,1,50
219,220,14345,2,0,L|238:203,2,25
314,180,14642,6,0,B|326:238|326:238|371:262|431:232,1,150.000005722046
443,170,14939,2,0,B|431:112|431:112|386:88|326:118,1,150.000005722046
240,145,15236,1,0,0:0:0:0:
371,250,15384,1,0,0:0:0:0:
251,339,15533,2,0,P|200:343|149:312,1,100
114,157,15830,1,0,0:0:0:0:
275,227,15979,1,0,0:0:0:0:
305,69,16127,6,0,P|263:69|201:101,1,100
175,243,16424,1,0,0:0:0:0:
357,217,16573,1,0,0:0:0:0:
177,81,16721,6,0,L|143:16,3,50
75,111,17018,2,0,L|49:159,3,50
168,183,17315,6,0,P|180:209|180:255,2,66.6666666666667
95,294,17612,2,0,P|69:273|56:226,2,66.6666666666667
223,325,17909,2,0,P|246:304|265:255,2,66.6666666666667
256,179,18206,2,0,P|295:178|324:191,2,66.6666666666667
151,42,18503,5,0,0:0:0:0:
105,204,18652,1,0,0:0:0:0:
227,118,18800,1,0,0:0:0:0:
55,97,18949,1,0,0:0:0:0:
246,314,19097,6,0,B|266:242|331:205|331:205|427:143|393:26,1,300
163,60,19691,5,0,0:0:0:0:
38,228,19840,2,0,P|67:313|141:330,1,150.000005722046
174,209,20137,1,0,0:0:0:0:
268,100,20285,6,0,L|337:143,1,50
332,56,20434,2,0,L|394:31,1,50
411,107,20582,1,0,0:0:0:0:
449,137,20657,1,0,0:0:0:0:
467,183,20731,1,0,0:0:0:0:
458,232,20805,1,0,0:0:0:0:
426,269,20880,1,0,0:0:0:0:
249,153,21028,5,0,0:0:0:0:
134,304,21177,2,0,P|84:273|49:209,1,100
178,69,21474,2,0,L|248:40,1,50
276,136,21622,2,0,L|335:160,1,50
330,62,21771,2,0,L|389:45,1,50
454,123,21919,1,0,0:0:0:0:
345,285,22068,5,0,0:0:0:0:
294,294,22142,1,0,0:0:0:0:
249,284,22216,1,0,0:0:0:0:
311,190,22365,1,0,0:0:0:0:
112,49,22513,1,0,0:0:0:0:
55,221,22662,5,0,0:0:0:0:
66,269,22736,1,0,0:0:0:0:
97,308,22810,1,0,0:0:0:0:
141,331,22884,1,0,0:0:0:0:
190,334,22959,1,0,0:0:0:0:
168,182,23107,1,0,0:0:0:0:
120,140,23182,1,0,0:0:0:0:
85,92,23256,2,0,P|125:58|184:62,1,100
318,65,23553,1,0,0:0:0:0:
439,157,23701,1,0,0:0:0:0:
282,275,23850,2,0,P|280:286|262:297,4,25
261,114,24147,5,0,0:0:0:0:
114,332,24295,1,0,0:0:0:0:
63,209,24444,1,0,0:0:0:0:
266,153,24592,5,0,0:0:0:0:
399,159,24741,2,0,P|398:206|355:271,1,100
173,229,25038,2,0,P|155:253|146:280,1,50
185,338,25186,2,0,P|212:326|233:307,1,50
249,240,25335,1,0,0:0:0:0:
257,191,25409,1,0,0:0:0:0:
239,145,25483,1,0,0:0:0:0:
199,116,25558,1,0,0:0:0:0:
150,112,25632,1,0,0:0:0:0:
322,48,25781,5,0,0:0:0:0:
448,202,25929,1,0,0:0:0:0:
259,273,26078,1,0,0:0:0:0:
130,138,26226,2,0,L|71:182,3,50
77,240,26523,2,0,L|134:283,3,50
264,296,26820,6,0,P|290:264|311:290,2,66.6666666666667
204,233,27117,2,0,P|165:218|160:251,2,66.6666666666667
310,205,27414,2,0,P|347:185|352:218,2,66.6666666666667
158,131,27711,6,0,P|117:137|129:168,2,66.6666666666667
370,174,28008,5,0,0:0:0:0:
187,55,28157,1,0,0:0:0:0:
240,174,28305,1,0,0:0:0:0:
435,54,28454,1,0,0:0:0:0:
164,323,28602,2,0,B|222:296|248:253|248:253|184:247|161:204,1,200
352,131,29196,6,0,P|382:134|408:153,1,50
376,233,29493,2,0,P|346:230|320:211,1,50
240,207,29790,2,0,P|243:237|262:263,1,50
353,317,30087,1,0,0:0:0:0:
376,169,30236,2,0,P|361:146|327:117,1,50
253,111,30533,5,0,0:0:0:0:
175,140,30682,1,0,0:0:0:0:
187,62,30830,5,0,0:0:0:0:
110,91,30979,1,0,0:0:0:0:
116,258,31276,2,0,P|136:232|160:213,1,50
248,195,31573,1,0,0:0:0:0:
231,301,32018,2,0,B|236:330|236:330|268:321|306:337,1,100
174,72,33355,5,0,0:0:0:0:
174,72,33652,5,0,0:0:0:0:
98,163,33800,1,0,0:0:0:0:
208,184,33949,2,0,P|245:160|292:157,1,64.9999970245363
338,247,34246,2,0,P|315:267|280:278,1,64.9999970245363
143,225,34543,1,0,0:0:0:0:
115,318,34691,1,0,0:0:0:0:
207,289,34840,1,0,0:0:0:0:
234,198,34988,2,0,P|270:207|317:196,1,64.9999970245363
336,103,35285,6,0,P|301:83|249:86,1,64.9999970245363
204,59,35582,2,0,P|206:95|229:136,1,64.9999970245363
344,182,36028,1,0,0:0:0:0:
445,159,36325,2,0,B|361:159|292:43|292:43|191:105,1,292.499986610413
125,244,37513,5,0,0:0:0:0:
131,236,37587,1,0,0:0:0:0:
137,228,37662,1,0,0:0:0:0:
264,214,37810,5,0,0:0:0:0:
272,197,37884,1,0,0:0:0:0:
282,178,37959,1,0,0:0:0:0:
394,153,38107,6,0,L|407:123,3,32.4999985122681
372,59,38404,6,0,L|318:77,1,50
256,90,38553,2,0,L|183:69,1,50
129,54,38701,2,0,B|92:125|92:125|114:201,1,150.000005722046
251,288,38998,1,0,0:0:0:0:
332,87,39147,6,0,P|277:90|229:123,1,100
141,219,39444,1,0,0:0:0:0:
332,284,39592,2,0,P|293:326|236:331,1,100
200,121,39889,1,0,0:0:0:0:
366,220,40038,1,0,0:0:0:0:
110,249,40186,1,0,0:0:0:0:
346,103,40335,1,0,0:0:0:0:
85,45,40483,6,0,L|49:106,3,50
141,110,40781,2,0,L|177:171,3,50
75,208,41078,5,0,0:0:0:0:
62,241,41152,1,0,0:0:0:0:
83,270,41226,1,0,0:0:0:0:
119,268,41300,1,0,0:0:0:0:
137,237,41375,5,0,0:0:0:0:
116,205,41449,1,0,0:0:0:0:
131,170,41523,1,0,0:0:0:0:
169,165,41597,1,0,0:0:0:0:
194,193,41672,5,0,0:0:0:0:
195,234,41746,1,0,0:0:0:0:
230,254,41820,1,0,0:0:0:0:
266,234,41894,1,0,0:0:0:0:
267,194,41969,5,0,0:0:0:0:
257,152,42043,1,0,0:0:0:0:
291,126,42117,1,0,0:0:0:0:
328,146,42191,1,0,0:0:0:0:
353,189,42266,5,0,0:0:0:0:
352,236,42340,1,0,0:0:0:0:
331,278,42414,1,0,0:0:0:0:
293,306,42488,1,0,0:0:0:0:
247,315,42563,5,0,0:0:0:0:
203,296,42637,1,0,0:0:0:0:
192,249,42711,1,0,0:0:0:0:
224,212,42785,1,0,0:0:0:0:
278,228,42860,6,0,L|315:167,3,50
377,193,43157,2,0,P|393:200|377:214,2,33.3333333333333
407,124,43305,2,0,B|314:45|314:45|215:122|100:77,1,300
331,171,43751,1,0,0:0:0:0:
117,241,43899,1,0,0:0:0:0:
302,327,44048,1,0,0:0:0:0:
200,161,44196,6,0,L|174:189,3,33.3333333333333
183,300,44493,2,0,B|254:216|254:216|355:304|455:255,1,300.000011444092
352,170,44939,1,0,0:0:0:0:
374,346,45087,1,0,0:0:0:0:
188,360,45236,2,0,L|206:308,1,50
121,315,45384,6,0,L|95:253,1,50
170,242,45533,2,0,L|188:190,1,50
70,191,45682,2,0,B|151:51|151:51|254:43,1,225.000008583069
288,109,45979,5,0,0:0:0:0:
280,125,46053,1,0,0:0:0:0:
271,142,46127,1,0,0:0:0:0:
262,158,46201,1,0,0:0:0:0:
253,175,46276,1,0,0:0:0:0:
244,191,46350,1,0,0:0:0:0:
235,208,46424,1,0,0:0:0:0:
78,147,46573,1,0,0:0:0:0:
194,29,46721,1,0,0:0:0:0:
388,134,46870,2,0,B|388:194|335:223|335:223|296:182|238:289,1,225.000008583069
289,335,47167,5,0,0:0:0:0:
305,327,47241,1,0,0:0:0:0:
322,318,47315,1,0,0:0:0:0:
338,309,47389,1,0,0:0:0:0:
355,300,47464,1,0,0:0:0:0:
371,291,47538,1,0,0:0:0:0:
388,282,47612,1,0,0:0:0:0:
396,122,47761,1,0,0:0:0:0:
184,200,47909,1,0,0:0:0:0:
78,195,48058,2,0,B|83:299|83:299|166:257|256:319,1,225.000008583069
247,250,48355,5,0,0:0:0:0:
263,242,48429,1,0,0:0:0:0:
280,233,48503,1,0,0:0:0:0:
296,224,48578,1,0,0:0:0:0:
313,215,48652,1,0,0:0:0:0:
329,206,48726,1,0,0:0:0:0:
346,197,48800,1,0,0:0:0:0:
282,42,48949,1,0,0:0:0:0:
117,225,49097,1,0,0:0:0:0:
146,111,49246,2,0,B|206:113|206:113|213:109|213:109|214:117|214:117|219:112|219:112|221:120|221:120|226:115|226:115|227:123|227:123|233:118|233:118|234:127|234:127|239:122|239:122|239:132|239:132|333:138|376:227,1,300.000011444092
200,284,49691,5,0,0:0:0:0:
336,55,49840,1,0,0:0:0:0:
108,126,49988,2,0,L|107:187,3,50.0000019073487
235,39,50285,1,0,0:0:0:0:
354,196,50434,2,0,B|288:165|211:249|211:249|170:292|60:239,1,300.000011444092
86,219,50805,5,0,0:0:0:0:
102,211,50880,1,0,0:0:0:0:
118,203,50954,1,0,0:0:0:0:
135,194,51028,1,0,0:0:0:0:
151,185,51102,1,0,0:0:0:0:
168,176,51177,1,0,0:0:0:0:
315,318,51325,1,0,0:0:0:0:
215,79,51474,1,0,0:0:0:0:
35,206,51622,2,0,B|63:269|36:348|36:348|94:285|175:278,1,300.000011444092
208,271,51993,5,0,0:0:0:0:
200,254,52068,1,0,0:0:0:0:
192,237,52142,1,0,0:0:0:0:
183,220,52216,1,0,0:0:0:0:
174,204,52290,1,0,0:0:0:0:
165,187,52365,1,0,0:0:0:0:
339,177,52513,1,0,0:0:0:0:
130,103,52662,1,0,0:0:0:0:
285,33,52810,2,0,B|333:98|419:102|419:102|458:181|398:281,1,300.000011444092
382,281,53182,5,0,0:0:0:0:
366,289,53256,1,0,0:0:0:0:
350,297,53330,1,0,0:0:0:0:
333,306,53404,1,0,0:0:0:0:
317,315,53479,1,0,0:0:0:0:
300,324,53553,1,0,0:0:0:0:
111,165,53701,1,0,0:0:0:0:
258,31,53850,1,0,0:0:0:0:
368,163,53998,2,0,P|302:137|211:147,1,150.000005722046
231,109,54295,6,0,P|191:155|177:197,1,100.000003814697
178,191,54518,6,0,P|174:236|199:280,1,79.9999975585938
187,267,54741,6,0,P|218:297|239:299,1,56.6666677474976
229,299,54964,6,0,P|247:305|266:292,1,39.9999987792969
263,294,55186,5,0,0:0:0:0:
256,192,63652,12,0,64543,0:0:0:0:
256,319,64840,5,0,0:0:0:0:
128,192,65137,1,0,0:0:0:0:
256,64,65434,1,0,0:0:0:0:
383,192,65731,1,0,0:0:0:0:
166,282,66028,5,0,0:0:0:0:
166,102,66325,1,0,0:0:0:0:
345,101,66622,1,0,0:0:0:0:
346,282,66919,1,0,0:0:0:0:
159,196,67068,5,0,0:0:0:0:
159,196,67142,1,0,0:0:0:0:
159,196,67216,2,0,P|215:115|324:118,1,200
270,235,67810,2,0,P|205:310|103:311,1,200
156,193,68256,5,0,0:0:0:0:
156,193,68330,1,0,0:0:0:0:
156,193,68404,1,0,0:0:0:0:
266,50,68553,1,0,0:0:0:0:
322,190,68701,1,0,0:0:0:0:
169,54,68850,1,0,0:0:0:0:
160,255,68998,1,0,0:0:0:0:
180,269,69073,1,0,0:0:0:0:
200,284,69147,2,0,L|215:317,3,33.3333333333333
383,246,69444,2,0,P|405:235|401:212,3,33.3333333333333
251,71,69741,5,0,0:0:0:0:
344,174,69889,2,0,P|274:185|224:173,1,100
371,66,70186,1,0,0:0:0:0:
473,187,70335,1,0,0:0:0:0:
368,298,70483,6,0,P|307:332|255:338,1,100
113,156,70781,1,0,0:0:0:0:
294,47,70929,1,0,0:0:0:0:
303,229,71078,1,0,0:0:0:0:
164,38,71226,1,0,0:0:0:0:
81,245,71375,6,0,L|131:278,1,50
143,201,71523,2,0,L|194:183,1,50
193,258,71672,2,0,L|240:281,1,50
261,215,71820,2,0,L|307:194,1,50
295,149,71969,5,0,0:0:0:0:
307,111,72043,1,0,0:0:0:0:
343,97,72117,1,0,0:0:0:0:
374,106,72191,1,0,0:0:0:0:
401,135,72266,1,0,0:0:0:0:
413,172,72340,1,0,0:0:0:0:
412,212,72414,1,0,0:0:0:0:
403,251,72488,1,0,0:0:0:0:
382,284,72563,1,0,0:0:0:0:
348,307,72637,1,0,0:0:0:0:
317,326,72711,1,0,0:0:0:0:
281,334,72785,1,0,0:0:0:0:
257,295,72860,2,0,L|235:306,7,25
205,256,73157,1,0,0:0:0:0:
128,143,73305,5,0,0:0:0:0:
320,264,73454,1,0,0:0:0:0:
222,50,73602,1,0,0:0:0:0:
209,280,73751,1,0,0:0:0:0:
343,142,73899,2,0,L|374:159,7,25
88,247,74345,6,0,L|100:305,3,50
158,227,74642,1,0,0:0:0:0:
131,123,74790,6,0,L|189:111,3,50
167,45,75087,1,0,0:0:0:0:
171,309,75236,6,0,L|183:367,3,50
241,289,75533,1,0,0:0:0:0:
229,178,75682,6,0,L|287:166,3,50
265,100,75979,1,0,0:0:0:0:
81,204,76127,6,0,P|154:240|238:220,1,150.000005722046
84,131,76424,2,0,B|164:114|237:151,1,150.000005722046
360,53,76721,6,0,P|384:76|401:117,1,50
411,140,76870,1,0,0:0:0:0:
403,184,76944,1,0,0:0:0:0:
381,222,77018,1,0,0:0:0:0:
443,319,77167,6,0,P|411:328|367:322,1,50
342,320,77316,1,0,0:0:0:0:
308,291,77390,1,0,0:0:0:0:
286,253,77464,1,0,0:0:0:0:
199,163,77612,6,0,P|175:186|158:227,1,50
148,250,77761,1,0,0:0:0:0:
156,294,77835,1,0,0:0:0:0:
178,332,77909,1,0,0:0:0:0:
234,265,78058,6,0,P|256:240|298:224,1,50
320,213,78207,1,0,0:0:0:0:
364,221,78281,1,0,0:0:0:0:
402,243,78355,1,0,0:0:0:0:
286,323,78503,6,0,B|331:243|331:243|415:282|475:191,1,250
379,177,78800,2,2,B|342:42|342:42|220:43|145:120,1,350.00000333786
177,240,79097,5,0,0:0:0:0:
152,186,79172,1,0,0:0:0:0:
148,127,79246,1,0,0:0:0:0:
174,73,79320,1,0,0:0:0:0:
222,39,79394,1,0,0:0:0:0:
350,63,79543,5,0,0:0:0:0:
388,108,79617,1,0,0:0:0:0:
404,165,79691,1,0,0:0:0:0:
393,224,79766,1,0,0:0:0:0:
358,272,79840,1,0,0:0:0:0:
258,288,79988,5,0,0:0:0:0:
274,230,80063,1,0,0:0:0:0:
313,185,80137,1,0,0:0:0:0:
367,160,80211,1,0,0:0:0:0:
404,113,80285,1,0,0:0:0:0:
391,25,80434,5,0,0:0:0:0:
331,27,80508,1,0,0:0:0:0:
271,37,80582,1,0,0:0:0:0:
213,52,80657,1,0,0:0:0:0:
158,74,80731,1,0,0:0:0:0:
110,299,80880,5,0,0:0:0:0:
223,189,81028,1,0,0:0:0:0:
337,321,81177,2,0,P|379:271|439:254,1,119.999996337891
377,123,81474,5,0,0:0:0:0:
317,90,81548,1,0,0:0:0:0:
250,82,81622,1,0,0:0:0:0:
185,102,81696,1,0,0:0:0:0:
134,145,81771,1,0,0:0:0:0:
296,297,81919,5,0,0:0:0:0:
347,252,81993,1,0,0:0:0:0:
375,192,82068,1,0,0:0:0:0:
377,123,82142,1,0,0:0:0:0:
351,61,82216,1,0,0:0:0:0:
121,220,82365,5,0,0:0:0:0:
171,260,82439,1,0,0:0:0:0:
211,278,82513,1,0,0:0:0:0:
243,288,82587,1,0,0:0:0:0:
268,291,82662,1,0,0:0:0:0:
186,354,82810,5,0,0:0:0:0:
254,136,82959,1,0,0:0:0:0:
361,323,83107,2,0,L|370:307,8,16.2499992561341
440,191,83404,2,0,L|424:182,8,16.2499992561341
257,273,83701,5,0,0:0:0:0:
91,166,83850,1,0,0:0:0:0:
323,44,84147,2,0,P|326:97|355:154,1,100
162,317,84592,5,0,0:0:0:0:
94,237,84741,1,0,0:0:0:0:
197,222,84889,1,0,0:0:0:0:
125,145,85038,1,0,0:0:0:0:
125,145,85186,2,0,P|162:109|208:94,2,100
287,316,85929,6,0,L|335:288,1,50
296,229,86078,2,0,L|253:254,1,50
262,168,86226,1,0,0:0:0:0:
376,77,86375,2,0,P|414:111|476:111,1,100
443,236,86672,1,0,0:0:0:0:
153,69,87117,6,0,P|108:106|84:166,1,100
155,228,87414,1,0,0:0:0:0:
290,74,87711,1,0,0:0:0:0:
323,171,87860,1,0,0:0:0:0:
71,139,88008,1,0,0:0:0:0:
71,139,88082,1,0,0:0:0:0:
71,139,88157,2,0,B|73:258|137:277|137:277|228:230|304:320,1,300.000011444092
366,191,88602,6,0,B|403:171|403:171|427:67,2,133.333333333333
279,173,89196,2,0,B|263:133|263:133|311:38,2,133.333333333333
322,260,89790,2,0,B|236:310|236:310|181:295,1,133.333333333333
106,182,90199,1,0,0:0:0:0:
339,51,90384,1,0,0:0:0:0:
292,219,90570,1,0,0:0:0:0:
189,71,90793,1,0,0:0:0:0:
146,301,90979,1,0,0:0:0:0:
312,298,91127,6,0,P|317:321|341:308,2,33.3333333333333
345,298,91276,1,0,0:0:0:0:
218,243,91424,2,0,P|213:266|189:253,2,33.3333333333333
185,243,91573,1,0,0:0:0:0:
401,165,91721,2,0,P|406:188|430:175,2,33.3333333333333
434,165,91870,1,0,0:0:0:0:
149,72,92018,2,0,P|144:95|120:82,2,33.3333333333333
116,72,92167,1,0,0:0:0:0:
80,221,92315,5,0,0:0:0:0:
276,278,92464,1,0,0:0:0:0:
180,103,92612,1,0,0:0:0:0:
460,124,92761,2,0,L|449:92,5,33.3333333333333
455,141,93058,2,0,L|430:200,1,50
339,198,93206,2,0,L|361:267,1,50
442,331,93355,1,0,0:0:0:0:
256,192,93429,12,0,94245,0:0:0:0:
292,135,94543,5,0,0:0:0:0:
193,237,94691,1,0,0:0:0:0:
342,284,94840,1,0,0:0:0:0:
366,289,94914,1,0,0:0:0:0:
391,287,94988,1,0,0:0:0:0:
414,279,95063,1,0,0:0:0:0:
427,225,95137,6,0,L|350:191,1,64.9999970245363
346,110,95285,2,0,L|260:136,1,64.9999970245363
285,214,95434,2,0,L|209:239,1,64.9999970245363
206,153,95582,2,0,L|139:122,1,64.9999970245363
114,272,95731,2,0,B|135:302|135:302|183:270|252:285,2,150.000005722046
42,141,96177,1,0,0:0:0:0:
163,213,96325,6,0,L|227:193,1,64.9999970245363
232,274,96474,2,0,L|296:294,1,64.9999970245363
314,211,96622,1,0,0:0:0:0:
350,179,96696,1,0,0:0:0:0:
375,138,96771,1,0,0:0:0:0:
386,91,96845,1,0,0:0:0:0:
383,44,96919,6,0,B|356:60|356:60|296:28|232:52,2,150.000005722046
249,151,97365,1,0,0:0:0:0:
461,194,97513,5,0,0:0:0:0:
455,242,97587,1,0,0:0:0:0:
422,279,97662,1,0,0:0:0:0:
375,291,97736,1,0,0:0:0:0:
371,339,97810,5,0,0:0:0:0:
329,364,97884,1,0,0:0:0:0:
279,363,97959,1,0,0:0:0:0:
239,335,98033,1,0,0:0:0:0:
214,295,98107,6,0,B|184:286|184:286|129:341|70:295,2,150.000005722046
233,217,98553,1,0,0:0:0:0:
124,132,98701,1,0,0:0:0:0:
184,46,98850,1,0,0:0:0:0:
230,45,98924,2,0,P|273:43|316:45,1,64.9999970245363
325,79,99073,1,0,0:0:0:0:
345,116,99147,1,0,0:0:0:0:
379,143,99221,1,0,0:0:0:0:
420,156,99295,1,0,0:0:0:0:
425,250,99444,5,0,0:0:0:0:
374,289,99518,2,0,P|331:291|288:289,1,64.9999970245363
264,247,99667,1,0,0:0:0:0:
225,197,99741,1,0,0:0:0:0:
187,159,99815,1,0,0:0:0:0:
139,151,99889,2,0,P|94:203|268:313,1,340.000006484985
258,53,100483,6,0,B|290:95|290:95|343:65|415:105,2,150.000005722046
151,101,100929,1,0,0:0:0:0:
61,218,101078,1,0,0:0:0:0:
210,309,101226,1,0,0:0:0:0:
235,282,101300,1,0,0:0:0:0:
256,251,101375,1,0,0:0:0:0:
463,47,101523,6,0,L|381:77,1,75.0000028610231
395,160,101672,2,0,L|313:130,1,75.0000028610231
304,59,101820,2,0,L|222:89,1,75.0000028610231
236,172,101969,2,0,L|154:142,1,75.0000028610231
91,88,102117,2,0,P|68:130|67:174,1,75.0000028610231
35,227,102266,6,0,L|121:242,1,75.0000028610231
149,160,102414,2,0,L|205:226,1,75.0000028610231
177,292,102563,2,0,L|263:307,1,75.0000028610231
293,227,102711,2,0,L|349:293,1,75.0000028610231
385,348,102860,5,0,0:0:0:0:
410,311,102934,1,0,0:0:0:0:
427,261,103008,1,0,0:0:0:0:
428,202,103082,1,0,0:0:0:0:
406,138,103157,1,0,0:0:0:0:
359,81,103231,1,0,0:0:0:0:
290,53,103305,1,0,0:0:0:0:
214,37,103380,1,0,0:0:0:0:
120,52,103454,5,0,0:0:0:0:
239,138,103602,5,0,0:0:0:0:
179,138,103677,1,0,0:0:0:0:
126,216,103825,5,0,0:0:0:0:
176,248,103899,1,0,0:0:0:0:
235,251,103974,1,0,0:0:0:0:
289,226,104048,1,0,0:0:0:0:
95,114,104196,1,0,0:0:0:0:
391,31,104345,1,0,0:0:0:0:
123,280,104493,1,0,0:0:0:0:
396,183,104642,2,0,P|391:153|372:123,3,50.0000019073487
300,159,104865,6,0,B|335:261|335:261|197:349|63:251,1,375.000014305115
204,189,105533,2,0,P|117:184|76:134,1,150.000005722046
161,101,105830,1,0,0:0:0:0:
298,153,105979,1,0,0:0:0:0:
274,243,106127,2,0,P|369:208|391:132,1,150.000005722046
320,60,106424,5,0,0:0:0:0:
255,45,106498,1,0,0:0:0:0:
191,64,106573,1,0,0:0:0:0:
145,111,106647,1,0,0:0:0:0:
128,176,106721,1,0,0:0:0:0:
145,241,106795,1,0,0:0:0:0:
188,293,106870,1,0,0:0:0:0:
232,244,106944,1,0,0:0:0:0:
230,178,107018,5,0,0:0:0:0:
184,131,107092,1,0,0:0:0:0:
118,129,107167,1,0,0:0:0:0:
69,174,107241,1,0,0:0:0:0:
64,239,107315,1,0,0:0:0:0:
92,292,107389,1,0,0:0:0:0:
146,316,107464,1,0,0:0:0:0:
191,278,107538,1,0,0:0:0:0:
173,221,107612,5,0,0:0:0:0:
130,175,107686,1,0,0:0:0:0:
116,115,107761,1,0,0:0:0:0:
148,62,107835,1,0,0:0:0:0:
207,45,107909,1,0,0:0:0:0:
262,73,107983,1,0,0:0:0:0:
283,130,108058,1,0,0:0:0:0:
244,174,108132,1,0,0:0:0:0:
211,221,108206,5,0,0:0:0:0:
214,278,108281,1,0,0:0:0:0:
250,323,108355,1,0,0:0:0:0:
306,336,108429,1,0,0:0:0:0:
359,315,108503,1,0,0:0:0:0:
389,265,108578,1,0,0:0:0:0:
383,208,108652,1,0,0:0:0:0:
344,165,108726,1,0,0:0:0:0:
294,145,108800,5,0,0:0:0:0:
278,95,108875,1,0,0:0:0:0:
312,57,108949,1,0,0:0:0:0:
362,67,109023,1,0,0:0:0:0:
378,117,109097,1,0,0:0:0:0:
354,161,109172,1,0,0:0:0:0:
324,200,109246,1,0,0:0:0:0:
293,238,109320,1,0,0:0:0:0:
264,287,109394,6,0,P|206:323|118:283,1,150.000005722046
105,265,109617,2,0,L|117:105,1,150.000005722046
150,94,109840,2,0,P|226:112|292:59,1,150.000005722046
226,209,110137,1,0,0:0:0:0:
419,73,110285,1,0,0:0:0:0:
415,251,110434,5,0,0:0:0:0:
401,312,110508,1,0,0:0:0:0:
346,343,110582,1,0,0:0:0:0:
287,323,110657,1,0,0:0:0:0:
262,266,110731,1,0,0:0:0:0:
288,208,110805,1,0,0:0:0:0:
354,203,110880,1,0,0:0:0:0:
415,192,110954,1,0,0:0:0:0:
442,136,111028,5,0,0:0:0:0:
412,81,111102,1,0,0:0:0:0:
350,74,111177,1,0,0:0:0:0:
285,77,111251,1,0,0:0:0:0:
220,78,111325,1,0,0:0:0:0:
157,96,111399,1,0,0:0:0:0:
102,129,111474,1,0,0:0:0:0:
56,175,111548,1,0,0:0:0:0:
61,252,111622,5,0,0:0:0:0:
115,284,111696,1,0,0:0:0:0:
146,215,111771,1,0,0:0:0:0:
186,145,111845,1,0,0:0:0:0:
263,122,111919,1,0,0:0:0:0:
338,149,111993,1,0,0:0:0:0:
378,219,112068,1,0,0:0:0:0:
361,298,112142,1,0,0:0:0:0:
297,349,112216,5,0,0:0:0:0:
217,347,112290,1,0,0:0:0:0:
153,307,112365,2,0,L|216:248,1,75.0000028610231
149,195,112513,2,0,L|253:181,1,75.0000028610231
294,37,112662,2,0,L|270:134,1,75.0000028610231
345,161,112810,2,0,L|257:216,1,75.0000028610231
51,270,112959,2,0,L|163:274,1,75.0000028610231
170,345,113107,2,0,L|212:279,1,75.0000028610231
426,30,113256,2,0,L|345:93,1,75.0000028610231
279,73,113404,2,0,L|334:177,1,75.0000028610231
351,350,113553,5,0,0:0:0:0:
85,157,113701,1,0,0:0:0:0:
413,157,113850,1,0,0:0:0:0:
148,350,113998,1,0,0:0:0:0:
249,38,114147,2,0,L|268:95,6,37.5000014305115
283,146,114444,2,0,P|221:188|104:152,1,150.000005722046
82,63,114741,5,0,0:0:0:0:
292,263,114889,1,0,0:0:0:0:
44,345,115038,1,0,0:0:0:0:
355,119,115186,5,0,0:0:0:0:
87,128,115335,1,0,0:0:0:0:
216,330,115483,1,0,0:0:0:0:
257,38,115632,5,0,0:0:0:0:
83,256,115781,1,0,0:0:0:0:
374,220,115929,1,0,0:0:0:0:
140,72,116078,5,0,0:0:0:0:
163,301,116226,1,0,0:0:0:0:
382,159,116375,1,0,0:0:0:0:
93,183,116523,5,0,0:0:0:0:
274,67,116672,5,0,0:0:0:0:
483,109,116820,5,0,0:0:0:0:
338,285,116969,1,0,0:0:0:0:
184,164,117117,5,0,0:0:0:0:
184,36,117266,1,0,0:0:0:0:
420,131,117414,1,0,0:0:0:0:
426,173,117488,1,0,0:0:0:0:
415,214,117563,5,0,0:0:0:0:
350,324,117711,1,0,0:0:0:0:
286,214,117860,1,0,0:0:0:0:
193,319,118008,5,0,0:0:0:0:
110,194,118157,1,0,0:0:0:0:
286,155,118305,1,0,0:0:0:0:
95,62,118454,1,0,0:0:0:0:
236,254,118602,1,0,0:0:0:0:
417,53,118751,5,0,0:0:0:0:
125,127,118899,1,0,0:0:0:0:
457,206,119048,1,0,0:0:0:0:
273,52,119196,2,0,L|239:134,3,66.6666666666667
84,277,119493,6,0,L|85:322,8,37.5000014305115
308,314,119790,5,0,0:0:0:0:
252,73,119939,1,0,0:0:0:0:
393,218,120087,1,0,0:0:0:0:
200,196,120236,5,0,0:0:0:0:
477,62,120384,1,0,0:0:0:0:
250,263,120533,1,0,0:0:0:0:
387,42,120682,1,0,0:0:0:0:
380,265,120830,5,0,0:0:0:0:
252,49,120979,1,0,0:0:0:0:
117,248,121127,1,0,0:0:0:0:
372,133,121276,5,0,0:0:0:0:
246,329,121424,1,0,0:0:0:0:
123,127,121573,1,0,0:0:0:0:
373,274,121721,1,0,0:0:0:0:
251,62,121870,5,0,0:0:0:0:
461,48,122464,5,0,0:0:0:0:
240,342,123058,5,0,0:0:0:0:
68,168,123206,1,0,0:0:0:0:
289,160,123355,1,0,0:0:0:0:
43,349,123503,5,0,0:0:0:0:
160,42,123652,1,0,0:0:0:0:
193,265,123800,1,0,0:0:0:0:
232,309,123875,1,0,0:0:0:0:
287,333,123949,2,0,L|349:341,6,50
301,258,124246,6,0,B|367:98|367:98|279:153|182:117,1,300
216,130,124543,1,0,0:0:0:0:
114,278,124691,1,0,0:0:0:0:
41,42,124840,1,0,0:0:0:0:
246,268,124988,5,0,0:0:0:0:
310,281,125063,1,0,0:0:0:0:
372,259,125137,1,0,0:0:0:0:
413,207,125211,1,0,0:0:0:0:
420,142,125285,1,0,0:0:0:0:
392,82,125360,1,0,0:0:0:0:
337,46,125434,6,0,B|288:122|288:122|183:67|64:154,2,300
345,88,125954,1,0,0:0:0:0:
293,128,126028,1,0,0:0:0:0:
266,189,126102,1,0,0:0:0:0:
271,255,126177,1,0,0:0:0:0:
306,310,126251,1,0,0:0:0:0:
363,343,126325,1,0,0:0:0:0:
443,53,126474,1,0,0:0:0:0:
142,107,126622,6,0,B|79:199|79:199|158:249|191:376,2,300
283,304,127216,1,0,0:0:0:0:
307,56,127365,1,0,0:0:0:0:
44,38,127513,1,0,0:0:0:0:
114,257,127662,6,0,B|153:204|153:204|214:170,1,125
235,177,127810,2,0,P|313:261|434:271,1,200
416,251,128033,2,0,B|428:184|428:184|420:127,1,125
395,143,128182,5,0,0:0:0:0:
369,90,128256,1,0,0:0:0:0:
315,68,128330,1,0,0:0:0:0:
260,90,128404,1,0,0:0:0:0:
235,143,128479,1,0,0:0:0:0:
253,199,128553,1,0,0:0:0:0:
301,230,128627,5,0,0:0:0:0:
308,307,128701,1,0,0:0:0:0:
259,368,128776,1,0,0:0:0:0:
181,376,128850,1,0,0:0:0:0:
120,328,128924,1,0,0:0:0:0:
91,188,128998,5,0,0:0:0:0:
161,226,129097,1,0,0:0:0:0:
232,263,129196,5,0,0:0:0:0:
158,145,129295,5,0,0:0:0:0:
228,182,129394,1,0,0:0:0:0:
299,219,129493,1,0,0:0:0:0:
226,103,129592,5,0,0:0:0:0:
296,140,129691,1,0,0:0:0:0:
367,177,129790,1,0,0:0:0:0:
372,260,129889,5,0,0:0:0:0:
279,291,129988,1,0,0:0:0:0:
191,250,130087,1,0,0:0:0:0:
156,159,130186,5,0,0:0:0:0:
183,75,130285,1,0,0:0:0:0:
265,46,130384,1,0,0:0:0:0:
360,66,130483,5,0,0:0:0:0:
404,152,130582,1,0,0:0:0:0:
325,212,130682,1,0,0:0:0:0:
414,280,130781,5,0,0:0:0:0:
449,224,130855,1,0,0:0:0:0:
474,165,130929,1,0,0:0:0:0:
454,104,131003,1,0,0:0:0:0:
400,71,131078,2,0,L|342:98,2,50
414,60,131226,2,0,L|442:46,4,25
394,44,131375,5,0,0:0:0:0:
251,102,131523,1,0,0:0:0:0:
443,222,131672,1,0,0:0:0:0:
435,270,131746,1,0,0:0:0:0:
402,307,131820,2,0,P|337:348|231:320,1,150.000005722046
317,224,132117,5,0,0:0:0:0:
340,42,132266,1,0,0:0:0:0:
184,113,132414,1,0,0:0:0:0:
423,151,132563,5,0,0:0:0:0:
179,263,132711,1,0,0:0:0:0:
410,274,132860,5,0,0:0:0:0:
126,50,133008,1,0,0:0:0:0:
421,48,133157,5,0,0:0:0:0:
57,217,133305,1,0,0:0:0:0:
339,92,133454,1,0,0:0:0:0:
397,136,133528,1,0,0:0:0:0:
408,208,133602,2,0,P|390:284|302:322,1,150.000005722046
275,177,133899,5,0,0:0:0:0:
135,297,134048,1,0,0:0:0:0:
127,223,134122,1,0,0:0:0:0:
152,153,134196,1,0,0:0:0:0:
353,308,134345,1,0,0:0:0:0:
406,75,134493,1,0,0:0:0:0:
294,119,134642,1,0,0:0:0:0:
387,195,134790,1,0,0:0:0:0:
235,347,134939,1,0,0:0:0:0:
276,33,135087,5,0,0:0:0:0:
47,234,135236,5,0,0:0:0:0:
410,319,135384,5,0,0:0:0:0:
109,118,135533,6,0,L|143:207,1,75.0000028610231
199,331,135682,6,0,L|269:304,1,75.0000028610231
403,266,135830,6,0,L|369:177,1,75.0000028610231
316,35,135979,6,0,L|276:115,1,75.0000028610231
256,191,136127,5,0,0:0:0:0:
256,191,136721,2,0,L|256:279,2,75.0000028610231
154,193,137018,2,0,L|198:112,1,75.0000028610231
358,193,137167,2,0,L|314:112,1,75.0000028610231
220,35,137315,5,0,0:0:0:0:
202,280,137464,1,0,0:0:0:0:
367,98,137612,1,0,0:0:0:0:
72,119,137761,1,0,0:0:0:0:
345,322,137909,5,0,0:0:0:0:
347,234,137983,1,0,0:0:0:0:
289,168,138058,1,0,0:0:0:0:
201,162,138132,1,0,0:0:0:0:
133,217,138206,1,0,0:0:0:0:
114,301,138281,1,0,0:0:0:0:
201,322,138355,1,0,0:0:0:0:
286,298,138429,1,0,0:0:0:0:
347,233,138503,1,0,0:0:0:0:
416,64,139691,5,0,0:0:0:0:
163,164,140880,5,0,0:0:0:0:
383,295,142068,5,0,0:0:0:0:
256,26,143256,6,0,L|256:135,1,62.5
