osu file format v14

[General]
AudioFilename: audio.mp3
AudioLeadIn: 0
PreviewTime: 47812
Countdown: 0
SampleSet: Soft
StackLeniency: 0.6
Mode: 0
LetterboxInBreaks: 0
WidescreenStoryboard: 0

[Editor]
DistanceSpacing: 1
BeatDivisor: 4
GridSize: 4
TimelineZoom: 1

[Metadata]
Title:The Spirit Tree (feat. Aeralie Brighton)
TitleUnicode:The Spirit Tree (feat. Aeralie Brighton)
Artist:Gareth Coker
ArtistUnicode:Gareth Coker
Creator:Phyloukz
Version:Simple
Source:Ori and the Blind Forest
Tags:Moon Studios
BeatmapID:1041866
BeatmapSetID:488631

[Difficulty]
HPDrainRate:2
CircleSize:3
OverallDifficulty:2
ApproachRate:3
SliderMultiplier:1
SliderTickRate:1

[Events]
//Background and Video events
0,0,"bg.jpg",0,0
//Break Periods
//Storyboard Layer 0 (Background)
//Storyboard Layer 1 (Fail)
//Storyboard Layer 2 (Pass)
//Storyboard Layer 3 (Foreground)
//Storyboard Sound Samples

[TimingPoints]
85,545.454545454546,4,2,0,25,1,0
16994,-83.3333333333333,4,2,0,40,0,0
52448,-83.3333333333333,4,2,0,40,0,1
65539,-83.3333333333333,4,2,0,40,0,0
69903,-83.3333333333333,4,2,0,40,0,1
87357,-83.3333333333333,4,2,0,40,0,0

[Colours]
Combo1 : 183,0,0
Combo2 : 0,0,182
Combo3 : 0,183,0
Combo4 : 91,255,255

[HitObjects]
311,249,85,6,0,P|322:197|356:160,2,100,2|0|2,0:0|0:0|0:0,0:0:0:0:
411,244,1721,1,0,0:0:0:0:
201,249,4448,6,0,P|190:197|156:160,2,100,2|0|2,0:0|0:0|0:0,0:0:0:0:
101,244,6084,1,0,0:0:0:0:
255,49,8812,5,2,0:0:0:0:
306,134,9357,2,0,B|256:144|256:144|206:134,2,100,0|2|0,0:0|0:0|0:0,0:0:0:0:
404,113,10994,1,2,0:0:0:0:
256,336,13175,6,0,B|249:311|256:286|256:286|264:260|256:234,1,100,2|0,0:0|0:0,0:0:0:0:
206,150,14266,1,2,0:0:0:0:
115,106,14812,1,0,0:0:0:0:
445,85,16994,5,2,0:0:0:0:
343,149,17539,2,0,P|284:159|225:149,1,119.999996337891,6|0,0:0|0:0,0:0:0:0:
122,86,18630,1,2,0:0:0:0:
20,149,19175,1,0,3:0:0:0:
25,268,19721,2,0,P|83:250|127:201,2,119.999996337891,2|0|2,0:0|0:0|0:0,0:0:0:0:
258,207,21903,6,0,P|299:249|355:268,1,119.999996337891,2|0,0:0|0:0,0:0:0:0:
362,148,22994,1,2,0:0:0:0:
261,83,23539,1,0,3:0:0:0:
367,26,24085,2,0,B|416:28|448:61|448:61|466:66|483:57,2,119.999996337891,2|0|2,0:0|0:0|0:0,0:0:0:0:
136,91,26266,6,0,P|152:150|201:198,1,119.999996337891,2|0,0:0|0:0,0:0:0:0:
310,207,27357,1,2,0:0:0:0:
389,297,27903,1,0,3:0:0:0:
507,317,28448,2,0,B|514:279|500:234|469:208|469:208|500:184|513:136|504:96,1,239.999992675781,2|2,0:0|0:0,0:0:0:0:
294,201,30630,6,0,P|232:186|170:204,1,119.999996337891,2|0,0:0|0:0,0:0:0:0:
118,303,31721,2,0,P|180:318|237:306,1,119.999996337891,2|0,0:0|0:0,0:0:0:0:
294,201,32812,1,2,0:0:0:0:
294,201,34448,2,0,L|259:265,1,59.9999981689454,2|2,0:0|0:0,0:0:0:0:
234,307,34994,6,0,P|290:323|356:306,1,119.999996337891,2|0,0:0|0:0,0:0:0:0:
414,209,36085,1,2,0:0:0:0:
294,201,36630,1,0,3:0:0:0:
240,93,37175,2,0,P|297:79|355:95,2,119.999996337891,2|0|2,0:0|0:0|0:0,0:0:0:0:
125,304,39357,6,0,P|182:319|239:305,2,119.999996337891,2|0|2,0:0|0:0|0:0,0:0:0:0:
184,199,40994,1,0,3:0:0:0:
303,199,41539,2,0,P|345:240|363:300,2,119.999996337891,2|0|2,0:0|0:0|0:0,0:0:0:0:
70,141,43721,6,0,P|28:100|10:40,1,119.999996337891,2|0,0:0|0:0,0:0:0:0:
130,36,44812,1,2,0:0:0:0:
245,66,45357,1,0,3:0:0:0:
342,136,45903,2,0,B|355:152|361:176|361:176|390:203|431:212,2,119.999996337891,2|0|2,0:0|0:0|0:0,0:0:0:0:
211,337,48085,6,0,P|195:281|214:216,1,119.999996337891,2|0,0:0|0:0,0:0:0:0:
152,117,49175,2,0,P|209:100|266:115,1,119.999996337891,2|0,0:0|0:0,0:0:0:0:
371,58,50266,2,0,P|387:115|372:172,1,119.999996337891,2|0,0:0|0:0,0:0:0:0:
429,277,51357,2,0,P|371:293|314:278,1,119.999996337891,2|0,0:0|0:0,0:0:0:0:
217,206,52448,6,0,B|180:267|203:322|203:322|167:273|97:267,1,239.999992675781,6|2,0:0|0:0,0:0:0:0:
112,147,54085,1,0,3:0:0:0:
194,60,54630,2,0,B|262:52|306:91|306:91|365:80|365:80|445:95,1,239.999992675781,2|2,0:0|0:0,0:0:0:0:
365,323,56812,6,0,B|356:294|366:264|366:264|377:236|366:205|366:205|310:218|310:218|241:203,1,239.999992675781,2|2,0:0|0:0,0:0:0:0:
137,160,58448,1,0,3:0:0:0:
225,76,58994,2,0,B|310:93|310:93|343:84|365:59|365:59|412:46|459:60,1,239.999992675781,2|2,0:0|0:0,0:0:0:0:
478,293,61175,6,0,B|448:318|406:327|406:327|365:321|327:293|327:293|286:315|244:307,1,239.999992675781,2|2,0:0|0:0,0:0:0:0:
267,186,62812,1,0,3:0:0:0:
278,64,63357,2,0,B|223:58|160:95|149:164|149:164|117:173|87:165,1,239.999992675781,2|2,0:0|0:0,0:0:0:0:
302,277,65539,6,0,B|342:268|378:280|378:280|405:264|409:243,1,119.999996337891,6|0,0:0|0:0,0:0:0:0:
428,193,66357,2,0,P|425:162|409:126,1,59.9999981689454
338,42,67175,1,0,0:0:0:0:
218,28,67721,2,0,P|121:90|176:180,1,239.999992675781,2|0,0:0|0:0,0:0:0:0:
292,180,69357,2,0,P|323:181|350:190,1,59.9999981689454,2|2,0:0|0:0,0:0:0:0:
371,247,69903,6,0,B|337:304|274:311|274:311|250:383|375:367,1,239.999992675781,6|2,0:0|0:0,0:0:0:0:
467,351,71539,1,0,3:0:0:0:
488,233,72085,2,0,B|506:135|439:155|439:155|426:223|364:249,1,239.999992675781,2|2,0:0|0:0,0:0:0:0:
132,280,74266,6,0,B|77:281|46:256|46:256|98:196|70:116,1,239.999992675781,6|2,0:0|0:0,0:0:0:0:
124,11,75903,1,0,3:0:0:0:
230,68,76448,2,0,B|283:93|346:61|346:61|367:119|435:134,1,239.999992675781,2|2,0:0|0:0,0:0:0:0:
262,302,78630,6,0,B|201:286|148:324|148:324|71:325|46:243,1,239.999992675781,2|2,0:0|0:0,0:0:0:0:
48,143,80266,1,0,3:0:0:0:
103,36,80812,2,0,B|133:33|162:48|162:48|216:86|270:48|270:48|299:33|332:36,1,239.999992675781,2|2,0:0|0:0,0:0:0:0:
256,192,82994,12,4,87357,0:0:0:0:
