osu file format v14

[General]
AudioFilename: audio.mp3
AudioLeadIn: 0
PreviewTime: 53628
Countdown: 1
SampleSet: Soft
StackLeniency: 0.7
Mode: 0
LetterboxInBreaks: 0
WidescreenStoryboard: 0

[Editor]
DistanceSpacing: 4
BeatDivisor: 8
GridSize: 8
TimelineZoom: 1

[Metadata]
Title:The Sacrifice (E3 Trailer Version)
TitleUnicode:The Sacrifice (E3 Trailer Version)
Artist:Gareth Coker
ArtistUnicode:Gareth Coker
Creator:yosario
Version:We Will Remember the Night
Source:Ori and the Will of the Wisps
Tags:
BeatmapID:1394991
BeatmapSetID:658642

[Difficulty]
HPDrainRate:2
CircleSize:4
OverallDifficulty:3
ApproachRate:7
SliderMultiplier:0.7
SliderTickRate:1

[Events]
//Background and Video events
0,0,"wisps.jpg",0,0
//Break Periods
2,6741,11318
2,74825,84016
2,90174,94045
2,100115,103377
//Storyboard Layer 0 (Background)
//Storyboard Layer 1 (Fail)
//Storyboard Layer 2 (Pass)
//Storyboard Layer 3 (Foreground)
//Storyboard Sound Samples

[TimingPoints]
867,810.810810810811,4,2,0,10,1,0
867,-50,4,2,0,5,0,0
5731,-100,4,2,0,10,0,0
12218,-50,4,2,0,5,0,0
17083,-100,4,2,0,10,0,0
19515,-133.333333333333,4,2,0,10,0,0
21948,-133.333333333333,4,2,0,5,0,0
30867,-133.333333333333,4,2,0,10,0,0
31677,731.707317073171,4,2,0,15,1,0
31677,-50,4,2,0,15,0,0
34603,-100,4,2,0,15,0,0
36067,-50,4,2,0,15,0,0
40091,-66.6666666666667,4,2,0,15,0,0
43384,-50,4,2,0,15,0,0
44847,-66.6666666666667,4,2,0,15,0,0
46311,-50,4,2,0,15,0,0
49237,-66.6666666666667,4,2,0,15,0,0
50701,-100,4,2,0,5,0,0
55091,697.674418604651,4,2,0,20,1,0
55091,-50,4,2,0,20,0,1
57881,-100,4,2,0,20,0,1
59277,-100,4,2,0,20,0,1
60672,-50,4,2,0,20,0,1
63454,-66.6666666666667,4,2,0,20,0,1
66253,-100,4,2,0,20,0,1
69044,-100,4,2,0,15,0,1
71835,-200,4,2,0,10,0,1
74625,-200,4,2,0,10,0,0
84916,-50,4,2,0,5,0,0
89277,-100,4,2,0,10,0,0
94858,-50,4,2,0,5,0,0
99218,-100,4,2,0,10,0,0
104277,-100,4,2,0,5,0,0
105104,722.89156626506,4,2,0,5,1,0
105104,-50,4,2,0,5,0,0
106549,-66.6666666666667,4,2,0,5,0,0
107995,-50,4,2,0,5,0,0
109441,-66.6666666666667,4,2,0,5,0,0
111248,-50,4,2,0,5,0,0
112573,-66.6666666666667,4,2,0,5,0,0
115585,-133.333333333333,4,2,0,5,0,0
118808,810.810810810811,4,1,0,5,1,0
118808,-100,4,2,0,15,0,0

[Colours]
Combo1 : 0,128,192
Combo2 : 0,128,255
Combo3 : 37,185,239
Combo4 : 128,255,255
Combo5 : 255,255,255

[HitObjects]
96,96,867,6,0,L|128:160,1,70
208,96,1677,2,0,L|240:160,1,70
144,248,2488,1,0,0:0:0:0:
272,208,2894,1,0,0:0:0:0:
152,152,3299,1,0,0:0:0:0:
216,264,3704,1,0,0:0:0:0:
296,200,4110,6,0,L|328:136,1,70
224,144,4921,6,0,L|192:206,1,70
344,296,5731,6,0,P|375:309|409:320,1,70
352,80,12218,6,0,P|386:90|443:123,1,70
352,192,13029,2,0,P|317:181|260:148,1,70
232,80,13839,1,0,0:0:0:0:
176,200,14245,1,0,0:0:0:0:
128,80,14650,1,0,0:0:0:0:
248,136,15056,1,0,0:0:0:0:
376,184,15461,6,0,B|408:216|424:248,1,70
328,296,16272,2,0,P|288:296|240:280,1,70
136,176,17083,6,0,B|136:136|136:136|144:104,1,70
376,224,19515,6,0,B|376:272|376:272|352:320,1,98.4375037550928
288,280,21948,5,0,0:0:0:0:
192,304,22758,1,0,0:0:0:0:
128,112,25191,5,0,0:0:0:0:
184,200,26002,1,0,0:0:0:0:
272,160,26812,1,0,0:0:0:0:
264,256,27623,1,0,0:0:0:0:
152,328,28434,1,0,0:0:0:0:
144,112,30867,5,0,0:0:0:0:
144,112,31677,2,0,B|208:144|272:128|272:128|208:224,1,245
256,280,33140,2,0,P|176:296|136:216,1,175
88,160,34237,1,0,0:0:0:0:
88,160,34603,2,0,B|144:150|144:150|188:169,1,105
168,240,36067,2,0,P|216:240|256:152,1,140
224,80,37530,6,0,B|144:96|144:96|176:144|176:144|48:144|112:240|112:240|80:288,1,350
192,296,39725,2,0,L|240:296,1,35
288,336,40091,2,0,P|292:262|224:224,1,157.500006008148
224,144,41555,1,0,0:0:0:0:
224,144,41920,2,0,B|288:160|288:160|336:184,1,105.000004005432
152,240,43384,6,0,P|80:192|104:112,1,175
160,168,44481,1,0,0:0:0:0:
160,168,44847,2,0,B|208:184|208:184|256:216|256:216|304:232,1,157.500006008148
336,296,46311,2,0,P|368:264|336:168,1,140
320,96,47408,2,0,L|288:112,1,35
256,192,47774,2,0,P|288:256|432:240,1,210
464,192,49237,6,0,B|431:128|431:128|353:72,1,157.500006008148
304,160,50701,2,0,B|285:210|285:210|321:255|320:288,1,140
240,208,53628,5,0,0:0:0:0:
192,128,55091,2,0,P|112:208|184:296,1,245
216,232,56486,2,0,P|256:296|232:352,1,140
176,296,57532,1,0,0:0:0:0:
176,296,57881,2,0,B|112:267|112:267|79:203,1,140
256,112,60672,6,0,B|335:110|386:68|386:68|368:160,1,210
440,168,62067,2,0,P|384:208|320:184,1,140
264,136,63114,1,0,0:0:0:0:
264,136,63463,2,0,B|232:184|232:184|216:296,1,157.500006008148
328,256,64858,2,0,B|360:272|399:265|399:265|424:304|470:332,1,157.500006008148
328,336,66253,2,0,B|245:344|245:344|187:318|123:306,1,210
208,176,69044,6,0,P|320:208|288:272,1,210
173,251,71835,2,0,B|94:239|94:239|33:213,1,140
288,112,84916,6,0,L|320:208,1,70
416,144,85614,2,0,L|448:224,1,70
288,296,86370,1,0,0:0:0:0:
376,168,86718,1,0,0:0:0:0:
440,288,87067,1,0,0:0:0:0:
312,240,87416,1,0,0:0:0:0:
225,165,87794,6,0,B|193:181|193:181|168:216,1,70
268,255,88492,2,0,L|348:303,1,70
416,136,89277,6,0,P|424:96|424:64,1,70
192,112,94945,6,0,P|224:98|257:87,1,70
336,160,95643,2,0,P|303:173|270:184,1,70
144,72,96370,1,0,0:0:0:0:
112,224,96718,1,0,0:0:0:0:
32,96,97067,1,0,0:0:0:0:
176,144,97416,1,0,0:0:0:0:
304,128,97765,6,0,B|288:96|288:96|256:64,1,70
200,152,98463,2,0,L|216:232,1,70
376,216,99218,6,0,L|432:168,1,70
336,112,104277,5,0,0:0:0:0:
240,112,105104,6,0,B|208:144|208:144|176:240,1,140
304,240,106188,1,0,0:0:0:0:
304,240,106549,2,0,P|352:192|352:144,1,105
232,64,107995,6,0,B|193:72|152:64|152:64|88:128,1,140
184,144,109079,1,0,0:0:0:0:
184,144,109441,2,0,L|168:272,1,105
288,304,111248,6,0,B|333:300|333:300|409:259,1,116.666666666667
384,192,112212,1,0,0:0:0:0:
384,192,112573,2,0,B|336:160|336:160|304:176|280:160,1,105.000004005432
176,240,114140,6,0,P|112:240|96:160,1,157.500006008148
192,64,115706,2,0,B|240:112|240:112|288:240,1,201.250007677079
176,256,118808,6,0,L|112:240,2,58.3333333333333
256,192,120429,12,0,128537,0:0:0:0:
