osu file format v14

[General]
AudioFilename: 17-restoring-the-light-facing-the-dark.mp3
AudioLeadIn: 0
PreviewTime: 30022
Countdown: 0
SampleSet: Normal
StackLeniency: 0.7
Mode: 1
LetterboxInBreaks: 0
WidescreenStoryboard: 1

[Editor]
DistanceSpacing: 0.8
BeatDivisor: 4
GridSize: 32
TimelineZoom: 2.1

[Metadata]
Title:Restoring the Light, Facing the Dark
TitleUnicode:Restoring the Light, Facing the Dark
Artist:Gareth Coker
ArtistUnicode:Gareth Coker
Creator:Halogen-
Version:Futsuu
Source:Ori and the Blind Forest
Tags:nwolf ntiger
BeatmapID:1138495
BeatmapSetID:524596

[Difficulty]
HPDrainRate:6
CircleSize:4
OverallDifficulty:4
ApproachRate:9
SliderMultiplier:1.4
SliderTickRate:1

[Events]
//Background and Video events
0,0,"bg.jpg",0,-35
//Break Periods
//Storyboard Layer 0 (Background)
//Storyboard Layer 1 (Fail)
//Storyboard Layer 2 (Pass)
//Storyboard Layer 3 (Foreground)
//Storyboard Sound Samples

[TimingPoints]
22,375,4,1,0,30,1,0
11834,-100,4,1,0,50,0,0
54022,-100,4,1,0,50,0,1
78022,468.75,4,1,0,50,1,1
78022,-80,4,1,0,50,0,0
79897,468.75,6,1,0,25,1,0
79897,-142.857142857143,6,1,0,25,0,0
89741,500,3,1,0,25,1,0
89741,-133.333333333333,3,1,0,25,0,0
91241,705.882353,4,1,0,25,1,0
91241.8,-80,4,1,0,25,0,0
96888,725.075529,5,1,0,25,1,0
96888.8,-80,5,1,0,25,0,0
99788,-62.5,5,1,0,30,0,0
100513,588.235294,4,1,0,60,1,9
100513,-66.6666666666667,4,1,0,60,0,1
101690,606.060606,4,1,0,60,1,1
101690,-66.6666666666667,4,1,0,60,0,1
102902,625,4,1,0,60,1,1
102902,-66.6666666666667,4,1,0,60,0,1
104152,567.375887,4,1,0,60,1,1
104152,-66.6666666666667,4,1,0,60,0,1
105287,652.173913,4,1,0,60,1,1
105287,-66.6666666666667,4,1,0,60,0,1
106591,576.923077,4,1,0,60,1,1
106591,-66.6666666666667,4,1,0,60,0,1
107745,594.059406,4,1,0,60,1,1
107745,-66.6666666666667,4,1,0,60,0,1
108933,588.235294,4,1,0,60,1,1
108933,-66.6666666666667,4,1,0,60,0,1
111065,-66.6666666666667,4,1,0,60,0,0
111286,526.315789,4,1,0,60,1,8
111286,-74.0740740740741,4,1,0,60,0,0
112338,600,4,1,0,60,1,1
112338,-66.6666666666667,4,1,0,60,0,1
115938,571.428571,4,1,0,60,1,9
115938,-66.6666666666667,4,1,0,60,0,1
117081,588.235294,4,1,0,60,1,1
117081,-66.6666666666667,4,1,0,60,0,1
119434,594.059406,4,1,0,60,1,1
119434,-66.6666666666667,4,1,0,60,0,1
121216,500,4,1,0,60,1,1
121216,-71.4285714285714,4,1,0,60,0,1
121716,545.454545,4,1,0,60,1,1
121716,-66.6666666666667,4,1,0,60,0,1
122807,618.556701,4,1,0,60,1,1
122807,-66.6666666666667,4,1,0,60,0,1
124044,606.060606,4,1,0,60,1,1
124044,-66.6666666666667,4,1,0,60,0,1
126469,577.478345,4,1,0,60,1,8
126469,-66.6666666666667,4,1,0,60,0,0
126757,-100,4,1,0,30,0,0
133398,628.272251,4,1,0,30,1,0
133398,-100,4,1,0,30,0,0
135911,587.659158,4,1,0,40,1,0
135911,-80,4,1,0,40,0,0
142963,560.747664,4,1,0,40,1,0
142963,-80,4,1,0,40,0,0

[HitObjects]
256,192,22,12,0,1147,0:0:0:0:
224,160,1522,5,0,0:0:0:0:
224,160,1709,1,0,0:0:0:0:
224,160,1897,1,0,0:0:0:0:
224,160,2647,1,0,0:0:0:0:
224,160,3022,1,0,0:0:0:0:
288,160,4147,1,8,0:0:0:0:
288,160,4522,1,8,0:0:0:0:
288,160,5647,1,8,0:0:0:0:
288,160,6022,1,8,0:0:0:0:
288,160,7147,1,8,0:0:0:0:
288,160,7334,1,8,0:0:0:0:
288,160,7522,1,8,0:0:0:0:
288,160,8647,1,8,0:0:0:0:
288,160,9022,1,8,0:0:0:0:
224,160,9772,1,0,0:0:0:0:
224,160,9959,1,0,0:0:0:0:
288,160,10147,1,8,0:0:0:0:
224,160,10522,1,0,0:0:0:0:
224,160,11647,1,0,0:0:0:0:
288,224,12022,1,12,0:0:0:0:
288,224,12584,1,12,0:0:0:0:
224,160,13147,1,0,0:0:0:0:
288,160,13522,1,8,0:0:0:0:
288,160,14084,1,8,0:0:0:0:
224,160,15022,1,0,0:0:0:0:
224,160,15584,1,0,0:0:0:0:
288,160,16147,1,8,0:0:0:0:
224,160,16522,1,0,0:0:0:0:
224,160,17084,1,0,0:0:0:0:
288,160,18022,1,8,0:0:0:0:
288,160,18584,1,8,0:0:0:0:
224,160,19147,1,0,0:0:0:0:
288,160,19522,1,8,0:0:0:0:
288,160,20084,1,8,0:0:0:0:
224,160,21022,1,0,0:0:0:0:
224,160,21584,1,0,0:0:0:0:
288,160,22147,1,8,0:0:0:0:
224,160,22522,1,0,0:0:0:0:
224,160,23084,1,0,0:0:0:0:
288,224,24022,1,12,0:0:0:0:
288,160,24584,1,8,0:0:0:0:
224,160,25147,1,0,0:0:0:0:
288,160,25522,1,8,0:0:0:0:
288,160,26084,1,8,0:0:0:0:
224,160,26647,1,0,0:0:0:0:
224,160,26834,1,0,0:0:0:0:
224,160,27022,1,0,0:0:0:0:
224,160,27584,1,0,0:0:0:0:
288,160,28147,1,8,0:0:0:0:
224,160,28522,1,0,0:0:0:0:
224,160,29084,1,0,0:0:0:0:
288,160,29647,1,8,0:0:0:0:
224,224,30022,5,4,0:0:0:0:
288,160,30772,1,8,0:0:0:0:
288,160,31147,1,8,0:0:0:0:
288,160,31522,1,8,0:0:0:0:
224,160,32272,1,0,0:0:0:0:
288,160,33022,1,8,0:0:0:0:
288,160,33772,1,8,0:0:0:0:
224,160,34147,1,0,0:0:0:0:
288,160,34522,1,8,0:0:0:0:
224,160,34897,1,0,0:0:0:0:
224,160,35084,1,0,0:0:0:0:
224,160,35272,1,0,0:0:0:0:
288,160,36022,1,8,0:0:0:0:
288,160,36772,1,8,0:0:0:0:
288,160,37147,1,8,0:0:0:0:
288,160,37522,1,8,0:0:0:0:
224,160,38272,1,0,0:0:0:0:
224,160,39022,1,0,0:0:0:0:
224,160,39772,1,0,0:0:0:0:
288,160,40147,1,8,0:0:0:0:
224,160,40522,1,0,0:0:0:0:
224,160,40897,1,0,0:0:0:0:
224,160,41084,1,0,0:0:0:0:
288,160,41272,1,8,0:0:0:0:
288,160,42022,1,8,0:0:0:0:
288,160,42772,1,8,0:0:0:0:
288,160,43147,1,8,0:0:0:0:
288,160,43522,1,8,0:0:0:0:
224,160,44272,1,0,0:0:0:0:
288,160,45022,1,8,0:0:0:0:
288,160,45772,1,8,0:0:0:0:
224,160,46334,1,0,0:0:0:0:
288,160,46522,1,8,0:0:0:0:
288,160,47272,1,8,0:0:0:0:
288,160,47647,1,8,0:0:0:0:
288,160,48022,1,8,0:0:0:0:
288,160,48772,1,8,0:0:0:0:
224,160,49147,1,0,0:0:0:0:
224,160,49334,1,0,0:0:0:0:
288,160,49522,1,8,0:0:0:0:
224,160,49897,1,0,0:0:0:0:
288,160,50272,1,8,0:0:0:0:
288,160,50647,1,8,0:0:0:0:
224,160,51022,1,0,0:0:0:0:
288,160,52147,1,8,0:0:0:0:
288,160,52334,1,8,0:0:0:0:
224,160,52522,1,0,0:0:0:0:
288,160,53272,1,8,0:0:0:0:
224,160,53647,1,0,0:0:0:0:
288,224,54022,5,12,0:0:0:0:
288,160,54772,1,8,0:0:0:0:
288,160,55147,1,8,0:0:0:0:
288,160,55522,1,8,0:0:0:0:
224,160,56272,1,0,0:0:0:0:
224,160,56647,1,0,0:0:0:0:
224,160,56834,1,0,0:0:0:0:
288,224,57022,1,12,0:0:0:0:
288,160,57772,1,8,0:0:0:0:
224,160,58147,1,0,0:0:0:0:
288,160,58522,1,8,0:0:0:0:
224,160,58897,1,0,0:0:0:0:
224,160,59084,1,0,0:0:0:0:
224,160,59272,1,0,0:0:0:0:
224,160,59647,1,0,0:0:0:0:
288,224,60022,1,12,0:0:0:0:
288,160,60772,1,8,0:0:0:0:
288,160,61147,1,8,0:0:0:0:
288,160,61522,1,8,0:0:0:0:
224,160,62272,1,0,0:0:0:0:
288,160,62647,1,8,0:0:0:0:
224,160,63022,1,0,0:0:0:0:
224,160,63584,1,0,0:0:0:0:
224,160,63772,1,0,0:0:0:0:
288,160,64147,1,8,0:0:0:0:
224,160,64522,1,0,0:0:0:0:
224,160,64897,1,0,0:0:0:0:
224,160,65084,1,0,0:0:0:0:
288,160,65272,1,8,0:0:0:0:
288,224,66022,1,12,0:0:0:0:
288,160,66772,1,8,0:0:0:0:
288,160,67147,1,8,0:0:0:0:
288,160,67522,1,8,0:0:0:0:
224,160,68272,1,0,0:0:0:0:
224,160,68647,1,0,0:0:0:0:
224,160,68834,1,0,0:0:0:0:
288,224,69022,1,12,0:0:0:0:
288,160,69772,1,8,0:0:0:0:
224,160,70147,1,0,0:0:0:0:
224,160,70334,1,0,0:0:0:0:
288,160,70522,1,8,0:0:0:0:
288,160,71272,1,8,0:0:0:0:
288,160,71647,1,8,0:0:0:0:
288,224,72022,1,12,0:0:0:0:
288,160,72772,1,8,0:0:0:0:
224,160,73147,1,0,0:0:0:0:
224,160,73334,1,0,0:0:0:0:
288,160,73522,1,8,0:0:0:0:
224,160,73897,1,0,0:0:0:0:
288,160,74272,1,8,0:0:0:0:
288,160,74647,1,8,0:0:0:0:
224,160,75022,1,0,0:0:0:0:
224,160,75772,1,0,0:0:0:0:
288,160,76147,1,8,0:0:0:0:
288,160,76334,1,8,0:0:0:0:
224,160,76522,1,0,0:0:0:0:
288,160,77272,1,8,0:0:0:0:
224,160,77647,1,0,0:0:0:0:
224,224,78022,1,4,0:0:0:0:
288,160,80014,5,0,0:0:0:0:
224,160,82826,1,8,0:0:0:0:
288,160,85522,1,8,0:0:0:0:
224,160,88334,1,0,0:0:0:0:
288,160,89741,1,8,0:0:0:0:
288,160,91241,1,8,0:0:0:0:
288,160,91946,1,8,0:0:0:0:
288,160,92299,1,8,0:0:0:0:
288,160,92652,1,8,0:0:0:0:
224,160,94064,1,0,0:0:0:0:
224,160,94770,1,0,0:0:0:0:
224,160,95123,1,0,0:0:0:0:
224,160,95476,1,0,0:0:0:0:
288,160,96888,1,8,0:0:0:0:
32,32,99788,2,0,L|256:32,1,224
288,224,101690,1,12,0:0:0:0:
224,224,102902,1,4,0:0:0:0:
288,224,104152,1,12,0:0:0:0:
288,224,105287,1,12,0:0:0:0:
224,160,106591,1,0,0:0:0:0:
224,224,107745,1,4,0:0:0:0:
288,224,108933,1,12,0:0:0:0:
288,224,110109,1,12,0:0:0:0:
224,160,111812,1,0,0:0:0:0:
288,224,112338,1,12,0:0:0:0:
224,160,112938,1,0,0:0:0:0:
288,160,113538,1,8,0:0:0:0:
224,224,114738,1,4,0:0:0:0:
224,160,115338,1,0,0:0:0:0:
288,224,115938,1,12,0:0:0:0:
224,224,117081,1,4,0:0:0:0:
224,160,117669,1,0,0:0:0:0:
288,224,118257,1,12,0:0:0:0:
288,224,119434,1,12,0:0:0:0:
224,160,120028,1,0,0:0:0:0:
288,224,120622,1,12,0:0:0:0:
224,160,121216,1,0,0:0:0:0:
224,224,121716,1,4,0:0:0:0:
288,160,122807,1,8,0:0:0:0:
0,32,124044,2,4,B|448:32|448:32|448:32,1,420.000016021729
288,224,126468,1,12,0:0:0:0:
288,160,128778,1,8,0:0:0:0:
224,160,129933,1,0,0:0:0:0:
224,160,131088,1,0,0:0:0:0:
288,160,133398,1,8,0:0:0:0:
224,160,134654,1,0,0:0:0:0:
288,160,135911,1,8,0:0:0:0:
288,160,136498,1,8,0:0:0:0:
288,160,137086,1,8,0:0:0:0:
288,160,138261,1,8,0:0:0:0:
288,160,138849,1,8,0:0:0:0:
288,160,139436,1,8,0:0:0:0:
288,160,140612,1,8,0:0:0:0:
288,160,141199,1,8,0:0:0:0:
224,160,141787,1,0,0:0:0:0:
288,160,142375,1,8,0:0:0:0:
288,160,142962,1,8,0:0:0:0:
224,160,143243,1,0,0:0:0:0:
288,160,143523,1,8,0:0:0:0:
224,160,143804,1,0,0:0:0:0:
288,224,144084,1,12,0:0:0:0:
