osu file format v14

[General]
AudioFilename: 21 - Escaping The Ruins.mp3
AudioLeadIn: 0
PreviewTime: 75520
Countdown: 1
SampleSet: Soft
StackLeniency: 0.7
Mode: 0
LetterboxInBreaks: 0
WidescreenStoryboard: 0

[Editor]
DistanceSpacing: 0.8
BeatDivisor: 4
GridSize: 8
TimelineZoom: 1

[Metadata]
Title:Ori And The Blind Forest - Escaping The Ruins
TitleUnicode:Ori And The Blind Forest - Escaping The Ruins
Artist:Gareth Coker
ArtistUnicode:Gareth Coker
Creator:Nadran44
Version:Easy
Source:Ori And The Blind Forest
Tags:game
BeatmapID:866182
BeatmapSetID:398361

[Difficulty]
HPDrainRate:3
CircleSize:3
OverallDifficulty:4
ApproachRate:4
SliderMultiplier:1.2
SliderTickRate:1

[Events]
//Background and Video events
0,0,"Ori-an-the-Blind-Fores-Moon-Studios-Xbox-One-PC-02[1].jpg",0,0
//Break Periods
2,20323,35303
//Storyboard Layer 0 (Background)
//Storyboard Layer 1 (Fail)
//Storyboard Layer 2 (Pass)
//Storyboard Layer 3 (Foreground)
//Storyboard Sound Samples

[TimingPoints]
123,500,4,2,0,40,1,0
39510,375,4,2,0,40,1,0
75520,-100,4,2,0,40,0,1
123520,-100,4,2,0,40,0,0

[Colours]
Combo1 : 10,125,255
Combo2 : 0,128,128
Combo3 : 128,255,255

[HitObjects]
256,192,72,5,0,0:0:0:0:
72,64,1123,1,0,0:0:0:0:
128,160,1623,1,0,0:0:0:0:
200,248,2123,2,0,P|280:232|328:208,1,120
328,88,3123,2,0,P|224:72|200:80,1,120
112,160,4123,5,0,0:0:0:0:
304,280,5123,1,0,0:0:0:0:
352,184,5623,1,0,0:0:0:0:
328,72,6123,2,0,P|248:96|216:128,1,120
99,160,7123,2,0,P|123:80|152:48,1,120
256,104,8123,5,0,0:0:0:0:
256,328,9123,1,0,0:0:0:0:
256,216,9623,1,0,0:0:0:0:
368,216,10123,2,0,L|368:72,1,120
256,96,11123,2,0,L|112:96,1,120
136,200,12123,5,0,0:0:0:0:
352,200,13123,1,0,0:0:0:0:
256,260,13623,1,0,0:0:0:0:
256,152,14123,2,0,L|112:152,1,120
128,256,15123,2,0,L|272:256,1,120
256,192,16123,12,0,20123,0:0:0:0:
256,192,36623,12,0,39623,0:0:0:0:
256,192,39978,12,0,41010,0:0:0:0:
280,296,41760,5,0,0:0:0:0:
128,80,43260,5,0,0:0:0:0:
324,188,44010,1,0,0:0:0:0:
80,308,45510,5,0,0:0:0:0:
216,132,46260,1,0,0:0:0:0:
352,312,47010,1,0,0:0:0:0:
352,88,47760,1,0,0:0:0:0:
128,88,48510,1,0,0:0:0:0:
128,312,49260,1,0,0:0:0:0:
256,128,50010,1,0,0:0:0:0:
392,304,50760,1,0,0:0:0:0:
184,232,51510,6,0,L|184:88,1,120
296,96,52260,1,0,0:0:0:0:
296,208,52635,1,0,0:0:0:0:
296,320,53010,2,0,L|152:320,1,120
48,320,53760,1,0,0:0:0:0:
48,208,54135,1,0,0:0:0:0:
160,208,54510,6,0,L|160:64,1,120
272,72,55260,1,0,0:0:0:0:
384,72,55635,1,0,0:0:0:0:
384,184,56010,2,0,L|240:184,1,120
136,192,56760,1,0,0:0:0:0:
136,80,57135,1,0,0:0:0:0:
248,80,57510,6,0,L|384:80,1,120
384,192,58260,2,0,L|240:192,1,120
272,328,59010,2,0,L|168:224,1,120
72,248,59760,2,0,L|168:352,1,120
272,336,60510,2,0,L|272:192,1,120
384,216,61260,2,0,L|384:360,1,120
272,328,62010,2,0,L|168:224,1,120
288,216,62760,2,0,L|184:112,1,120
280,48,63510,5,0,0:0:0:0:
448,48,64072,1,0,0:0:0:0:
448,216,64635,1,0,0:0:0:0:
336,216,65010,1,0,0:0:0:0:
224,344,65572,1,0,0:0:0:0:
112,216,66135,1,0,0:0:0:0:
224,216,66510,5,0,0:0:0:0:
140,70,67072,1,0,0:0:0:0:
308,70,67635,1,0,0:0:0:0:
304,184,68010,1,0,0:0:0:0:
408,320,68572,1,0,0:0:0:0:
240,320,69135,1,0,0:0:0:0:
240,208,69510,5,0,0:0:0:0:
256,40,70072,2,0,B|360:88|368:168|400:184,1,180
296,200,71010,1,0,0:0:0:0:
256,40,71572,2,0,B|152:88|144:168|112:184,1,180
216,176,72510,5,0,0:0:0:0:
120,312,73072,2,0,B|144:344|208:360|280:344|296:312,1,180
256,200,74010,1,0,0:0:0:0:
480,192,74760,5,0,0:0:0:0:
296,64,75510,2,0,P|208:112|192:152,1,120
168,32,76260,2,0,P|96:80|72:112,1,120
128,216,77010,2,0,P|176:248|232:304,1,120
264,200,77760,2,0,P|336:264|368:304,1,120
416,208,78510,5,0,0:0:0:0:
232,80,79260,2,0,L|96:80,2,120
256,48,81510,5,0,0:0:0:0:
344,256,82260,2,0,P|352:176|376:128,1,120
480,192,83010,2,0,P|472:112|448:72,1,120
328,64,83760,2,0,L|208:136,1,120
128,200,84510,2,0,B|120:288|192:352|256:352|360:312|416:264,1,360
440,160,86010,2,0,B|384:200|240:208|160:184|112:72,1,360
32,128,87510,5,8,0:0:0:0:
256,128,88260,2,0,L|256:264,1,120
344,200,89010,2,8,B|344:48|344:48|240:48,1,240,8|0,0:0|0:0,0:0:0:0:
424,128,90510,5,8,0:0:0:0:
256,264,91260,2,0,L|256:120,1,120
168,200,92010,2,0,B|168:56|168:56|288:56,1,240,8|0,0:0|0:0,0:0:0:0:
312,168,93135,1,0,0:0:0:0:
312,280,93510,5,8,0:0:0:0:
88,280,94260,1,8,0:0:0:0:
88,56,95010,1,8,0:0:0:0:
200,56,95385,1,0,0:0:0:0:
312,56,95760,2,0,L|312:192,1,120,8|0,0:0|0:0,0:0:0:0:
424,200,96510,1,8,0:0:0:0:
264,272,97635,1,0,0:0:0:0:
128,272,98010,2,0,B|56:240|64:80|144:56,1,240,8|0,0:0|0:0,0:0:0:0:
376,64,99510,5,8,0:0:0:0:
376,288,100260,1,0,0:0:0:0:
152,288,101010,1,8,0:0:0:0:
152,64,101760,1,0,0:0:0:0:
376,64,102510,5,8,0:0:0:0:
376,288,103260,1,0,0:0:0:0:
152,288,104010,2,0,B|48:216|8:144|112:88,1,240,8|0,0:0|0:0,0:0:0:0:
352,112,105510,5,8,0:0:0:0:
352,336,106260,1,0,0:0:0:0:
256,280,106635,1,0,0:0:0:0:
176,200,107010,2,8,P|240:176|296:200,1,120,8|0,0:0|0:0,0:0:0:0:
384,120,107760,2,0,P|304:64|256:56,1,120
152,72,108510,2,8,B|88:136|72:248|160:304,1,240,8|0,0:0|0:0,0:0:0:0:
208,208,109635,1,0,0:0:0:0:
264,112,110010,2,0,B|328:176|344:288|256:344,1,240,8|0,0:0|0:0,0:0:0:0:
192,136,111510,5,8,0:0:0:0:
392,48,112260,2,0,L|256:48,1,120
272,160,113010,2,8,L|416:160,1,120,8|0,0:0|0:0,0:0:0:0:
328,248,113760,2,0,L|464:248,1,120
480,136,114510,6,8,L|384:32,1,120,0|0,0:0|0:0,0:0:0:0:
272,40,115260,2,0,L|272:184,1,120
184,104,116010,2,0,L|184:240,1,120,8|0,0:0|0:0,0:0:0:0:
184,352,116760,2,0,L|320:352,1,120
400,272,117510,6,8,L|400:128,1,120,8|0,0:0|0:0,0:0:0:0:
320,208,118260,2,0,L|216:104,1,120
208,216,119010,2,8,L|72:216,1,120,8|0,0:0|0:0,0:0:0:0:
72,104,119760,2,0,L|200:104,1,120
320,104,120510,1,8,0:0:0:0:
168,120,121635,6,0,L|240:152,1,60,8|0,0:0|0:0,0:0:0:0:
264,176,122010,2,0,B|328:224|272:312|200:360|176:360,1,240,8|0,0:0|0:0,0:0:0:0:
184,128,123510,5,0,0:0:0:0:
64,248,124072,2,0,P|40:184|72:144,1,120
224,192,125010,2,0,L|360:192,3,120
280,272,126510,5,0,0:0:0:0:
448,264,127072,2,0,P|472:200|440:160,1,120
288,192,128010,2,0,L|144:192,3,120
176,80,129510,5,0,0:0:0:0:
336,80,130072,2,0,L|336:216,1,120
152,224,131010,2,0,L|152:360,1,120
40,344,131760,2,0,L|40:216,1,120
40,112,132510,5,0,0:0:0:0:
208,112,133072,2,0,L|352:112,1,120
472,224,134010,2,0,L|368:320,1,120
368,200,134760,2,0,L|256:296,1,120
256,176,135510,5,0,0:0:0:0:
