osu file format v14

[General]
AudioFilename: Light of Nibel (feat. Aeralie Brighton).mp3
AudioLeadIn: 0
PreviewTime: 113911
Countdown: 0
SampleSet: Soft
StackLeniency: 0.7
Mode: 0
LetterboxInBreaks: 0
WidescreenStoryboard: 1

[Editor]
Bookmarks: 215255
DistanceSpacing: 1.2
BeatDivisor: 4
GridSize: 4
TimelineZoom: 1.1

[Metadata]
Title:Light of Nibel (feat. Aeralie Brighton)
TitleUnicode:Light of Nibel (feat. Aeralie Brighton)
Artist:Gareth Coker
ArtistUnicode:Gareth Coker
Creator:Nozhomi
Version:Easy
Source:Ori and the Blind Forest
Tags:
BeatmapID:1099326
BeatmapSetID:418202

[Difficulty]
HPDrainRate:2
CircleSize:2.5
OverallDifficulty:2.5
ApproachRate:3.3
SliderMultiplier:1
SliderTickRate:1

[Events]
//Background and Video events
0,0,"ori.jpg",0,0
//Break Periods
//Storyboard Layer 0 (Background)
//Storyboard Layer 1 (Fail)
//Storyboard Layer 2 (Pass)
//Storyboard Layer 3 (Foreground)
//Storyboard Sound Samples

[TimingPoints]
5,750,4,2,1,50,1,0
192,-100,4,2,1,30,0,0
12005,-100,4,2,1,35,0,0
24005,-100,4,2,0,35,0,0
24098,-100,4,2,1,40,0,0
36005,-100,4,2,1,45,0,0
48005,375,4,2,2,60,1,0
48005,-125,4,2,2,60,0,0
72005,-125,4,2,2,70,0,1
90005,-125,4,2,2,60,0,0
114005,-125,4,2,2,60,0,1
138005,750,4,2,1,50,1,0
139505,-100,4,2,1,50,0,0
141005,-100,4,2,1,30,0,0
147380,-100,4,2,1,20,0,0
148505,-100,4,2,1,30,0,0
210192,-100,4,2,1,25,0,0
211505,-100,4,2,1,20,0,0
214505,-100,4,2,1,15,0,0
216005,727.272727272727,4,2,1,20,1,0
216732,685.714285714286,4,2,1,20,1,0
217074,833.333333333333,4,2,1,20,1,0
217490,764.331210191083,4,2,1,20,1,0
219802,827.586206896552,4,2,1,20,1,0
223082,759.493670886076,4,2,1,20,1,0
223851,800,4,2,1,20,1,0
225451,810.810810810811,4,2,1,20,1,0
226673,923.076923076923,4,2,1,20,1,0
227117,1000,4,2,1,20,1,0
231117,800,4,2,1,20,1,0
231917,750,4,2,1,20,1,0
232667,774.193548387097,4,2,1,20,1,0
233054,888.888888888889,4,2,1,20,1,0
233508,848.056537102474,4,2,1,20,1,0
235196,1000,4,2,1,20,1,0
236196,802.675585284281,4,2,1,20,1,0
239406,902.255639097744,4,2,1,20,1,0
240308,923.076923076923,4,2,1,20,1,0
240769,1043.47826086957,4,2,1,20,1,0
241290,1200,4,2,1,20,1,0
242490,1061.00795755968,4,2,1,20,1,0
243551,1142.85714285714,4,2,1,20,1,0
244693,1395.3488372093,4,2,1,15,1,0
246088,1182.26600985222,4,2,1,20,1,0
246679,967.741935483871,4,2,1,20,1,0
247162,902.255639097744,4,2,1,20,1,0
248064,1153.84615384615,4,2,1,20,1,0
249217,666.666666666667,4,2,1,20,1,0
249883,685.714285714286,4,2,1,20,1,0
250568,727.272727272727,4,2,1,20,1,0
251295,827.586206896552,4,2,1,20,1,0
252122,1168.11058113501,4,2,1,20,1,0
254458,-100,4,2,1,5,0,0

[Colours]
Combo1 : 9,57,170
Combo2 : 147,191,64
Combo3 : 58,174,184
Combo4 : 30,137,18
Combo5 : 82,243,243
Combo6 : 118,145,57

[HitObjects]
127,288,5,6,0,P|203:347|295:320,1,200,4|2,0:0|0:0,0:0:0:0:
384,96,3005,2,0,P|308:36|216:63,1,200,4|2,0:0|0:0,0:0:0:0:
360,256,6005,6,0,L|376:40,1,200,4|0,0:0|0:0,0:0:0:0:
137,56,9005,2,0,L|152:256,1,200,4|2,0:0|0:0,0:0:0:0:
387,288,12005,6,0,P|437:284|485:298,2,100,4|2|2,0:0|0:0|0:0,0:0:0:0:
272,316,14255,1,2,0:0:0:0:
156,344,15005,2,0,P|104:352|28:320,2,100,4|2|2,0:0|0:0|0:0,0:0:0:0:
272,316,17255,1,2,0:0:0:0:
188,232,18005,6,0,P|176:184|192:136,1,100,0|2,0:0|0:0,0:0:0:0:
304,96,19505,2,0,L|428:108,1,100,4|2,0:0|0:0,0:0:0:0:
436,220,21005,2,0,L|336:210,1,100,4|2,0:0|0:0,0:0:0:0:
224,248,22505,2,0,P|247:290|292:320,1,100,4|2,0:0|0:0,0:0:0:0:
400,272,24005,6,0,B|412:223|412:223|401:174,1,100,4|2,0:0|0:0,0:0:0:0:
304,104,25505,2,0,P|254:96|205:104,1,100,2|2,0:0|0:0,0:0:0:0:
124,192,27005,1,4,0:0:0:0:
205,280,27755,1,2,0:0:0:0:
256,172,28505,2,0,L|252:60,1,100,2|0,0:0|0:0,0:0:0:0:
136,44,30005,6,0,L|139:143,1,100,4|2,0:0|0:0,0:0:0:0:
36,204,31505,2,0,P|20:144|36:88,1,100,2|2,0:0|0:0,0:0:0:0:
140,144,33005,2,0,L|132:280,1,100,4|0,0:0|0:0,0:0:0:0:
188,352,34505,1,2,0:0:0:0:
256,256,35255,1,2,0:0:0:0:
336,344,36005,6,0,P|383:357|431:344,1,100,4|2,0:0|0:0,0:0:0:0:
492,244,37505,2,0,P|480:195|445:161,1,100,2|2,0:0|0:0,0:0:0:0:
328,180,39005,1,4,0:0:0:0:
212,208,39755,2,0,B|172:216|172:216|113:204,1,100,2|2,0:0|0:0,0:0:0:0:
28,120,41255,1,2,0:0:0:0:
132,60,42005,6,0,P|181:51|230:59,1,100,4|2,0:0|0:0,0:0:0:0:
228,180,43505,2,0,P|178:187|129:179,1,100,2|2,0:0|0:0,0:0:0:0:
16,136,45005,2,0,P|8:184|24:252,1,100,4|2,0:0|0:0,0:0:0:0:
120,296,46505,2,0,L|240:288,1,100,4|0,0:0|0:0,0:0:0:0:
344,264,48005,6,0,B|412:224|412:224|436:124,1,160,4|0,0:0|0:0,0:0:0:0:
432,48,49130,1,0,0:0:0:0:
336,60,49505,2,0,B|268:100|268:100|244:200,1,160,4|0,0:0|0:0,0:0:0:0:
344,348,51005,5,4,0:0:0:0:
248,360,51380,2,0,B|212:368|212:368|90:348,1,160,8|0,0:0|0:0,0:0:0:0:
28,276,52505,1,4,0:0:0:0:
108,224,52880,2,0,B|128:180|128:180|116:64,1,160,8|2,0:0|0:0,0:0:0:0:
192,8,54005,5,4,0:0:0:0:
212,104,54380,2,0,L|230:263,1,160,8|0,0:0|0:0,0:0:0:0:
244,360,55505,1,4,0:0:0:0:
332,324,55880,2,0,P|348:251|305:172,1,160,8|0,0:0|0:0,0:0:0:0:
224,136,57005,5,4,0:0:0:0:
132,168,57380,2,0,P|139:90|214:39,1,160,8|0,0:0|0:0,0:0:0:0:
296,56,58505,2,0,P|336:60|384:48,1,80,4|8,0:0|0:0,0:0:0:0:
460,100,59255,2,0,P|436:128|388:148,1,80,0|2,0:0|0:0,0:0:0:0:
300,152,60005,6,0,P|327:214|427:240,1,160,4|0,0:0|0:0,0:0:0:0:
496,204,61130,1,0,0:0:0:0:
432,132,61505,1,4,0:0:0:0:
360,72,61880,2,0,B|320:56|320:56|184:68,1,160,8|0,0:0|0:0,0:0:0:0:
124,120,63005,5,4,0:0:0:0:
204,172,63380,2,0,P|221:249|207:328,1,160,8|0,0:0|0:0,0:0:0:0:
120,368,64505,1,4,0:0:0:0:
32,328,64880,2,0,P|18:249|35:171,1,160,8|2,0:0|0:0,0:0:0:0:
96,96,66005,5,4,0:0:0:0:
180,144,66380,2,0,B|224:160|224:160|364:144,1,160,8|0,0:0|0:0,0:0:0:0:
404,80,67505,1,4,0:0:0:0:
464,152,67880,2,0,P|480:236|456:304,1,160,8|0,0:0|0:0,0:0:0:0:
368,340,69005,6,0,L|280:332,1,80,4|8,0:0|0:0,0:0:0:0:
208,280,69755,2,0,L|216:191,1,80,8|8,0:0|0:0,0:0:0:0:
268,120,70505,2,0,L|356:127,1,80,8|8,0:0|0:0,0:0:0:0:
428,180,71255,2,0,L|420:259,1,80,8|2,0:0|0:0,0:0:0:0:
368,340,72005,6,0,P|328:288|334:220,1,120,4|4,0:0|0:0,0:0:0:0:
380,104,73130,1,8,0:0:0:0:
288,132,73505,2,0,B|248:144|248:144|140:116,1,120,4|4,0:0|0:0,0:0:0:0:
32,96,74630,1,8,0:0:0:0:
60,188,75005,6,0,L|200:226,1,120,4|4,0:0|0:0,0:0:0:0:
308,164,76130,1,8,0:0:0:0:
384,224,76505,2,0,P|400:281|388:339,1,120,4|4,0:0|0:0,0:0:0:0:
244,348,77630,1,8,0:0:0:0:
248,252,78005,6,0,L|258:132,1,120,4|0,0:0|0:0,0:0:0:0:
132,64,79130,1,8,0:0:0:0:
80,144,79505,2,0,L|92:284,1,120,0|0,0:0|0:0,0:0:0:0:
200,356,80630,1,8,0:0:0:0:
276,300,81005,6,0,P|320:288|400:308,1,120,0|0,0:0|0:0,0:0:0:0:
352,164,82130,1,8,0:0:0:0:
424,100,82505,2,0,P|447:163|427:225,1,120,4|0,0:0|0:0,0:0:0:0:
312,288,83630,1,8,0:0:0:0:
308,192,84005,6,0,P|308:136|296:80,1,80,4|2,0:0|0:0,0:0:0:0:
207,112,84755,2,0,P|202:152|204:192,1,80,0|8,0:0|0:0,0:0:0:0:
256,272,85505,2,0,P|188:286|134:256,1,120,4|0,0:0|0:0,0:0:0:0:
48,156,86630,1,8,0:0:0:0:
112,88,87005,6,0,B|144:68|144:68|192:60,1,80,4|2,0:0|0:0,0:0:0:0:
280,60,87755,2,0,B|321:66|321:66|353:86,1,80,0|8,0:0|0:0,0:0:0:0:
404,168,88505,2,0,L|400:308,1,120,4|0,0:0|0:0,0:0:0:0:
264,240,89630,1,8,0:0:0:0:
172,264,90005,6,0,P|104:268|108:188,1,160,4|8,0:0|0:0,0:0:0:0:
176,132,91130,1,0,0:0:0:0:
264,164,91505,2,0,P|340:184|416:164,1,160,4|8,0:0|0:0,0:0:0:0:
248,76,93005,6,0,P|192:112|199:225,1,160,4|8,0:0|0:0,0:0:0:0:
220,288,94130,1,0,0:0:0:0:
312,264,94505,2,0,B|380:223|380:223|394:144|394:144|345:80,1,240,4|2,0:0|0:0,0:0:0:0:
248,80,96005,6,0,P|180:120|84:104,1,160,0|8,0:0|0:0,0:0:0:0:
28,52,97130,1,0,0:0:0:0:
12,148,97505,2,0,P|69:200|167:208,1,160,4|8,0:0|0:0,0:0:0:0:
328,140,99005,6,0,B|352:216|352:216|328:292,1,160,4|8,0:0|0:0,0:0:0:0:
256,356,100130,1,0,0:0:0:0:
184,292,100505,2,0,L|155:199,1,80,4|0,0:0|0:0,0:0:0:0:
64,208,101255,2,0,L|87:284,1,80,8|2,0:0|0:0,0:0:0:0:
184,292,102005,6,0,P|257:320|330:293,1,160,4|8,0:0|0:0,0:0:0:0:
396,224,103130,1,0,0:0:0:0:
328,156,103505,2,0,P|254:129|181:157,1,160,4|8,0:0|0:0,0:0:0:0:
48,296,105005,6,0,B|40:120,1,160,4|8,0:0|0:0,0:0:0:0:
100,60,106130,1,0,0:0:0:0:
184,108,106505,2,0,B|232:128|232:128|344:116,1,160,4|8,0:0|0:0,0:0:0:0:
420,64,107630,1,2,0:0:0:0:
484,136,108005,6,0,P|500:213|472:286,1,160,4|8,0:0|0:0,0:0:0:0:
288,344,109505,2,0,L|172:336,1,80,4|0,0:0|0:0,0:0:0:0:
192,244,110255,2,0,L|271:248,1,80,8|2,0:0|0:0,0:0:0:0:
316,164,111005,6,0,B|156:153,1,160,4|8,0:0|0:0,0:0:0:0:
64,184,112130,1,0,0:0:0:0:
96,276,112505,2,0,P|128:288|192:284,1,80,4|0,0:0|0:0,0:0:0:0:
268,276,113255,2,0,P|299:261|341:213,1,80,8|2,0:0|0:0,0:0:0:0:
388,151,114005,6,0,P|386:73|336:12,1,160,4|8,0:0|0:0,0:0:0:0:
256,64,115130,1,2,0:0:0:0:
175,12,115505,2,0,P|125:73|123:151,1,160,4|8,0:0|0:0,0:0:0:0:
276,268,117005,6,0,L|440:268,1,160,4|8,0:0|0:0,0:0:0:0:
492,192,118130,1,2,0:0:0:0:
436,116,118505,2,0,L|276:116,1,160,4|8,0:0|0:0,0:0:0:0:
151,263,120005,6,0,P|120:191|151:120,1,160,4|8,0:0|0:0,0:0:0:0:
232,68,121130,1,2,0:0:0:0:
312,120,121505,2,0,P|386:144|461:118,1,160,4|8,0:0|0:0,0:0:0:0:
288,40,123005,6,0,L|280:224,1,160,4|8,0:0|0:0,0:0:0:0:
240,288,124130,1,2,0:0:0:0:
152,332,124505,2,0,P|88:328|48:232,1,160,4|8,0:0|0:0,0:0:0:0:
64,156,125630,1,2,0:0:0:0:
156,128,126005,6,0,P|220:132|260:228,1,160,4|8,0:0|0:0,0:0:0:0:
248,304,127130,1,2,0:0:0:0:
336,268,127505,2,0,P|350:192|319:105,1,160,4|8,0:0|0:0,0:0:0:0:
256,48,128630,1,2,0:0:0:0:
186,114,129005,6,0,P|162:190|176:268,1,160,4|8,0:0|0:0,0:0:0:0:
240,340,130130,1,2,0:0:0:0:
336,356,130505,2,0,L|496:340,1,160,4|8,0:0|0:0,0:0:0:0:
456,252,131630,1,2,0:0:0:0:
360,264,132005,6,0,B|197:281,1,160,4|8,0:0|0:0,0:0:0:0:
116,112,133505,2,0,P|152:97|192:99,1,80,4|2,0:0|0:0,0:0:0:0:
288,112,134255,2,0,P|327:112|364:97,1,80,8|2,0:0|0:0,0:0:0:0:
436,32,135005,6,0,P|461:113|414:182,1,160,4|8,0:0|0:0,0:0:0:0:
332,196,136130,1,2,0:0:0:0:
268,128,136505,2,0,P|250:242|356:287,1,240,4|2,0:0|0:0,0:0:0:0:
432,244,138005,5,4,0:1:0:0:
256,192,138192,12,4,141005,0:0:0:0:
136,80,144005,6,0,P|86:186|168:216,1,200,4|4,0:0|0:0,0:0:0:0:
376,218,147005,2,0,P|436:149|376:80,1,200,4|4,0:0|0:0,0:0:0:0:
164,192,150005,6,0,B|152:244|152:244|168:312,2,100,4|2|2,0:0|0:0|0:0,0:0:0:0:
256,112,152255,1,2,0:0:0:0:
348,192,153005,2,0,B|360:244|360:244|344:312,1,100,4|2,0:0|0:0,0:0:0:0:
256,364,154505,1,4,0:0:0:0:
255,124,156005,6,0,P|255:74|223:37,1,100,4|2,0:0|0:0,0:0:0:0:
112,80,157505,2,0,P|112:129|144:166,1,100,2|2,0:0|0:0,0:0:0:0:
265,155,159005,2,0,B|308:140|360:167|360:167|366:217|309:247,1,200,4|4,0:0|0:0,0:0:0:0:
192,272,161255,1,2,0:0:0:0:
96,200,162005,5,4,0:0:0:0:
204,143,162755,2,0,P|216:95|204:47,1,100,2|2,0:0|0:0,0:0:0:0:
96,96,164255,1,2,0:0:0:0:
108,216,165005,5,4,0:0:0:0:
204,143,165755,2,0,B|256:136|256:136|304:142,1,100,2|2,0:0|0:0,0:0:0:0:
412,192,167255,1,2,0:0:0:0:
303,242,168005,5,4,0:0:0:0:
256,352,168755,1,2,0:0:0:0:
209,242,169505,2,0,P|195:194|209:146,1,100,4|2,0:0|0:0,0:0:0:0:
308,80,171005,2,0,L|508:92,1,200,2|4,0:0|0:0,0:0:0:0:
432,188,173255,1,2,0:0:0:0:
480,299,174005,6,0,P|431:309|382:298,1,100,4|2,0:0|0:0,0:0:0:0:
272,252,175505,2,0,P|223:240|174:250,1,100,4|2,0:0|0:0,0:0:0:0:
64,296,177005,2,0,P|76:247|64:199,1,100,4|2,0:0|0:0,0:0:0:0:
12,92,178505,2,0,L|128:104,1,100,4|2,0:0|0:0,0:0:0:0:
232,116,180005,6,0,L|349:104,1,100,4|2,0:0|0:0,0:0:0:0:
436,164,181505,2,0,P|395:208|335:224,1,100,4|2,0:0|0:0,0:0:0:0:
256,160,183005,1,4,0:0:0:0:
152,222,183755,2,0,P|107:202|76:164,1,100,0|2,0:0|0:0,0:0:0:0:
64,44,185255,1,0,0:0:0:0:
155,122,186005,6,0,L|152:222,1,100,4|2,0:0|0:0,0:0:0:0:
252,288,187505,2,0,P|271:243|261:176,1,100,0|2,0:0|0:0,0:0:0:0:
192,100,189005,2,0,P|146:81|79:90,1,100,4|0,0:0|0:0,0:0:0:0:
20,176,190505,2,0,L|26:275,1,100,2|0,0:0|0:0,0:0:0:0:
112,360,192005,5,0,0:0:0:0:
204,280,192755,2,0,L|328:292,2,100,2|2|2,0:0|0:0|0:0,0:0:0:0:
108,208,195005,1,4,0:0:0:0:
224,176,195755,2,0,L|348:188,2,100,2|2|0,0:0|0:0|0:0,0:0:0:0:
128,104,198005,5,4,0:0:0:0:
236,52,198755,2,0,P|284:40|332:52,1,100,2|4,0:0|0:0,0:0:0:0:
436,112,200255,1,2,0:0:0:0:
372,212,201005,6,0,L|384:316,1,100,4|2,0:0|0:0,0:0:0:0:
284,244,202505,2,0,L|278:343,1,100,2|2,0:0|0:0,0:0:0:0:
192,260,204005,2,0,L|167:361,1,100,4|2,0:0|0:0,0:0:0:0:
104,256,205505,2,0,L|62:352,1,100,4|2,0:0|0:0,0:0:0:0:
20,236,207005,6,0,B|16:176|112:124|112:124|112:248|208:272|208:272|184:152|256:83|256:83|328:152|304:272|304:272|400:248|400:124|400:124|496:176|492:236,1,1100,2|2,0:0|0:0,0:0:0:0:
424,340,216005,5,4,0:0:0:0:
295,352,216732,2,0,P|271:356|246:354,1,50,2|0,0:0|0:0,0:0:0:0:
190,319,217490,6,0,L|194:211,1,100,2|2,0:0|0:0,0:0:0:0:
257,116,219018,1,2,0:0:0:0:
348,184,219802,6,0,P|493:118|348:51,1,396.4,2|2,0:0|0:0,0:0:0:0:
255,116,223851,6,0,P|231:119|206:116,1,50,2|0,0:0|0:0,0:0:0:0:
148,96,224651,2,0,P|112:120|100:180,1,100,2|2,0:0|0:0,0:0:0:0:
128,224,225856,2,0,L|124:276,2,50,2|0|0,0:0|0:0|0:0,0:0:0:0:
180,204,227117,6,0,B|244:148|244:148|308:204|308:204|252:260|244:356|244:356|280:368|320:360,1,400,2|0,0:0|0:0,0:0:0:0:
424,312,231917,5,2,0:0:0:0:
384,204,232667,2,0,P|379:175|384:148,1,50,2|0,0:0|0:0,0:0:0:0:
408,96,233508,6,0,P|356:104|304:88,1,100,2|2,0:0|0:0,0:0:0:0:
256,8,235196,1,2,0:0:0:0:
200,90,236196,6,0,B|84:80|40:176|40:176|137:263|226:215,1,400,2|2,0:0|0:0,0:0:0:0:
340,180,240308,6,0,P|346:207|344:229,1,50,2|2,0:0|0:0,0:0:0:0:
304,260,241290,6,0,L|188:252,1,100,2|2,0:0|0:0,0:0:0:0:
112,192,243551,5,2,0:0:0:0:
184,124,244693,1,2,0:0:0:0:
304,240,246088,5,2,0:0:0:0:
256,192,246383,12,0,254458,0:0:0:0:
