osu file format v14

[General]
AudioFilename: audio.mp3
AudioLeadIn: 0
PreviewTime: 43027
Countdown: 0
SampleSet: Soft
StackLeniency: 0.7
Mode: 0
LetterboxInBreaks: 0
WidescreenStoryboard: 0

[Editor]
DistanceSpacing: 1.4
BeatDivisor: 16
GridSize: 32
TimelineZoom: 2.7

[Metadata]
Title:A Stirring of Memories
TitleUnicode:A Stirring of Memories
Artist:Gareth Coker
ArtistUnicode:Gareth Coker
Creator:rosario wknd
Version:Rebirth
Source:Ori and the Will of the Wisps
Tags:instrumental video game ost soundtrack classical
BeatmapID:3072101
BeatmapSetID:1499011

[Difficulty]
HPDrainRate:5
CircleSize:4.4
OverallDifficulty:5
ApproachRate:5.5
SliderMultiplier:1.4
SliderTickRate:1

[Events]
//Background and Video events
0,0,"rebirth.jpg",0,0
//Break Periods
2,15047,17723
2,23048,25723
2,32714,41985
2,52829,58781
2,71533,77907
2,88849,92772
2,115429,116772
//Storyboard Layer 0 (Background)
//Storyboard Layer 1 (Fail)
//Storyboard Layer 2 (Pass)
//Storyboard Layer 3 (Foreground)
//Storyboard Layer 4 (Overlay)
//Storyboard Sound Samples

[TimingPoints]
10848,666.666666666667,4,2,3,25,1,0
10848,-100,4,2,3,25,0,0
11181,-100,4,2,4,25,0,0
11514,-100,4,2,5,25,0,0
11848,-100,4,2,4,25,0,0
12181,-100,4,2,24,24,0,0
12514,-100,4,2,4,25,0,0
12848,-100,4,2,5,25,0,0
13181,-100,4,2,4,25,0,0
13514,-100,4,2,6,25,0,0
13848,-100,4,2,4,25,0,0
14181,-100,4,2,5,25,0,0
14514,-100,4,2,4,25,0,0
14847,-100,4,2,7,25,0,0
18848,-100,4,2,3,25,0,0
19181,-100,4,2,4,25,0,0
19514,-100,4,2,5,25,0,0
19848,-100,4,2,4,25,0,0
20181,-100,4,2,24,25,0,0
20514,-100,4,2,4,25,0,0
20848,-100,4,2,5,25,0,0
21181,-100,4,2,4,25,0,0
21514,-100,4,2,6,25,0,0
21848,-100,4,2,4,25,0,0
22181,-100,4,2,5,25,0,0
22514,-100,4,2,4,25,0,0
22847,-100,4,2,7,25,0,0
26848,-100,4,2,3,25,0,0
27181,-100,4,2,4,25,0,0
27514,-100,4,2,5,25,0,0
27848,-100,4,2,4,25,0,0
28181,-100,4,2,24,25,0,0
28514,-100,4,2,4,25,0,0
28848,-100,4,2,5,25,0,0
29181,-100,4,2,4,25,0,0
29514,-100,4,2,6,25,0,0
29848,-100,4,2,4,25,0,0
30181,-100,4,2,5,25,0,0
30514,-100,4,2,4,25,0,0
30847,-100,4,2,7,25,0,0
32181,-100,4,2,3,25,0,0
32514,-100,4,2,8,25,0,0
43110,594.059405940594,4,2,1,25,1,0
43407,-100,4,2,3,35,0,0
43700,594.059405940594,4,2,9,35,1,0
43700,-83.3333333333333,4,2,9,35,0,0
43968,594.059405940594,4,2,10,35,1,0
44265,-83.3333333333333,4,2,10,35,0,0
44593,594.059405940594,4,2,3,35,1,0
44851,594.059405940594,4,2,9,35,1,0
45296,-100,4,2,9,5,0,0
45471,594.059405940594,4,2,1,35,1,0
45471,-83.3333333333333,4,2,1,35,0,0
45789,594.059405940594,4,2,4,35,1,0
46039,594.059405940594,4,2,5,35,1,0
46340,594.059405940594,4,2,11,35,1,0
46340,-83.3333333333333,4,2,11,35,0,0
46640,594.059405940594,4,2,1,5,1,0
46937,-100,4,2,4,35,0,0
47243,594.059405940594,4,2,5,35,1,0
47547,594.059405940594,4,2,11,35,1,0
47870,594.059405940594,4,2,1,35,1,0
47870,-90.9090909090909,4,2,1,35,0,0
48251,594.059405940594,4,2,3,35,1,0
48548,-100,4,2,5,35,0,0
48796,594.059405940594,4,2,11,35,1,0
49403,594.059405940594,4,2,3,35,1,0
49700,-90.9090909090909,4,2,5,35,0,0
50054,594.059405940594,4,2,11,35,1,0
50423,594.059405940594,4,2,1,35,1,0
50423,-111.111111111111,4,2,1,35,0,0
51388,-90.9090909090909,4,2,1,5,0,0
51573,603.015075376884,4,2,1,35,1,0
51573,-111.111111111111,4,2,1,35,0,0
52477,-90.9090909090909,4,2,1,5,0,0
52629,594.059405940594,4,2,1,35,1,0
59909,594.059405940594,4,2,12,35,1,0
60187,594.059405940594,4,2,3,35,1,0
60477,594.059405940594,4,2,9,35,1,0
60477,-76.9230769230769,4,2,9,35,0,0
60721,594.059405940594,4,2,10,35,1,0
61030,594.059405940594,4,2,12,35,1,0
61030,-76.9230769230769,4,2,12,35,0,0
61307,594.059405940594,4,2,3,35,1,0
61581,594.059405940594,4,2,9,35,1,0
61841,594.059405940594,4,2,10,35,1,0
62138,-76.9230769230769,4,2,13,35,0,0
62461,594.059405940594,4,2,4,35,1,0
62729,594.059405940594,4,2,5,35,1,0
62974,594.059405940594,4,2,11,35,1,0
62974,-76.9230769230769,4,2,11,35,0,0
63271,-76.9230769230769,4,2,13,35,0,0
63589,594.059405940594,4,2,4,35,1,0
63886,-90.9090909090909,4,2,5,35,0,0
64331,-100,4,2,5,5,0,0
64503,594.059405940594,4,2,14,40,1,0
64800,-76.9230769230769,4,2,3,40,0,0
65118,594.059405940594,4,2,5,40,1,0
65368,594.059405940594,4,2,11,40,1,0
65665,-100,4,2,14,40,0,0
65908,594.059405940594,4,2,3,40,1,0
66165,594.059405940594,4,2,5,40,1,0
66462,-76.9230769230769,4,2,11,40,0,0
66759,-76.9230769230769,4,2,15,45,0,0
67056,-76.9230769230769,4,2,16,45,0,0
67304,594.059405940594,4,2,9,45,1,0
67304,-76.9230769230769,4,2,9,45,0,0
67601,-76.9230769230769,4,2,17,45,0,0
68223,594.059405940594,4,2,16,45,1,0
68556,594.059405940594,4,2,9,45,1,0
68556,-90.9090909090909,4,2,9,45,0,0
69075,-90.9090909090909,4,2,9,5,0,0
69189,594.059405940594,4,2,18,50,1,0
69486,-100,4,2,9,50,0,0
69783,-100,4,2,17,50,0,0
70067,594.059405940594,4,2,19,50,1,0
70067,-83.3333333333333,4,2,19,50,0,0
70413,594.059405940594,4,2,3,50,1,0
70689,594.059405940594,4,2,9,50,1,0
70986,-100,4,2,21,50,0,0
71333,594.059405940594,4,2,19,50,1,0
79032,594.059405940594,4,2,17,50,1,0
79032,-76.9230769230769,4,2,17,50,0,0
79374,594.059405940594,4,2,21,50,1,0
79643,594.059405940594,4,2,19,50,1,0
79887,594.059405940594,4,2,21,50,1,0
80128,594.059405940594,4,2,9,50,1,0
80407,594.059405940594,4,2,21,50,1,0
80682,594.059405940594,4,2,19,50,1,0
80682,-76.9230769230769,4,2,19,50,0,0
80952,594.059405940594,4,2,21,50,1,0
81249,-100,4,2,11,50,0,0
81578,594.059405940594,4,2,21,50,1,0
81918,594.059405940594,4,2,19,50,1,0
82215,-100,4,2,21,50,0,0
82512,-100,4,2,11,50,0,0
83551,-100,4,2,11,5,0,0
83748,594.059405940594,4,2,17,50,1,0
84045,-100,4,2,21,50,0,0
84289,594.059405940594,4,2,19,50,1,0
84289,-76.9230769230769,4,2,19,50,0,0
84556,594.059405940594,4,2,21,50,1,0
84838,594.059405940594,4,2,9,50,1,0
85152,594.059405940594,4,2,21,50,1,0
85434,594.059405940594,4,2,19,50,1,0
85716,594.059405940594,4,2,21,50,1,0
86048,594.059405940594,4,2,17,50,1,0
86048,-83.3333333333333,4,2,17,50,0,0
86376,594.059405940594,4,2,21,50,1,0
86658,594.059405940594,4,2,19,50,1,0
86658,-90.9090909090909,4,2,19,50,0,0
86937,594.059405940594,4,2,21,50,1,0
87279,594.059405940594,4,2,11,50,1,0
87633,594.059405940594,4,2,21,50,1,0
87947,594.059405940594,4,2,19,50,1,0
88266,594.059405940594,4,2,21,50,1,0
88649,594.059405940594,4,2,17,50,1,0
93897,666.666666666667,4,2,17,35,1,0
93897,-83.3333333333333,4,2,17,35,0,0
95563,-83.3333333333333,4,2,21,35,0,0
95897,-83.3333333333333,4,2,17,35,0,0
96230,-83.3333333333333,4,2,11,35,0,0
96563,-83.3333333333333,4,2,17,35,0,0
98230,-83.3333333333333,4,2,19,35,0,0
98563,-83.3333333333333,4,2,21,35,0,0
98897,-83.3333333333333,4,2,11,35,0,0
99230,-83.3333333333333,4,2,10,35,0,0
101230,-83.3333333333333,4,2,11,35,0,0
101563,-83.3333333333333,4,2,11,5,0,0
101897,-90.9090909090909,4,2,9,35,0,0
104230,-90.9090909090909,4,2,9,5,0,0
104563,-83.3333333333333,4,2,17,35,0,0
106229,-83.3333333333333,4,2,21,35,0,0
106563,-83.3333333333333,4,2,17,35,0,0
106896,-83.3333333333333,4,2,11,35,0,0
107229,-83.3333333333333,4,2,17,35,0,0
108897,-83.3333333333333,4,2,21,35,0,0
109230,-83.3333333333333,4,2,19,35,0,0
109563,-83.3333333333333,4,2,22,35,0,0
109897,-100,4,2,23,35,0,0
112230,-100,4,2,23,5,0,0
112563,-111.111111111111,4,2,22,35,0,0
115230,-111.111111111111,4,2,22,5,0,0
117897,-83.3333333333333,4,2,17,35,0,0
119563,-83.3333333333333,4,2,21,35,0,0
119897,-83.3333333333333,4,2,17,35,0,0
120230,-83.3333333333333,4,2,11,35,0,0
120563,-83.3333333333333,4,2,17,35,0,0
122230,-83.3333333333333,4,2,19,35,0,0
122563,-83.3333333333333,4,2,21,35,0,0
122897,-83.3333333333333,4,2,11,35,0,0
123230,-83.3333333333333,4,2,10,35,0,0
124896,-83.3333333333333,4,2,10,5,0,0
125230,-83.3333333333333,4,2,11,35,0,0
125563,-83.3333333333333,4,2,11,5,0,0
125897,-90.9090909090909,4,2,9,35,0,0
127230,-90.9090909090909,4,2,9,5,0,0
128563,-90.9090909090909,4,2,16,35,0,0
130230,-90.9090909090909,4,2,10,35,0,0
130563,-90.9090909090909,4,2,9,35,0,0
130896,-90.9090909090909,4,2,16,35,0,0
130897,-90.9090909090909,4,2,5,35,0,0
131230,-90.9090909090909,4,2,16,35,0,0
132563,-90.9090909090909,4,2,4,35,0,0
133730,-90.9090909090909,4,2,21,5,0,0
133897,-125,4,2,3,35,0,0
139230,-125,4,2,17,5,0,0

[Colours]
Combo1 : 255,128,64
Combo2 : 244,115,108

[HitObjects]
24,80,10847,6,0,P|85:60|110:51,1,70,2|2,0:0|0:0,0:0:0:0:
161,28,11514,2,0,P|220:51|245:61,1,70,2|2,0:0|0:0,0:0:0:0:
341,38,12181,1,2,0:0:0:0:
293,98,12514,1,2,0:0:0:0:
326,167,12847,2,0,P|308:227|304:257,1,70,2|2,0:0|0:0,0:0:0:0:
221,290,13514,6,0,P|183:275|128:265,2,70,2|2|2,0:0|0:0|0:0,0:0:0:0:
278,341,14514,1,2,0:0:0:0:
278,341,14847,1,2,0:0:0:0:
278,341,18848,6,0,P|284:306|298:269,2,70,2|2|2,0:0|0:0|0:0,0:0:0:0:
209,375,19848,5,2,0:0:0:0:
115,331,20181,2,0,P|84:322|42:309,2,70,2|2|2,0:0|0:0|0:0,0:0:0:0:
180,297,21181,1,2,0:0:0:0:
139,221,21514,2,0,L|119:147,1,70,2|2,0:0|0:0,0:0:0:0:
188,117,22181,2,0,L|208:50,1,70,2|2,0:0|0:0,0:0:0:0:
144,11,22848,1,2,0:0:0:0:
144,11,26848,5,2,0:0:0:0:
94,70,27181,1,2,0:0:0:0:
122,141,27514,2,0,P|102:192|95:218,1,70,2|2,0:0|0:0,0:0:0:0:
71,306,28181,2,0,P|21:320|-13:335,2,70,2|2|2,0:0|0:0|0:0,0:0:0:0:
132,352,29181,1,2,0:0:0:0:
217,261,29514,6,0,P|256:269|300:287,1,70,2|2,0:0|0:0,0:0:0:0:
359,263,30181,2,0,P|376:227|405:189,1,70,2|2,0:0|0:0,0:0:0:0:
359,136,30848,1,2,0:0:0:0:
359,136,32181,5,2,0:0:0:0:
404,76,32514,1,2,0:0:0:0:
15,138,43110,5,0,0:0:0:0:
75,90,43407,1,2,0:0:0:0:
153,110,43700,2,0,P|204:94|254:86,1,76,2|2,0:0|0:0,0:0:0:0:
304,23,44265,6,0,P|342:56|323:106,1,93,0|2,0:0|0:0,0:0:0:0:
412,207,44851,2,0,P|358:184|280:166,1,105,2|0,0:0|0:0,0:0:0:0:
304,151,45471,5,0,0:0:0:0:
394,316,45789,1,2,0:0:0:0:
455,261,46039,1,2,0:0:0:0:
320,281,46340,2,0,P|271:293|220:310,1,85,2|0,0:0|0:0,0:0:0:0:
138,370,46937,5,2,0:0:0:0:
81,320,47243,1,2,0:0:0:0:
109,250,47547,1,2,0:0:0:0:
192,85,47870,6,0,P|143:79|107:134,1,99,0|2,0:0|0:0,0:0:0:0:
80,176,48548,1,2,0:0:0:0:
5,159,48796,1,2,0:0:0:0:
64,300,49093,5,0,0:0:0:0:
128,257,49403,1,2,0:0:0:0:
236,306,49700,2,0,P|291:291|326:287,1,92,2|2,0:0|0:0,0:0:0:0:
388,343,50423,2,0,P|454:352|420:255,1,204.749993751526
415,243,51573,2,0,B|425:163|455:158|489:151|505:83,1,188.999994232178
499,52,52629,1,0,0:0:0:0:
163,107,59906,5,2,0:0:0:0:
124,174,60187,1,2,0:0:0:0:
173,94,60477,2,0,P|164:52|160:17,1,75,2|2,0:0|0:0,0:0:0:0:
258,154,61030,6,0,P|302:154|328:101,1,85,2|2,0:0|0:0,0:0:0:0:
438,60,61581,1,2,0:0:0:0:
491,113,61841,1,2,0:0:0:0:
431,230,62138,6,0,P|390:211|336:197,1,99,2|2,0:0|0:0,0:0:0:0:
238,129,62729,1,2,0:0:0:0:
202,196,62974,2,0,P|217:219|237:281,1,90.9999958343508,2|2,0:0|0:0,0:0:0:0:
299,316,63589,5,2,0:0:0:0:
185,359,63886,2,0,P|128:360|109:304,1,115.50000352478,2|2,0:0|0:0,0:0:0:0:
117,297,64503,5,2,0:0:0:0:
292,372,64800,6,0,P|333:358|401:349,1,97.7,2|2,0:0|0:0,0:0:0:0:
434,289,65368,1,2,0:0:0:0:
345,180,65665,5,2,0:0:0:0:
394,117,65908,1,2,0:0:0:0:
309,18,66165,1,2,0:0:0:0:
240,51,66462,2,0,P|206:37|145:23,1,90.9999958343508,2|2,0:0|0:0,0:0:0:0:
246,153,67056,5,2,0:0:0:0:
195,212,67304,2,0,P|207:243|223:302,2,90.9999958343508,2|2|0,0:0|0:0|0:0,0:0:0:0:
98,243,68223,1,2,0:0:0:0:
47,188,68556,6,0,P|33:154|100:105,1,134.750004112244,2|0,0:0|0:0,0:0:0:0:
117,116,69189,5,2,0:0:0:0:
214,30,69486,1,2,0:0:0:0:
266,83,69783,1,2,0:0:0:0:
212,165,70067,2,0,P|227:207|246:252,1,98,2|2,0:0|0:0,0:0:0:0:
265,346,70689,5,2,0:0:0:0:
196,313,70986,1,2,0:0:0:0:
89,375,71333,5,2,0:0:0:0:
339,256,79032,6,0,P|394:255|425:319,1,105,2|2,0:0|0:0,0:0:0:0:
343,360,79643,5,2,0:0:0:0:
263,317,79887,1,2,0:0:0:0:
139,289,80128,5,2,0:0:0:0:
166,369,80407,1,2,0:0:0:0:
133,275,80682,2,0,P|149:231|159:188,1,83,2|2,0:0|0:0,0:0:0:0:
263,69,81249,5,2,0:0:0:0:
347,108,81578,1,2,0:0:0:0:
307,192,81918,1,2,0:0:0:0:
224,152,82215,1,2,0:0:0:0:
159,51,82512,2,0,B|134:153|105:150|78:148|46:276,1,245,2|0,0:0|0:0,0:0:0:0:
62,283,83748,5,2,0:0:0:0:
194,244,84045,1,2,0:0:0:0:
253,187,84289,2,0,P|299:201|345:212,1,82,2|2,0:0|0:0,0:0:0:0:
409,355,84838,5,2,0:0:0:0:
373,282,85152,1,2,0:0:0:0:
441,206,85434,5,2,0:0:0:0:
477,133,85716,1,2,0:0:0:0:
395,17,86048,6,0,P|366:28|278:47,1,93,2|2,0:0|0:0,0:0:0:0:
260,98,86658,2,0,P|221:83|179:73,1,72.5,2|2,0:0|0:0,0:0:0:0:
50,5,87279,5,2,0:0:0:0:
6,80,87633,1,2,0:0:0:0:
94,132,87947,5,2,0:0:0:0:
127,213,88266,1,2,0:0:0:0:
32,324,88649,1,2,0:0:0:0:
2,327,93897,6,0,P|2:270|99:267,1,167.999994873047,2|0,0:0|0:0,0:0:0:0:
158,220,94897,1,0,0:0:0:0:
117,156,95230,1,0,0:0:0:0:
167,100,95563,2,0,P|187:43|197:9,2,83.9999974365235,2|2|2,0:0|0:0|0:0,0:0:0:0:
255,170,96563,6,0,B|323:182|320:213|331:248|418:274,1,167.999994873047,2|0,0:0|0:0,0:0:0:0:
454,302,97563,1,0,0:0:0:0:
392,346,97897,2,0,P|333:364|301:379,1,83.9999974365235,0|2,0:0|0:0,0:0:0:0:
251,328,98563,1,2,0:0:0:0:
180,355,98897,1,2,0:0:0:0:
59,304,99230,6,0,P|90:267|8:205,1,167.999994873047,2|0,0:0|0:0,0:0:0:0:
9,125,100230,1,0,0:0:0:0:
63,73,100563,1,0,0:0:0:0:
63,73,100897,1,0,0:0:0:0:
133,101,101230,2,0,P|200:77|226:71,1,83.9999974365235,2|0,0:0|0:0,0:0:0:0:
337,108,101897,6,0,B|409:41|363:-34|272:-15|262:12|266:65|250:107|311:137|335:168|392:229|286:260|216:251|221:231|197:136|289:114,1,539.000016448975,2|0,0:0|0:0,0:0:0:0:
213,27,104563,6,0,B|146:36|144:69|138:102|42:104,1,167.999994873047,2|0,0:0|0:0,0:0:0:0:
41,173,105563,2,0,P|74:229|87:261,1,83.9999974365235
130,304,106230,1,2,0:0:0:0:
191,260,106563,1,2,0:0:0:0:
264,277,106897,1,2,0:0:0:0:
366,340,107230,6,0,P|424:351|451:252,1,167.999994873047,2|0,0:0|0:0,0:0:0:0:
428,195,108230,2,0,P|453:136|468:98,1,83.9999974365235
410,49,108897,5,2,0:0:0:0:
339,94,109230,1,2,0:0:0:0:
259,73,109563,1,2,0:0:0:0:
166,175,109897,6,0,B|211:126|302:124|304:152|300:256|406:267|446:242|442:212|473:168|457:153|390:83|307:172,1,490,2|0,0:0|0:0,0:0:0:0:
186,254,112563,6,0,B|215:292|206:332|185:380|124:365|78:344|62:306|65:240|177:262|116:90|85:77|-47:116|-22:241|85:219,1,503.999984619141,2|0,0:0|0:0,0:0:0:0:
391,271,117897,6,0,B|330:280|320:316|302:347|222:352,1,167.999994873047,2|0,0:0|0:0,0:0:0:0:
182,308,118897,1,0,0:0:0:0:
114,342,119230,1,0,0:0:0:0:
59,290,119563,2,0,P|47:230|29:189,2,83.9999974365235,2|2|2,0:0|0:0|0:0,0:0:0:0:
121,155,120563,6,0,P|176:134|211:217,1,167.999994873047,2|0,0:0|0:0,0:0:0:0:
269,264,121563,2,0,P|350:243|365:240,1,83.9999974365235
390,178,122230,5,2,0:0:0:0:
344,118,122563,1,2,0:0:0:0:
379,51,122897,1,2,0:0:0:0:
262,4,123230,6,0,B|203:21|187:54|192:90|112:106,1,167.999994873047,2|0,0:0|0:0,0:0:0:0:
54,98,124230,1,0,0:0:0:0:
18,164,124563,2,0,P|41:219|49:251,1,83.9999974365235
114,277,125230,2,0,P|159:238|188:221,1,83.9999974365235,2|0,0:0|0:0,0:0:0:0:
280,166,125897,6,0,B|313:131|315:86|243:45|228:75|168:129|195:158|312:199|235:275,1,308.000009399414,2|0,0:0|0:0,0:0:0:0:
320,116,128563,2,0,P|397:113|407:191,1,154.000004699707,2|0,0:0|0:0,0:0:0:0:
371,239,129563,1,0,0:0:0:0:
371,239,129897,2,0,P|391:281|401:326,1,77.0000023498536,0|2,0:0|0:0,0:0:0:0:
340,360,130563,2,0,P|288:341|243:336,1,77.0000023498536,2|2,0:0|0:0,0:0:0:0:
204,291,131230,6,0,B|136:296|124:312|122:346|27:347,1,154.000004699707,2|0,0:0|0:0,0:0:0:0:
8,289,132230,1,0,0:0:0:0:
22,213,132563,2,0,P|0:178|146:146,1,269.500008224488,2|0,0:0|0:0,0:0:0:0:
128,154,133897,6,0,B|211:76|350:129|284:170|351:221|308:303|324:427|64:383|41:364|150:-47|289:195|283:182|322:258|377:316|446:337|476:299|540:301|508:101|348:255,1,896,2|0,0:0|0:0,0:0:0:0:
